<?xml version="1.0" standalone="no"?>
<!DOCTYPE svg PUBLIC "-//W3C//DTD SVG 1.1//EN" "http://www.w3.org/Graphics/SVG/1.1/DTD/svg11.dtd" >
<svg xmlns="http://www.w3.org/2000/svg" xmlns:xlink="http://www.w3.org/1999/xlink" version="1.1">
<metadata>
Created by FontForge 20201107 at Wed Oct 27 17:11:08 2021
 By 
Copyright 2021 The Urbanist Project Authors (https://github.com/coreyhu/Urbanist)
</metadata>
<defs>
<font id="Urbanist-ExtraLight" horiz-adv-x="326" >
  <font-face 
    font-family="Urbanist ExtraLight"
    font-weight="250"
    font-stretch="normal"
    units-per-em="2000"
    panose-1="2 11 10 4 4 2 0 0 2 3"
    ascent="1600"
    descent="-400"
    x-height="1000"
    cap-height="1400"
    bbox="-223 -500 2756 1975"
    underline-thickness="50"
    underline-position="-125"
    unicode-range="U+000D-FFFD"
  />
<missing-glyph horiz-adv-x="1000" 
d="M100 -500v2400h800v-2400h-800zM200 -400h600v2200h-600v-2200z" />
    <glyph glyph-name=".notdef" horiz-adv-x="1000" 
d="M100 -500v2400h800v-2400h-800zM200 -400h600v2200h-600v-2200z" />
    <glyph glyph-name=".null" horiz-adv-x="1200" 
 />
    <glyph glyph-name=".null" horiz-adv-x="1200" 
 />
    <glyph glyph-name="nonmarkingreturn" unicode="&#xd;" horiz-adv-x="1200" 
 />
    <glyph glyph-name="nonmarkingreturn" unicode="&#xfeff;" horiz-adv-x="1200" 
 />
    <glyph glyph-name="space" unicode=" " horiz-adv-x="480" 
 />
    <glyph glyph-name="exclam" unicode="!" horiz-adv-x="312" 
d="M97 420v980h80v-980h-80zM137 -26q-23 0 -40 17t-17 40t17 39.5t40 16.5t39 -16.5t16 -39.5t-16 -40t-39 -17z" />
    <glyph glyph-name="quotedbl" unicode="&#x22;" horiz-adv-x="483" 
d="M78 878v522h75v-522h-75zM331 878v522h75v-522h-75z" />
    <glyph glyph-name="numbersign" unicode="#" horiz-adv-x="1479" 
d="M1377 955h-220l-137 -508h221l-22 -84h-220l-98 -363h-86l98 363h-526l-98 -363h-86l98 363h-221l23 84h219l137 508h-221l23 83h221l96 362h86l-96 -362h526l96 362h86l-96 -362h219zM934 447l137 508h-526l-137 -508h526z" />
    <glyph glyph-name="dollar" unicode="$" horiz-adv-x="1165" 
d="M582 1333q-108 0 -200.5 -37t-149.5 -104t-57 -156q0 -102 53.5 -158t145 -84.5t208.5 -50.5q130 -24 242.5 -70.5t182 -124t69.5 -191.5q0 -111 -62.5 -194t-166 -132t-226.5 -56v-199h-75v199q-105 5 -200.5 40t-166 96.5t-99.5 144.5l80 31q26 -74 93 -124.5
t154 -76.5t175 -26q107 0 200 36.5t150.5 103.5t57.5 157q0 92 -59.5 150.5t-153 93t-195.5 52.5q-141 26 -252.5 66.5t-176 115t-64.5 201.5q0 111 63 194t167 131.5t227 54.5v208h75v-208q99 -5 193 -39t166 -95t105 -147l-82 -29q-26 74 -92.5 124.5t-153.5 76.5t-175 26
z" />
    <glyph glyph-name="percent" unicode="%" horiz-adv-x="1165" 
d="M127 0l808 1400h100l-808 -1400h-100zM287 885q-57 0 -104 28t-75 75t-28 104q0 58 28 105t75 75.5t104 28.5q58 0 104.5 -28.5t75 -75.5t28.5 -105t-28.5 -104.5t-75.5 -74.5t-104 -28zM287 960q56 0 94 39t38 93q0 56 -38 95t-94 39q-55 0 -93.5 -39t-38.5 -95
q0 -54 38.5 -93t93.5 -39zM877 99q-57 0 -104.5 28.5t-76 76t-28.5 104.5t29 104t76 75t104 28q58 0 105 -28t75 -75t28 -104q0 -58 -28 -105t-75 -75.5t-105 -28.5zM877 174q54 0 93 39.5t39 94.5q0 54 -39 93t-93 39q-55 0 -94.5 -39t-39.5 -93q0 -55 39.5 -94.5
t94.5 -39.5z" />
    <glyph glyph-name="ampersand" unicode="&#x26;" horiz-adv-x="1410" 
d="M472 -26q-117 0 -205.5 56t-137.5 146.5t-49 191.5q0 66 14 113.5t50 96t101 114t167 167.5q-62 63 -101 103.5t-60.5 71t-30 61t-8.5 72.5q0 72 35.5 131.5t95 94.5t129.5 35q72 0 131.5 -35t95 -94.5t35.5 -131.5q0 -43 -9 -75t-31 -62.5t-61 -70.5t-99 -100l431 -431
l204 203v-121l-145 -145l306 -304l-61 -61l-304 302q-103 -102 -168.5 -167t-113.5 -100t-95.5 -48t-115.5 -13zM472 60q58 0 98 12.5t81 45t100 92.5t154 156l-433 433q-97 -99 -157.5 -159t-92 -101t-43 -80t-11.5 -94q0 -85 40.5 -154.5t109.5 -110t154 -40.5zM472 914
l114 114t52.5 67.5t13.5 71.5q0 76 -53 128t-127 52q-76 0 -127 -54.5t-51 -125.5q0 -44 15 -73t53 -68t110 -112z" />
    <glyph glyph-name="quotesingle" unicode="'" horiz-adv-x="231" 
d="M78 878v522h75v-522h-75z" />
    <glyph glyph-name="parenleft" unicode="(" horiz-adv-x="583" 
d="M397 -112q-100 91 -160.5 213.5t-88.5 261.5t-28 281q0 84 10 170.5t32 170t54.5 160.5t77.5 142t103 113h86q-56 -59 -99 -125t-75 -139t-54 -152t-34 -164t-15 -176q5 -158 36.5 -293.5t91 -250.5t149.5 -212h-86z" />
    <glyph glyph-name="parenright" unicode=")" horiz-adv-x="583" 
d="M100 -112q90 97 149.5 212t91 250.5t36.5 293.5q-3 91 -15 176t-34 164t-54 152t-75 139t-99 125h86q58 -48 103 -113t77.5 -142t54.5 -160.5t32 -170t10 -170.5q0 -142 -27.5 -281t-88.5 -261.5t-161 -213.5h-86z" />
    <glyph glyph-name="asterisk" unicode="*" horiz-adv-x="695" 
d="M194 862l-60 45l136 187l-220 73l23 70l222 -70v233h75v-233l222 70l23 -70l-222 -73l137 -187l-62 -45l-136 189z" />
    <glyph glyph-name="plus" unicode="+" horiz-adv-x="1160" 
d="M537 100v457h-457v86h457v457h86v-457h457v-86h-457v-457h-86z" />
    <glyph glyph-name="comma" unicode="," horiz-adv-x="348" 
d="M80 -112l62 338h86l-91 -338h-57z" />
    <glyph glyph-name="hyphen" unicode="-" horiz-adv-x="880" 
d="M120 643h640v-86h-640v86z" />
    <glyph glyph-name="period" unicode="." horiz-adv-x="313" 
d="M135 -26q-22 0 -38.5 17t-16.5 40t16.5 39.5t38.5 16.5q25 0 41.5 -16.5t16.5 -39.5t-16.5 -40t-41.5 -17z" />
    <glyph glyph-name="slash" unicode="/" horiz-adv-x="650" 
d="M570 1400l-404 -1512h-86l404 1512h86z" />
    <glyph glyph-name="zero" unicode="0" horiz-adv-x="1182" 
d="M592 -26q-127 0 -226 56.5t-167.5 156.5t-103.5 231.5t-35 281.5q0 151 35 282.5t103.5 231t167.5 156t226 56.5t225.5 -56.5t166.5 -156t103 -231t35 -282.5q0 -150 -35 -281.5t-103 -231.5t-166.5 -156.5t-225.5 -56.5zM592 60q146 0 245.5 87.5t150 233t50.5 319.5
q0 183 -52 327.5t-151.5 228.5t-242.5 84q-113 0 -197 -51t-139.5 -140t-83.5 -205t-28 -244q0 -176 51.5 -321t151.5 -232t245 -87z" />
    <glyph glyph-name="one" unicode="1" horiz-adv-x="463" 
d="M217 0v1314h-137l27 86h196v-1400h-86z" />
    <glyph glyph-name="two" unicode="2" horiz-adv-x="1061" 
d="M80 0v75q91 90 193.5 190t201 203t178 201.5t127 187.5t47.5 160q0 88 -43 161.5t-115.5 117.5t-161.5 44q-88 0 -161 -44t-116.5 -117.5t-43.5 -161.5h-86q0 113 55 206t147.5 148t204.5 55t204 -55.5t147 -148.5t55 -205q0 -73 -44.5 -165.5t-117.5 -194t-163.5 -204
t-184 -197t-176.5 -170.5h714v-86h-861z" />
    <glyph glyph-name="three" unicode="3" horiz-adv-x="962" 
d="M481 -26q-129 0 -223 54.5t-146 146t-52 202.5h86q0 -87 40 -159t114.5 -115t180.5 -43q87 0 163.5 43t124 115t47.5 159q0 107 -52.5 177.5t-144 106.5t-207.5 36v78q161 0 261 72t100 212q0 77 -43 140.5t-111.5 102t-145.5 38.5q-78 0 -147.5 -38.5t-113 -102
t-43.5 -140.5h-86q0 75 31.5 142t86.5 117.5t125 79t147 28.5q101 0 189 -50t142.5 -133t54.5 -184q0 -115 -61 -200.5t-161 -119.5q87 -29 146 -82t89 -124t30 -156q0 -111 -59 -202.5t-155 -146t-207 -54.5z" />
    <glyph glyph-name="four" unicode="4" horiz-adv-x="1057" 
d="M688 0v421h-608v89l583 890h111v-893h163v-86h-163v-421h-86zM185 510l503 -3l-4 762z" />
    <glyph glyph-name="five" unicode="5" horiz-adv-x="1085" 
d="M518 -26q-125 0 -226.5 60.5t-161.5 162t-60 224.5h86q0 -99 48.5 -181t130.5 -131t183 -49q99 0 181 49t131 131t49 181q0 100 -48.5 182t-131.5 131t-188 49h-331l124 617h639v-86h-569l-88 -445h196q143 -1 251.5 -57.5t170 -156.5t61.5 -234q0 -92 -35 -173
t-97 -142.5t-142.5 -96.5t-172.5 -35z" />
    <glyph glyph-name="six" unicode="6" horiz-adv-x="1066" 
d="M527 -26q-131 0 -239 65t-173 173.5t-65 240.5q0 81 18.5 132.5t54.5 120.5l399 694h100l-305 -530q92 49 188.5 54t186 -27.5t160 -96t112.5 -152t42 -195.5q0 -99 -37.5 -186t-103.5 -152.5t-153 -103t-185 -37.5zM527 60q114 0 202.5 55.5t139.5 145.5t51 193
q0 108 -53 196t-142 141t-196 53q-112 0 -200.5 -54.5t-140.5 -143t-52 -192.5q0 -111 54.5 -200t143 -141.5t193.5 -52.5z" />
    <glyph glyph-name="seven" unicode="7" horiz-adv-x="1053" 
d="M157 0l757 1314h-874v86h973v-86l-759 -1314h-97z" />
    <glyph glyph-name="eight" unicode="8" horiz-adv-x="1033" 
d="M517 -26q-121 0 -220 54.5t-158 145.5t-59 202q0 121 72 218t183 144q-94 43 -156 129.5t-62 191.5q0 101 54 184t145 133t201 50q109 0 200 -50t145 -133t54 -184q0 -105 -61 -191.5t-157 -129.5q114 -47 184.5 -144t70.5 -218q0 -110 -59 -201.5t-158 -146t-219 -54.5z
M517 60q95 0 173 42.5t124 114.5t46 159q0 88 -46 159.5t-124 114t-173 42.5q-94 0 -172 -42.5t-125 -114t-47 -159.5q0 -87 47 -159t125 -114.5t172 -42.5zM517 778q85 0 154.5 38t110.5 101.5t41 141.5t-41 141.5t-110.5 101.5t-154.5 38t-155 -38t-111 -101.5t-41 -141.5
t41 -141.5t111 -101.5t155 -38z" />
    <glyph glyph-name="nine" unicode="9" horiz-adv-x="1031" 
d="M384 0l330 571q-109 -58 -224 -51.5t-212.5 65t-157.5 157.5t-60 227q0 94 35.5 177t98 145.5t145 98.5t177.5 36q124 0 227.5 -62t165.5 -166t62 -229q0 -77 -18.5 -125.5t-53.5 -115.5l-416 -728h-99zM514 598q106 0 190.5 51t133.5 135.5t49 182.5q0 106 -51.5 191
t-136 134.5t-183.5 49.5q-109 0 -193.5 -52t-132.5 -138t-48 -185q0 -102 50 -186t134.5 -133.5t187.5 -49.5z" />
    <glyph glyph-name="colon" unicode=":" horiz-adv-x="313" 
d="M135 887q-22 0 -38.5 17t-16.5 41q0 22 16.5 38.5t38.5 16.5q25 0 41.5 -16.5t16.5 -38.5q0 -24 -16.5 -41t-41.5 -17zM135 -26q-22 0 -38.5 17t-16.5 40t16.5 39.5t38.5 16.5q25 0 41.5 -16.5t16.5 -39.5t-16.5 -40t-41.5 -17z" />
    <glyph glyph-name="semicolon" unicode=";" horiz-adv-x="359" 
d="M80 -112l62 338h86l-91 -338h-57zM183 887q-24 0 -40.5 16.5t-16.5 39.5q0 24 16.5 40.5t40.5 16.5q23 0 39.5 -16.5t16.5 -40.5q0 -23 -16.5 -39.5t-39.5 -16.5z" />
    <glyph glyph-name="less" unicode="&#x3c;" horiz-adv-x="1160" 
d="M1080 246l-1000 284v138l1000 286v-91l-929 -263l929 -265v-89z" />
    <glyph glyph-name="equal" unicode="=" horiz-adv-x="1160" 
d="M80 362v86h1000v-86h-1000zM80 752v86h1000v-86h-1000z" />
    <glyph glyph-name="greater" unicode="&#x3e;" horiz-adv-x="1160" 
d="M80 247v89l929 264l-929 262v91l1000 -285v-138z" />
    <glyph glyph-name="question" unicode="?" horiz-adv-x="948" 
d="M424 509q0 91 46 167.5t127 121.5q68 36 106.5 104.5t38.5 150.5q0 80 -39 145.5t-104.5 104.5t-145.5 39q-79 0 -144.5 -39t-104 -104.5t-38.5 -145.5h-86q0 104 50.5 188.5t135.5 135.5t187 51q104 0 189 -51t135.5 -135.5t50.5 -188.5q0 -106 -51 -194.5t-140 -137.5
q-59 -32 -93 -88.5t-34 -123.5h-86zM457 -26q-23 0 -39.5 17.5t-16.5 39.5q0 23 16.5 39.5t39.5 16.5q24 0 40.5 -16.5t16.5 -39.5q0 -22 -16.5 -39.5t-40.5 -17.5z" />
    <glyph glyph-name="at" unicode="@" horiz-adv-x="1677" 
d="M839 -152q-157 0 -294.5 51t-242 144.5t-163.5 222t-59 285.5t59 294t163.5 241.5t242 163.5t294.5 59q159 0 296.5 -59t241 -164t162 -242t58.5 -293q0 -75 -19 -151.5t-54.5 -141t-87 -103.5t-117.5 -39q-56 0 -107.5 26.5t-84.5 73t-34 104.5q-43 -76 -116.5 -121.5
t-172.5 -45.5q-109 0 -199.5 53.5t-144 144t-53.5 200.5t53.5 200t144 143.5t199.5 53.5q99 0 173.5 -45.5t116.5 -120.5v146l77 -6v-592q0 -53 46.5 -90.5t99.5 -37.5q67 0 110 52.5t63.5 133t20.5 163.5q0 139 -52.5 261t-145 214t-214 144.5t-260.5 52.5q-138 0 -260 -52
t-215 -144t-145.5 -214t-52.5 -262q0 -139 52.5 -252.5t145 -195t214.5 -125.5t261 -44v-86zM807 230q89 0 151.5 49.5t96 127t33.5 160.5q0 78 -30 147.5t-92.5 113t-158.5 43.5q-89 0 -161.5 -43t-115.5 -115.5t-43 -161.5q0 -90 44 -163t116.5 -115.5t159.5 -42.5z" />
    <glyph glyph-name="A" unicode="A" horiz-adv-x="1298" 
d="M590 1400h118l510 -1400h-91l-119 327h-717l-119 -327h-92zM322 413h654l-327 897z" />
    <glyph glyph-name="B" unicode="B" horiz-adv-x="1085" 
d="M120 0v1400h453q98 0 178.5 -39.5t128.5 -116.5t48 -188q0 -71 -27 -132t-67.5 -101t-80.5 -48q61 -17 107.5 -55t79 -90t49 -111t16.5 -119q0 -123 -50 -212.5t-133 -138.5t-184 -49h-518zM206 81h429q79 0 144.5 42.5t104.5 116t39 167.5q0 83 -39 156.5t-104.5 119
t-144.5 45.5h-429v-647zM206 808h364q112 0 192 64t80 184q0 134 -80 198.5t-192 64.5h-364v-511z" />
    <glyph glyph-name="C" unicode="C" horiz-adv-x="1418" 
d="M768 -26q-142 0 -267 56.5t-219.5 156t-148 231t-53.5 282.5q0 150 53.5 281.5t148 231.5t219.5 156.5t267 56.5q170 0 313 -79t237 -211l-75 -40q-82 112 -209 178t-266 66q-126 0 -235.5 -51t-192 -139.5t-128.5 -204.5t-46 -245q0 -132 47 -248t130 -204.5t192 -138
t233 -49.5q146 0 271 67.5t204 175.5l75 -41q-94 -132 -237 -210t-313 -78z" />
    <glyph glyph-name="D" unicode="D" horiz-adv-x="1342" 
d="M120 0v1400h462q146 0 272.5 -54.5t223 -151t150.5 -223t54 -271.5t-54 -271.5t-150.5 -223t-223 -151t-272.5 -54.5h-462zM206 86h376q128 0 239.5 47.5t195.5 132t131.5 196t47.5 238.5t-47.5 238.5t-132 196t-195.5 132t-239 47.5h-376v-1228z" />
    <glyph glyph-name="E" unicode="E" horiz-adv-x="1059" 
d="M120 0v1400h839v-86h-753v-521h634v-86h-634v-621h753v-86h-839z" />
    <glyph glyph-name="F" unicode="F" horiz-adv-x="954" 
d="M120 0v1400h814v-86h-728v-521h632v-86h-632v-707h-86z" />
    <glyph glyph-name="G" unicode="G" horiz-adv-x="1536" 
d="M770 -26q-144 0 -269 56.5t-219.5 156.5t-148 231.5t-53.5 281.5q0 151 54 283t149.5 231.5t220 155.5t266.5 56q166 0 310 -77.5t240 -210.5l-77 -43q-87 117 -212.5 181t-260.5 64q-126 0 -235.5 -50.5t-192.5 -139.5t-129.5 -204.5t-46.5 -245.5q0 -131 47 -247
t130 -204.5t193 -138.5t234 -50q111 0 209 39.5t176 109.5t130.5 163t71.5 199h-441v82h540q-7 -141 -63.5 -264t-150.5 -216t-215 -146t-257 -53z" />
    <glyph glyph-name="H" unicode="H" horiz-adv-x="1227" 
d="M1021 1400h86v-1400h-86v707h-815v-707h-86v1400h86v-607h815v607z" />
    <glyph glyph-name="I" unicode="I" horiz-adv-x="386" 
d="M150 0v1400h86v-1400h-86z" />
    <glyph glyph-name="J" unicode="J" horiz-adv-x="759" 
d="M272 -26q-63 0 -122.5 21t-109.5 64l55 66q36 -31 82 -48t95 -17q78 0 141.5 42t101.5 110t38 145v1043h86v-1043q0 -101 -49 -188t-132.5 -141t-185.5 -54z" />
    <glyph glyph-name="K" unicode="K" horiz-adv-x="1011" 
d="M955 0h-110l-494 670l-145 -175v-495h-86v1400h86v-770l646 770h112l-556 -662z" />
    <glyph glyph-name="L" unicode="L" horiz-adv-x="981" 
d="M120 0v1400h86v-1314h675v-86h-761z" />
    <glyph glyph-name="M" unicode="M" horiz-adv-x="1717" 
d="M120 0l270 1400h51l418 -1099l415 1099h51l272 -1400h-88l-228 1177l-399 -1054h-49l-398 1054l-228 -1177h-87z" />
    <glyph glyph-name="N" unicode="N" horiz-adv-x="1235" 
d="M120 0v1400h94l815 -1245v1245h86v-1400h-92l-817 1245v-1245h-86z" />
    <glyph glyph-name="O" unicode="O" horiz-adv-x="1540" 
d="M770 -26q-142 0 -267 56.5t-220 156.5t-149 231.5t-54 281.5t54 281.5t149 231.5t220 156.5t267 56.5q143 0 268 -56.5t220 -156.5t148.5 -231.5t53.5 -281.5t-53.5 -281.5t-148.5 -231.5t-220 -156.5t-268 -56.5zM770 60q126 0 236 51t192.5 139.5t129 204t46.5 245.5
q0 131 -47 247t-130 204.5t-192.5 138.5t-234.5 50q-126 0 -236 -51t-192.5 -139.5t-129 -204t-46.5 -245.5q0 -132 47 -247.5t130 -204t192.5 -138.5t234.5 -50z" />
    <glyph glyph-name="P" unicode="P" horiz-adv-x="1015" 
d="M120 0v1400h421q111 0 200 -53t141.5 -144.5t52.5 -205.5q0 -115 -53.5 -206.5t-143 -144t-197.5 -52.5h-335v-594h-86zM206 680h331q86 0 157 41.5t113 114t42 163.5q0 92 -42 164.5t-113 114t-157 41.5h-331v-639z" />
    <glyph glyph-name="Q" unicode="Q" horiz-adv-x="1543" 
d="M1399 -15l-173 174q-91 -87 -208 -135.5t-248 -48.5q-143 0 -268 56.5t-220 156.5t-148.5 231.5t-53.5 281.5t53.5 281.5t148.5 231.5t220 156.5t268 56.5t267.5 -56.5t219 -156.5t148 -231.5t53.5 -281.5q0 -139 -46 -262t-128 -220l176 -173zM770 61q108 0 212 42
t181 117l-248 248l60 62l247 -247q73 87 111.5 195t38.5 223q0 132 -47 247.5t-130 204t-192 138.5t-233 50q-126 0 -236 -51t-192.5 -140t-129 -204.5t-46.5 -244.5q0 -132 47 -247.5t130.5 -204t193 -138.5t233.5 -50z" />
    <glyph glyph-name="R" unicode="R" horiz-adv-x="1064" 
d="M120 0v1400h443q111 0 200.5 -53t141.5 -144.5t52 -205.5q0 -107 -46 -193t-124.5 -140t-174.5 -65l346 -599h-100l-345 594h-307v-594h-86zM206 680h353q86 0 157 41.5t113 114t42 163.5q0 92 -42 164.5t-113 114t-157 41.5h-353v-639z" />
    <glyph glyph-name="S" unicode="S" horiz-adv-x="1205" 
d="M602 -26q-110 0 -213.5 34t-180.5 97t-108 151l80 31q26 -74 93 -124.5t154 -76.5t175 -26q107 0 200 36.5t150.5 103.5t57.5 157q0 92 -59.5 150.5t-153 93t-195.5 52.5q-141 26 -252.5 66.5t-176 115t-64.5 201.5q0 117 68.5 203t181 133t243.5 47q105 0 208 -32.5
t181.5 -96t113.5 -155.5l-82 -29q-26 74 -92.5 124.5t-153.5 76.5t-175 26q-108 0 -200.5 -37t-149.5 -104t-57 -156q0 -102 53.5 -158t145 -84.5t208.5 -50.5q130 -24 242.5 -70.5t182 -124t69.5 -191.5q0 -117 -69 -203t-181.5 -133t-243.5 -47z" />
    <glyph glyph-name="T" unicode="T" horiz-adv-x="1258" 
d="M1178 1400v-86h-507v-1314h-86v1314h-505v86h1098z" />
    <glyph glyph-name="U" unicode="U" horiz-adv-x="1308" 
d="M654 -26q-168 0 -287.5 82t-183 220.5t-63.5 307.5v816h86v-816q0 -143 51.5 -262t152 -190.5t244.5 -71.5q147 0 246.5 72.5t150.5 191.5t51 260v816h86v-816q0 -127 -36 -237.5t-104.5 -194.5t-168 -131t-225.5 -47z" />
    <glyph glyph-name="V" unicode="V" horiz-adv-x="1171" 
d="M537 0l-508 1400h91l464 -1281l467 1281h91l-510 -1400h-95z" />
    <glyph glyph-name="W" unicode="W" horiz-adv-x="1596" 
d="M387 0l-358 1400h88l323 -1264l322 1264h72l323 -1264l322 1264h88l-356 -1400h-108l-305 1193l-305 -1193h-106z" />
    <glyph glyph-name="X" unicode="X" horiz-adv-x="1252" 
d="M60 0l514 704l-508 696h106l454 -624l454 624h106l-506 -696l512 -704h-106l-460 630l-458 -630h-108z" />
    <glyph glyph-name="Y" unicode="Y" horiz-adv-x="1139" 
d="M978 1400h101l-467 -765v-635h-86v635l-466 765h101l408 -670z" />
    <glyph glyph-name="Z" unicode="Z" horiz-adv-x="1292" 
d="M80 0v86l1019 1228h-1019v86h1132v-86l-1019 -1228h1019v-86h-1132z" />
    <glyph glyph-name="bracketleft" unicode="[" horiz-adv-x="486" 
d="M386 -26v-86h-266v1512h266v-86h-180v-1340h180z" />
    <glyph glyph-name="backslash" unicode="\" horiz-adv-x="652" 
d="M486 -112l-406 1512h86l406 -1512h-86z" />
    <glyph glyph-name="bracketright" unicode="]" horiz-adv-x="486" 
d="M100 -112v86h180v1340h-180v86h266v-1512h-266z" />
    <glyph glyph-name="asciicircum" unicode="^" horiz-adv-x="695" 
d="M80 1000l236 650h63l236 -650h-91l-176 485l-178 -485h-90z" />
    <glyph glyph-name="underscore" unicode="_" horiz-adv-x="1240" 
d="M120 -26h1000v-86h-1000v86z" />
    <glyph glyph-name="grave" unicode="`" horiz-adv-x="609" 
d="M213 1398h86l80 -288h-57z" />
    <glyph glyph-name="a" unicode="a" horiz-adv-x="1143" 
d="M977 1000h86v-1000h-86l-2 218q-52 -109 -151 -176.5t-237 -67.5q-109 0 -204.5 41t-168 114t-113.5 168t-41 205q0 109 41 204.5t113 167.5t167 113t203 41q140 0 240 -67.5t155 -177.5zM586 59q122 0 208 59.5t131.5 160t45.5 221.5q0 124 -46 224.5t-132.5 159.5
t-206.5 59q-121 0 -221 -59.5t-159 -160.5t-59 -223q0 -124 61 -224t160.5 -158.5t217.5 -58.5z" />
    <glyph glyph-name="b" unicode="b" horiz-adv-x="1183" 
d="M597 1028q145 0 264.5 -71t190.5 -191t71 -266q0 -109 -41 -204t-113.5 -167.5t-167.5 -113.5t-204 -41q-138 0 -238 67.5t-153 177.5v-219h-86v1500h86v-717q53 110 153 177.5t238 67.5zM597 59q122 0 221.5 59.5t158.5 160t59 221.5q0 125 -60.5 225.5t-160.5 159
t-218 58.5q-122 0 -208 -60t-131.5 -161t-45.5 -222q0 -123 46 -223t132.5 -159t206.5 -59z" />
    <glyph glyph-name="c" unicode="c" horiz-adv-x="1018" 
d="M883 225l75 -41q-67 -96 -171.5 -153t-226.5 -57q-138 0 -251.5 71t-181 190.5t-67.5 264.5q0 110 39 205.5t107.5 168t159.5 113.5t194 41q122 0 226.5 -57t171.5 -153l-75 -41q-61 80 -147.5 122.5t-175.5 42.5q-117 0 -210.5 -60.5t-148.5 -161t-55 -220.5
q0 -121 56 -221t150 -159.5t208 -59.5q98 0 183 46t140 119z" />
    <glyph glyph-name="d" unicode="d" horiz-adv-x="1183" 
d="M977 1500h86v-1500h-86v219q-53 -110 -152.5 -177.5t-238.5 -67.5q-109 0 -204 41t-167.5 113.5t-113.5 167.5t-41 204q0 110 41 205.5t113.5 168t167.5 113.5t204 41q139 0 238.5 -67.5t152.5 -177.5v717zM586 59q122 0 208 59.5t131.5 160t45.5 221.5q0 124 -46 224.5
t-132.5 159.5t-206.5 59q-121 0 -220.5 -59.5t-159 -160.5t-59.5 -223q0 -124 61 -224t160.5 -158.5t217.5 -58.5z" />
    <glyph glyph-name="e" unicode="e" horiz-adv-x="1118" 
d="M560 -26q-138 0 -251.5 71t-181 190.5t-67.5 264.5q0 110 39 205.5t107.5 168t159.5 113.5t194 41q108 0 199.5 -41.5t158.5 -117t103.5 -179t35.5 -227.5h-908q10 -116 67.5 -206.5t146.5 -143.5t197 -53q119 0 214 63t151 173l87 -20q-60 -133 -181 -217.5t-271 -84.5z
M147 540h824q-5 109 -61.5 201.5t-148 148.5t-201.5 56q-111 0 -201 -54.5t-146.5 -147t-65.5 -204.5z" />
    <glyph glyph-name="f" unicode="f" horiz-adv-x="635" 
d="M287 1287v-287h315v-86h-315v-914h-86v914h-151v86h151v287q0 66 32 119.5t86 85.5t119 32q48 0 91.5 -18.5t77.5 -53.5l-61 -60q-20 22 -48.5 34t-59.5 12q-62 0 -106.5 -44t-44.5 -107z" />
    <glyph glyph-name="g" unicode="g" horiz-adv-x="1149" 
d="M943 1000h86v-1046q0 -90 -40.5 -171.5t-108 -145.5t-153 -100.5t-177.5 -36.5q-104 0 -200.5 49.5t-166.5 131t-95 178.5l79 37q18 -85 77 -155.5t140.5 -112.5t165.5 -42q74 0 144.5 30.5t126.5 82t89 117.5t33 138v262q-54 -108 -152 -175t-228 -67q-104 0 -195.5 41
t-160.5 113.5t-108 167.5t-39 204q0 110 39 205.5t108 168t160.5 113.5t195.5 41q130 0 228 -67t152 -176v215zM563 59q118 0 202 61.5t129 162t45 217.5q0 120 -45.5 221t-130 161.5t-200.5 60.5t-210.5 -59.5t-150 -160.5t-55.5 -223q0 -123 56.5 -223t151.5 -159t208 -59
z" />
    <glyph glyph-name="h" unicode="h" horiz-adv-x="1049" 
d="M969 612v-612h-86v603q0 94 -45.5 170.5t-122.5 122.5t-170 46q-94 0 -171 -46t-122.5 -122.5t-45.5 -170.5v-603h-86v1500h86v-663q54 87 146 139t201 52q115 0 209.5 -56t150.5 -150.5t56 -209.5z" />
    <glyph glyph-name="i" unicode="i" 
d="M120 1000h86v-1000h-86v1000zM164 1199q-23 0 -40 15.5t-17 39.5q0 25 17 40t40 15t39.5 -15t16.5 -39q0 -25 -16 -40.5t-40 -15.5z" />
    <glyph glyph-name="j" unicode="j" horiz-adv-x="417" 
d="M-80 -500v86q84 0 149.5 36.5t103.5 100t38 142.5v1135h86v-1135q0 -101 -49 -184t-134 -132t-194 -49zM255 1199q-23 0 -40 15.5t-17 39.5q0 25 17 40t40 15t39.5 -15t16.5 -39q0 -25 -16 -40.5t-40 -15.5z" />
    <glyph glyph-name="k" unicode="k" horiz-adv-x="936" 
d="M842 0h-98l-307 530l-231 -277v-253h-86v1500h86v-1112l514 612h112l-337 -400z" />
    <glyph glyph-name="l" unicode="l" 
d="M120 0v1500h86v-1500h-86z" />
    <glyph glyph-name="m" unicode="m" horiz-adv-x="1777" 
d="M120 0v1000h86v-163q55 87 146.5 139t200.5 52q118 0 215 -59t150 -156q53 97 149.5 156t213.5 59q115 0 209.5 -56t150.5 -150.5t56 -209.5v-612h-86v599q0 92 -44.5 170t-119 125.5t-166.5 47.5q-90 0 -165 -44t-119.5 -121t-44.5 -178v-599h-86v599q0 101 -44.5 178
t-119.5 121t-166 44t-166 -47.5t-119.5 -125.5t-44.5 -170v-599h-86z" />
    <glyph glyph-name="n" unicode="n" horiz-adv-x="1049" 
d="M969 612v-612h-86v603q0 94 -45.5 170.5t-122.5 122.5t-170 46q-94 0 -171 -46t-122.5 -122.5t-45.5 -170.5v-603h-86v1000h86v-163q54 87 146 139t201 52q115 0 209.5 -56t150.5 -150.5t56 -209.5z" />
    <glyph glyph-name="o" unicode="o" horiz-adv-x="1120" 
d="M560 -26q-138 0 -251.5 71t-181 190.5t-67.5 264.5q0 110 39 205.5t107.5 168t159.5 113.5t194 41q138 0 251.5 -71t181 -191t67.5 -266q0 -109 -39 -204t-107.5 -167.5t-159 -113.5t-194.5 -41zM560 60q117 0 210.5 61t148.5 161t55 218q0 119 -55 219.5t-148.5 161.5
t-210.5 61q-118 0 -211.5 -61t-148 -161.5t-54.5 -219.5q0 -123 56.5 -222.5t150.5 -158.5t207 -59z" />
    <glyph glyph-name="p" unicode="p" horiz-adv-x="1183" 
d="M206 -500h-86v1500h86v-219q53 110 153 177.5t238 67.5q109 0 204 -41t167.5 -113.5t113.5 -167.5t41 -204t-41 -205t-113.5 -168.5t-167.5 -113.5t-204 -41q-138 0 -238 67.5t-153 177.5v-717zM597 941q-120 0 -206.5 -59t-132.5 -159t-46 -223q0 -121 45.5 -222
t131.5 -161t208 -60q118 0 218 59t160.5 159t60.5 225q0 121 -59 221.5t-158.5 160t-221.5 59.5z" />
    <glyph glyph-name="q" unicode="q" horiz-adv-x="1183" 
d="M586 -28q-145 0 -264.5 71t-190.5 191t-71 266q0 109 41 204t113.5 167.5t167.5 113.5t204 41q139 0 238.5 -67.5t152.5 -177.5v219h86v-1500h-86v717q-53 -110 -152.5 -177.5t-238.5 -67.5zM586 941q-121 0 -221 -59.5t-159 -160t-59 -221.5q0 -125 60.5 -225
t160.5 -159t218 -59q122 0 208 60t131.5 161t45.5 222q0 123 -46 223t-132.5 159t-206.5 59z" />
    <glyph glyph-name="r" unicode="r" horiz-adv-x="686" 
d="M120 0v1000h86v-163q54 87 146 139t201 52q59 0 113 -15l-36 -83q-43 12 -85 12q-94 0 -171 -46t-122.5 -122.5t-45.5 -170.5v-603h-86z" />
    <glyph glyph-name="s" unicode="s" horiz-adv-x="854" 
d="M436 -20q-84 1 -164.5 29.5t-140 77.5t-81.5 109l77 33q18 -49 69.5 -87t117.5 -59.5t126 -21.5q73 0 136 25t102.5 70.5t39.5 105.5q0 64 -41.5 101t-105.5 60t-133 44q-112 33 -192.5 66t-123.5 83t-43 134q0 87 51 150.5t133.5 98.5t176.5 35q124 0 224.5 -54.5
t139.5 -142.5l-72 -42q-20 49 -66 84t-105 54.5t-118 19.5q-74 0 -138 -24t-103.5 -69.5t-39.5 -108.5q0 -65 35 -98.5t98.5 -55t150.5 -49.5q93 -29 174 -63.5t131 -86.5t50 -135q0 -87 -51.5 -151t-135 -98.5t-178.5 -33.5z" />
    <glyph glyph-name="t" unicode="t" horiz-adv-x="677" 
d="M618 914h-262l-2 -914h-86l2 914h-198v86h198l-2 314h86l2 -314h262v-86z" />
    <glyph glyph-name="u" unicode="u" horiz-adv-x="1009" 
d="M80 390v610h86v-601q0 -94 45.5 -170.5t122.5 -122.5t171 -46q93 0 169.5 46t122.5 122.5t46 170.5v601h86v-1000h-86v165q-55 -86 -146.5 -138.5t-200.5 -52.5q-115 0 -209.5 56t-150.5 150.5t-56 209.5z" />
    <glyph glyph-name="v" unicode="v" horiz-adv-x="958" 
d="M532 0h-106l-366 1004h92l327 -901l327 901h92z" />
    <glyph glyph-name="w" unicode="w" horiz-adv-x="1584" 
d="M488 0h-92l-336 1000h84l300 -888l298 888h100l298 -888l298 888h86l-336 -1000h-94l-304 899z" />
    <glyph glyph-name="x" unicode="x" horiz-adv-x="998" 
d="M80 0l366 502l-366 502h107l313 -428l312 428h106l-366 -502l366 -502h-106l-312 430l-314 -430h-106z" />
    <glyph glyph-name="y" unicode="y" horiz-adv-x="974" 
d="M804 1000h90l-546 -1500h-92l182 500l-358 1000h94l307 -881z" />
    <glyph glyph-name="z" unicode="z" horiz-adv-x="1014" 
d="M934 914l-736 -828h736v-86h-854v86l736 828h-736v86h854v-86z" />
    <glyph glyph-name="braceleft" unicode="{" horiz-adv-x="794" 
d="M638 -114q-97 0 -176.5 47.5t-126.5 127t-47 175.5v246q-2 36 -28 54t-58.5 30.5t-57 28.5t-24.5 47q0 34 24.5 51t57 28.5t58.5 29.5t28 53v246q0 96 47 175.5t126.5 127t176.5 47.5h56v-86h-56q-72 0 -132 -35.5t-96 -95.5t-36 -133v-249q-2 -42 -14.5 -64.5t-41 -42
t-78.5 -52.5q52 -33 80.5 -52.5t40 -41t13.5 -63.5v-249q0 -73 35.5 -132.5t95.5 -95.5t133 -36h56v-86h-56z" />
    <glyph glyph-name="bar" unicode="|" horiz-adv-x="366" 
d="M140 1400h86v-1702h-86v1702z" />
    <glyph glyph-name="braceright" unicode="}" horiz-adv-x="794" 
d="M100 -114v86h56q73 0 133 36t95.5 95.5t35.5 132.5v249q2 42 14 63.5t40 41t80 52.5q-50 33 -78.5 52.5t-41 42t-14.5 64.5v249q0 73 -35.5 133t-95.5 95.5t-133 35.5h-56v86h56q97 0 176.5 -47.5t126.5 -127t47 -175.5v-246q2 -35 28 -53t58.5 -29.5t57 -28.5t24.5 -51
q0 -31 -24.5 -47t-57 -28.5t-58.5 -30.5t-28 -54v-246q0 -96 -47 -175.5t-126.5 -127t-176.5 -47.5h-56z" />
    <glyph glyph-name="asciitilde" unicode="~" horiz-adv-x="1181" 
d="M863 436q-61 0 -134.5 37t-148 85t-141 84t-116.5 36q-51 1 -90 -27.5t-56.5 -74.5t-4.5 -98l-84 -12q-20 72 7 140t87 113t139 45q59 0 128 -37t141.5 -85t140.5 -84.5t125 -36.5q51 0 90.5 28t57.5 73t4 95l84 15q22 -77 -5.5 -144.5t-87.5 -109.5t-136 -42z" />
    <glyph glyph-name="uni00A0" unicode="&#xa0;" horiz-adv-x="480" 
 />
    <glyph glyph-name="exclamdown" unicode="&#xa1;" horiz-adv-x="277" 
d="M135 1026q25 0 41 -16.5t16 -40.5q0 -23 -16 -39.5t-41 -16.5q-22 0 -38.5 16.5t-16.5 39.5q0 24 16.5 40.5t38.5 16.5zM176 580v-980h-81v980h81z" />
    <glyph glyph-name="cent" unicode="&#xa2;" horiz-adv-x="1092" 
d="M541 0v201q-129 11 -233.5 80.5t-166 179t-61.5 241.5t61.5 241t166 178.5t233.5 79.5v199h75v-199q126 -7 230 -72t166 -167l-74 -43q-56 90 -153 144.5t-203 54.5q-114 0 -208.5 -56t-151 -150.5t-56.5 -209.5q0 -118 57.5 -212.5t152 -150t206.5 -55.5q106 0 203 54.5
t153 144.5l74 -43q-62 -101 -166 -166t-230 -73v-201h-75z" />
    <glyph glyph-name="sterling" unicode="&#xa3;" horiz-adv-x="1143" 
d="M104 0v86q61 0 116.5 16.5t98.5 47.5t66.5 73.5t21.5 95.5q-2 77 -26 127.5t-61.5 87.5t-79 70.5t-78 75.5t-59.5 103t-23 153q0 101 38.5 190t105.5 156t156 105.5t190 38.5q102 0 191.5 -38.5t157 -105.5t106 -156t38.5 -190h-86q0 111 -55 202.5t-147.5 146.5
t-204.5 55q-111 0 -202.5 -55t-146.5 -146.5t-55 -202.5q0 -92 23.5 -150t61 -96t79.5 -69.5t79 -69t61 -94.5t24 -149q0 -50 -24 -94t-61 -77.5t-77 -50.5h728v-86h-956zM104 451v75h741v-75h-741z" />
    <glyph glyph-name="currency" unicode="&#xa4;" horiz-adv-x="961" 
d="M133 299l-53 53l121 123q-52 65 -69.5 144.5t0.5 159t71 144.5l-123 126l53 52l125 -124q63 52 143 70t160 1t144 -69l123 122l53 -52l-121 -123q54 -66 72 -146.5t0.5 -161t-70.5 -145.5l119 -121l-53 -53l-121 120q-66 -54 -146 -72t-160 0.5t-147 73.5zM482 413
q78 1 142 39t103 102.5t39 143.5t-38 143t-102.5 102t-143.5 38q-80 0 -144 -38t-102 -102.5t-38 -142.5q0 -80 39.5 -145t104 -102.5t140.5 -37.5z" />
    <glyph glyph-name="yen" unicode="&#xa5;" horiz-adv-x="1174" 
d="M544 0v216h-321v75h321v191h-321v75h321v78l-466 765h101l408 -670l409 670h101l-467 -765v-78h321v-75h-321v-191h321v-75h-321v-216h-86z" />
    <glyph glyph-name="brokenbar" unicode="&#xa6;" 
d="M120 448h86v-750h-86v750zM120 1400h86v-750h-86v750z" />
    <glyph glyph-name="section" unicode="&#xa7;" horiz-adv-x="1063" 
d="M546 -417q-124 0 -224.5 55t-139.5 142l72 42q20 -49 66 -84t105 -54t118 -20q74 0 138 24t103.5 70t39.5 109q0 64 -34.5 101.5t-98 59.5t-151.5 41q-126 27 -220.5 81.5t-147 140.5t-52.5 207q0 90 39 169t107.5 136.5t157.5 79.5q-138 22 -203.5 83t-65.5 167
q0 87 51.5 150.5t134 98.5t176.5 35q124 0 224.5 -55t139.5 -142l-72 -42q-20 49 -66 84t-105 54t-118 20q-74 0 -138.5 -24t-103.5 -70t-39 -109q0 -64 33.5 -101t97 -59t152.5 -42q129 -28 223 -81.5t146 -139.5t52 -212q0 -89 -39.5 -168.5t-109 -136t-156.5 -78.5
q137 -21 203 -82t66 -166q0 -87 -51 -150.5t-133.5 -98.5t-176.5 -35zM533 172q90 0 164.5 43.5t119 117t44.5 160.5q0 105 -48.5 180t-125 115t-158.5 40q-90 0 -164 -43.5t-118.5 -118.5t-44.5 -168q0 -92 48 -166t123.5 -117t159.5 -43z" />
    <glyph glyph-name="dieresis" unicode="&#xa8;" horiz-adv-x="1189" 
d="M459 1086q-23 0 -41 16t-18 40q0 23 18 40t41 17t40 -17t17 -40q0 -24 -17 -40t-40 -16zM732 1086q-24 0 -42 16t-18 40q0 23 18 40t42 17q22 0 39.5 -17t17.5 -40q0 -24 -17.5 -40t-39.5 -16z" />
    <glyph glyph-name="copyright" unicode="&#xa9;" horiz-adv-x="1750" 
d="M875 -164q-165 0 -309 62t-253.5 171.5t-171 253.5t-61.5 308q0 165 61.5 309t171 253.5t253.5 171t309 61.5q164 0 308 -61.5t253.5 -171t171.5 -253.5t62 -309q0 -164 -62 -308t-171.5 -253.5t-253.5 -171.5t-308 -62zM875 -78q149 0 278 56t225.5 154.5t151 226.5
t54.5 272q0 148 -56 277t-154 227t-226.5 152.5t-272.5 52.5q-147 -1 -275.5 -57t-226 -153t-152.5 -225t-55 -274q0 -149 56 -278t154 -226t226.5 -151t272.5 -54zM1208 356l76 -41q-68 -96 -172.5 -153t-226.5 -57q-138 0 -251.5 71t-181 190.5t-67.5 264.5
q0 110 39 205.5t107.5 168t159.5 113.5t194 41q122 0 226.5 -57t172.5 -153l-76 -40q-60 79 -146.5 121.5t-176.5 42.5q-116 0 -210 -60.5t-149 -161t-55 -220.5q0 -121 56 -220.5t150.5 -159.5t207.5 -60q98 0 183 46.5t140 118.5z" />
    <glyph glyph-name="ordfeminine" unicode="&#xaa;" horiz-adv-x="1143" 
d="M977 1000h86v-1000h-86l-2 218q-52 -109 -151 -176.5t-237 -67.5q-109 0 -204.5 41t-168 114t-113.5 168t-41 205q0 109 41 204.5t113 167.5t167 113t203 41q140 0 240 -67.5t155 -177.5zM586 59q122 0 208 59.5t131.5 160t45.5 221.5q0 124 -46 224.5t-132.5 159.5
t-206.5 59q-121 0 -221 -59.5t-159 -160.5t-59 -223q0 -124 61 -224t160.5 -158.5t217.5 -58.5z" />
    <glyph glyph-name="guillemotleft" unicode="&#xab;" horiz-adv-x="939" 
d="M420 261l-300 340l300 338h104l-300 -338l300 -340h-104zM735 261l-300 340l300 338h104l-300 -338l300 -340h-104z" />
    <glyph glyph-name="logicalnot" unicode="&#xac;" horiz-adv-x="947" 
d="M781 328v457h-701v87h787v-544h-86z" />
    <glyph glyph-name="uni00AD" unicode="&#xad;" horiz-adv-x="916" 
d="M156 643h640v-86h-640v86z" />
    <glyph glyph-name="registered" unicode="&#xae;" horiz-adv-x="928" 
d="M464 496q-85 1 -158.5 33t-128.5 88.5t-86 129t-31 153.5q0 83 31.5 155.5t86.5 129t128.5 88t157.5 31.5q86 0 159.5 -32.5t128.5 -89.5t85.5 -129t30.5 -153q0 -82 -31 -154.5t-86.5 -128.5t-129 -88t-157.5 -33zM464 572q90 0 164.5 44.5t119 119t44.5 164.5
t-44.5 164.5t-119 119t-164.5 44.5t-164.5 -44.5t-119 -119t-44.5 -164.5t44.5 -164.5t119 -119t164.5 -44.5zM350 712v387h142q45 0 76.5 -33t31.5 -81q0 -39 -22.5 -68.5t-58.5 -38.5l97 -166h-76l-94 162h-30v-162h-66zM416 939h76q17 0 29.5 14t12.5 32q0 21 -12.5 34.5
t-29.5 13.5h-76v-94z" />
    <glyph glyph-name="macron" unicode="&#xaf;" horiz-adv-x="1200" 
d="M262 1261h676v-78h-676v78z" />
    <glyph glyph-name="degree" unicode="&#xb0;" horiz-adv-x="596" 
d="M298 862q-60 0 -109.5 29.5t-79 79t-29.5 109.5t29.5 109.5t79 79t109.5 29.5q61 0 110.5 -29.5t78.5 -79t29 -109.5t-29.5 -110t-79 -79t-109.5 -29zM298 948q56 0 94 38.5t38 93.5q0 56 -38 94t-94 38q-55 0 -93.5 -38t-38.5 -94q0 -55 38.5 -93.5t93.5 -38.5z" />
    <glyph glyph-name="plusminus" unicode="&#xb1;" horiz-adv-x="1160" 
d="M537 311v457h-457v86h457v457h86v-457h457v-86h-457v-457h-86zM80 0v86h1000v-86h-1000z" />
    <glyph glyph-name="uni00B2" unicode="&#xb2;" horiz-adv-x="676" 
d="M96 818v82q38 24 95.5 67t116 94t99 103.5t43.5 96.5q0 56 -39.5 91t-95.5 35t-96.5 -35t-40.5 -91h-82q0 60 29.5 106.5t79.5 73.5t110 27q90 0 153.5 -58.5t63.5 -148.5q0 -45 -28.5 -94.5t-73.5 -99t-96 -92.5t-96 -75h293v-82h-435z" />
    <glyph glyph-name="uni00B3" unicode="&#xb3;" horiz-adv-x="545" 
d="M274 798q-83 0 -142.5 53.5t-59.5 137.5h82q0 -49 34.5 -79.5t85.5 -30.5q49 0 83 30.5t34 79.5q0 55 -41.5 88.5t-115.5 33.5v76q67 0 102.5 27.5t35.5 77.5q0 42 -31 67.5t-72 25.5q-42 0 -72.5 -25.5t-30.5 -67.5h-82q0 78 54 126t131 48t131.5 -48t54.5 -126
q0 -44 -20.5 -84.5t-48.5 -56.5q43 -33 65 -68.5t22 -93.5q0 -84 -58.5 -137.5t-140.5 -53.5z" />
    <glyph glyph-name="acute" unicode="&#xb4;" horiz-adv-x="609" 
d="M230 1110l80 288h86l-108 -288h-58z" />
    <glyph glyph-name="uni00B5" unicode="&#xb5;" horiz-adv-x="1017" 
d="M80 -432v1432h86v-543q0 -109 46.5 -199.5t124.5 -144.5t174 -54q94 0 171.5 54t123 144.5t45.5 199.5v543h86v-1000h-86v194q-59 -104 -148.5 -162t-197.5 -58q-110 0 -198.5 59t-140.5 153v-618h-86z" />
    <glyph glyph-name="paragraph" unicode="&#xb6;" horiz-adv-x="752" 
d="M420 -302v1020q-94 0 -171 46t-123 123t-46 171t46 171.5t123 124t171 46.5h86v-1702h-86zM586 -302v1702h86v-1702h-86z" />
    <glyph glyph-name="periodcentered" unicode="&#xb7;" horiz-adv-x="273" 
d="M135 544q-22 0 -38.5 16.5t-16.5 40.5q0 23 16.5 39t38.5 16q25 0 41.5 -16t16.5 -39q0 -24 -16.5 -40.5t-41.5 -16.5z" />
    <glyph glyph-name="cedilla" unicode="&#xb8;" horiz-adv-x="1189" 
d="M582 -362q-59 -17 -112.5 14t-69.5 91l68 18q8 -31 36.5 -47.5t60.5 -8.5q32 9 48.5 37t6.5 60q-8 32 -36 48.5t-61 8.5l-78 -17l114 196l60 -35l-44 -76q40 -8 71 -36.5t42 -69.5q16 -60 -15 -114t-91 -69z" />
    <glyph glyph-name="uni00B9" unicode="&#xb9;" horiz-adv-x="408" 
d="M182 818v549h-86l12 82h156v-631h-82z" />
    <glyph glyph-name="ordmasculine" unicode="&#xba;" horiz-adv-x="1120" 
d="M560 -26q-138 0 -251.5 71t-181 190.5t-67.5 264.5q0 110 39 205.5t107.5 168t159.5 113.5t194 41q138 0 251.5 -71t181 -191t67.5 -266q0 -109 -39 -204t-107.5 -167.5t-159 -113.5t-194.5 -41zM560 60q117 0 210.5 61t148.5 161t55 218q0 119 -55 219.5t-148.5 161.5
t-210.5 61q-118 0 -211.5 -61t-148 -161.5t-54.5 -219.5q0 -123 56.5 -222.5t150.5 -158.5t207 -59z" />
    <glyph glyph-name="guillemotright" unicode="&#xbb;" horiz-adv-x="959" 
d="M415 261l300 340l-300 338h104l300 -338l-300 -340h-104zM100 261l300 340l-300 338h104l300 -338l-300 -340h-104z" />
    <glyph glyph-name="onequarter" unicode="&#xbc;" horiz-adv-x="1534" 
d="M182 818v549h-86l12 82h156v-631h-82zM185 0l808 1400h88l-808 -1400h-88zM1232 0v133h-278v100l253 398h107v-415h76v-83h-76v-133h-82zM1040 216h194v304z" />
    <glyph glyph-name="onehalf" unicode="&#xbd;" horiz-adv-x="1534" 
d="M182 818v549h-86l12 82h156v-631h-82zM185 0l808 1400h88l-808 -1400h-88zM954 0v82q38 24 95.5 67t116 94.5t99 103.5t43.5 96q0 57 -39.5 91.5t-95.5 34.5t-96.5 -34.5t-40.5 -91.5h-82q0 60 29.5 107t79.5 74t110 27t109.5 -27t78.5 -74t29 -107q0 -44 -28.5 -94
t-73.5 -99t-96 -92.5t-96 -75.5h293v-82h-435z" />
    <glyph glyph-name="threequarters" unicode="&#xbe;" horiz-adv-x="1671" 
d="M274 798q-83 0 -142.5 53.5t-59.5 137.5h82q0 -49 34.5 -79.5t85.5 -30.5q49 0 83 30.5t34 79.5q0 55 -41.5 88.5t-115.5 33.5v76q67 0 102.5 27.5t35.5 77.5q0 42 -31 67.5t-72 25.5q-42 0 -72.5 -25.5t-30.5 -67.5h-82q0 78 54 126t131 48t131.5 -48t54.5 -126
q0 -44 -20.5 -84.5t-48.5 -56.5q43 -33 65 -68.5t22 -93.5q0 -84 -58.5 -137.5t-140.5 -53.5zM322 0l808 1400h88l-808 -1400h-88zM1369 0v133h-278v100l253 398h107v-415h76v-83h-76v-133h-82zM1177 216h194v304z" />
    <glyph glyph-name="questiondown" unicode="&#xbf;" horiz-adv-x="914" 
d="M455 -428q-104 0 -188.5 51t-135.5 136t-51 188q0 106 51.5 195.5t139.5 136.5q59 32 93 89t34 125h86q0 -90 -46 -167t-127 -122q-67 -37 -106 -106t-39 -151q0 -79 39 -144.5t105 -105t145 -39.5t145 39.5t105 105t39 144.5h86q0 -103 -50.5 -188t-135.5 -136t-189 -51
zM452 913q-24 0 -40.5 16.5t-16.5 39.5q0 24 16.5 40.5t40.5 16.5q23 0 39 -16.5t16 -40.5q0 -23 -16 -39.5t-39 -16.5z" />
    <glyph glyph-name="Agrave" unicode="&#xc0;" horiz-adv-x="1298" 
d="M590 1400h118l510 -1400h-91l-119 327h-717l-119 -327h-92zM322 413h654l-327 897zM492 1798h86l80 -288h-57z" />
    <glyph glyph-name="Aacute" unicode="&#xc1;" horiz-adv-x="1298" 
d="M590 1400h118l510 -1400h-91l-119 327h-717l-119 -327h-92zM322 413h654l-327 897zM631 1510l80 288h86l-108 -288h-58z" />
    <glyph glyph-name="Acircumflex" unicode="&#xc2;" horiz-adv-x="1298" 
d="M590 1400h118l510 -1400h-91l-119 327h-717l-119 -327h-92zM322 413h654l-327 897zM695 1798l192 -288h-58l-180 208l-178 -208h-58l191 288h91z" />
    <glyph glyph-name="Atilde" unicode="&#xc3;" horiz-adv-x="1298" 
d="M590 1400h118l510 -1400h-91l-119 327h-717l-119 -327h-92zM322 413h654l-327 897zM804 1544q-37 0 -79.5 22.5t-85.5 52t-83 51.5t-71 20q-33 -2 -54 -32.5t-11 -71.5l-70 -19q-16 46 -1 91.5t53 75.5t90 30q38 0 82.5 -22t89 -51t85 -51t69.5 -22q24 0 40 19t22 43.5
t-1 40.5l69 22q16 -48 0 -94t-54 -75.5t-90 -29.5z" />
    <glyph glyph-name="Adieresis" unicode="&#xc4;" horiz-adv-x="1298" 
d="M590 1400h118l510 -1400h-91l-119 327h-717l-119 -327h-92zM322 413h654l-327 897zM514 1486q-23 0 -41 16t-18 40q0 23 18 40t41 17t40 -17t17 -40q0 -24 -17 -40t-40 -16zM787 1486q-24 0 -42 16t-18 40q0 23 18 40t42 17q22 0 39.5 -17t17.5 -40q0 -24 -17.5 -40
t-39.5 -16z" />
    <glyph glyph-name="Aring" unicode="&#xc5;" horiz-adv-x="1298" 
d="M590 1400h118l510 -1400h-91l-119 327h-717l-119 -327h-92zM322 413h654l-327 897zM649 1508q-60 0 -102.5 43.5t-42.5 103.5q0 39 19.5 72t52.5 53t73 20q59 0 101.5 -43t42.5 -102q0 -61 -42.5 -104t-101.5 -43zM649 1566q36 0 61.5 26t25.5 63q0 35 -25.5 60t-61.5 25
t-61.5 -25t-25.5 -60q0 -37 25.5 -63t61.5 -26z" />
    <glyph glyph-name="AE" unicode="&#xc6;" horiz-adv-x="1589" 
d="M80 0l510 1400h899v-86h-613v-571h517v-86h-517v-571h613v-86h-699v327h-499l-119 -327h-92zM322 413h468v901h-138z" />
    <glyph glyph-name="Ccedilla" unicode="&#xc7;" horiz-adv-x="1418" 
d="M768 -26q-142 0 -267 56.5t-219.5 156t-148 231t-53.5 282.5q0 150 53.5 281.5t148 231.5t219.5 156.5t267 56.5q170 0 313 -79t237 -211l-75 -40q-82 112 -209 178t-266 66q-126 0 -235.5 -51t-192 -139.5t-128.5 -204.5t-46 -245q0 -132 47 -248t130 -204.5t192 -138
t233 -49.5q146 0 271 67.5t204 175.5l75 -41q-94 -132 -237 -210t-313 -78zM767 -362q-59 -17 -112.5 14t-69.5 91l68 18q8 -31 36.5 -47.5t60.5 -8.5q32 9 48.5 37t6.5 60q-8 32 -36 48.5t-61 8.5l-78 -17l114 196l60 -35l-44 -76q40 -8 71 -36.5t42 -69.5q16 -60 -15 -114
t-91 -69z" />
    <glyph glyph-name="Egrave" unicode="&#xc8;" horiz-adv-x="1059" 
d="M120 0v1400h839v-86h-753v-521h634v-86h-634v-621h753v-86h-839zM372 1798h86l80 -288h-57z" />
    <glyph glyph-name="Eacute" unicode="&#xc9;" horiz-adv-x="1059" 
d="M120 0v1400h839v-86h-753v-521h634v-86h-634v-621h753v-86h-839zM511 1510l80 288h86l-108 -288h-58z" />
    <glyph glyph-name="Ecircumflex" unicode="&#xca;" horiz-adv-x="1059" 
d="M120 0v1400h839v-86h-753v-521h634v-86h-634v-621h753v-86h-839zM576 1798l192 -288h-58l-180 208l-178 -208h-58l191 288h91z" />
    <glyph glyph-name="Edieresis" unicode="&#xcb;" horiz-adv-x="1059" 
d="M120 0v1400h839v-86h-753v-521h634v-86h-634v-621h753v-86h-839zM394 1486q-23 0 -41 16t-18 40q0 23 18 40t41 17t40 -17t17 -40q0 -24 -17 -40t-40 -16zM667 1486q-24 0 -42 16t-18 40q0 23 18 40t42 17q22 0 39.5 -17t17.5 -40q0 -24 -17.5 -40t-39.5 -16z" />
    <glyph glyph-name="Igrave" unicode="&#xcc;" horiz-adv-x="386" 
d="M150 0v1400h86v-1400h-86zM36 1798h86l80 -288h-57z" />
    <glyph glyph-name="Iacute" unicode="&#xcd;" horiz-adv-x="386" 
d="M150 0v1400h86v-1400h-86zM175 1510l80 288h86l-108 -288h-58z" />
    <glyph glyph-name="Icircumflex" unicode="&#xce;" horiz-adv-x="386" 
d="M150 0v1400h86v-1400h-86zM239 1798l192 -288h-58l-180 208l-178 -208h-58l191 288h91z" />
    <glyph glyph-name="Idieresis" unicode="&#xcf;" horiz-adv-x="386" 
d="M150 0v1400h86v-1400h-86zM58 1486q-23 0 -41 16t-18 40q0 23 18 40t41 17t40 -17t17 -40q0 -24 -17 -40t-40 -16zM331 1486q-24 0 -42 16t-18 40q0 23 18 40t42 17q22 0 39.5 -17t17.5 -40q0 -24 -17.5 -40t-39.5 -16z" />
    <glyph glyph-name="Eth" unicode="&#xd0;" horiz-adv-x="1453" 
d="M229 0v707h-129v86h129v607h464q145 0 271.5 -54.5t223 -151t151 -223t54.5 -271.5t-54.5 -271.5t-151 -223t-223 -151t-271.5 -54.5h-464zM315 86h378q129 0 241 48.5t195.5 134t130.5 196t47 235.5q0 129 -49 241t-134 195.5t-196 130.5t-235 47h-378v-521h381v-86
h-381v-621z" />
    <glyph glyph-name="Ntilde" unicode="&#xd1;" horiz-adv-x="1235" 
d="M120 0v1400h94l815 -1245v1245h86v-1400h-92l-817 1245v-1245h-86zM773 1544q-37 0 -79.5 22.5t-85.5 52t-83 51.5t-71 20q-33 -2 -54 -32.5t-11 -71.5l-70 -19q-16 46 -1 91.5t53 75.5t90 30q38 0 82.5 -22t89 -51t85 -51t69.5 -22q24 0 40 19t22 43.5t-1 40.5l69 22
q16 -48 0 -94t-54 -75.5t-90 -29.5z" />
    <glyph glyph-name="Ograve" unicode="&#xd2;" horiz-adv-x="1540" 
d="M770 -26q-142 0 -267 56.5t-220 156.5t-149 231.5t-54 281.5t54 281.5t149 231.5t220 156.5t267 56.5q143 0 268 -56.5t220 -156.5t148.5 -231.5t53.5 -281.5t-53.5 -281.5t-148.5 -231.5t-220 -156.5t-268 -56.5zM770 60q126 0 236 51t192.5 139.5t129 204t46.5 245.5
q0 131 -47 247t-130 204.5t-192.5 138.5t-234.5 50q-126 0 -236 -51t-192.5 -139.5t-129 -204t-46.5 -245.5q0 -132 47 -247.5t130 -204t192.5 -138.5t234.5 -50zM613 1798h86l80 -288h-57z" />
    <glyph glyph-name="Oacute" unicode="&#xd3;" horiz-adv-x="1540" 
d="M770 -26q-142 0 -267 56.5t-220 156.5t-149 231.5t-54 281.5t54 281.5t149 231.5t220 156.5t267 56.5q143 0 268 -56.5t220 -156.5t148.5 -231.5t53.5 -281.5t-53.5 -281.5t-148.5 -231.5t-220 -156.5t-268 -56.5zM770 60q126 0 236 51t192.5 139.5t129 204t46.5 245.5
q0 131 -47 247t-130 204.5t-192.5 138.5t-234.5 50q-126 0 -236 -51t-192.5 -139.5t-129 -204t-46.5 -245.5q0 -132 47 -247.5t130 -204t192.5 -138.5t234.5 -50zM752 1510l80 288h86l-108 -288h-58z" />
    <glyph glyph-name="Ocircumflex" unicode="&#xd4;" horiz-adv-x="1540" 
d="M770 -26q-142 0 -267 56.5t-220 156.5t-149 231.5t-54 281.5t54 281.5t149 231.5t220 156.5t267 56.5q143 0 268 -56.5t220 -156.5t148.5 -231.5t53.5 -281.5t-53.5 -281.5t-148.5 -231.5t-220 -156.5t-268 -56.5zM770 60q126 0 236 51t192.5 139.5t129 204t46.5 245.5
q0 131 -47 247t-130 204.5t-192.5 138.5t-234.5 50q-126 0 -236 -51t-192.5 -139.5t-129 -204t-46.5 -245.5q0 -132 47 -247.5t130 -204t192.5 -138.5t234.5 -50zM816 1798l192 -288h-58l-180 208l-178 -208h-58l191 288h91z" />
    <glyph glyph-name="Otilde" unicode="&#xd5;" horiz-adv-x="1540" 
d="M770 -26q-142 0 -267 56.5t-220 156.5t-149 231.5t-54 281.5t54 281.5t149 231.5t220 156.5t267 56.5q143 0 268 -56.5t220 -156.5t148.5 -231.5t53.5 -281.5t-53.5 -281.5t-148.5 -231.5t-220 -156.5t-268 -56.5zM770 60q126 0 236 51t192.5 139.5t129 204t46.5 245.5
q0 131 -47 247t-130 204.5t-192.5 138.5t-234.5 50q-126 0 -236 -51t-192.5 -139.5t-129 -204t-46.5 -245.5q0 -132 47 -247.5t130 -204t192.5 -138.5t234.5 -50zM925 1544q-37 0 -79.5 22.5t-85.5 52t-83 51.5t-71 20q-33 -2 -54 -32.5t-11 -71.5l-70 -19q-16 46 -1 91.5
t53 75.5t90 30q38 0 82.5 -22t89 -51t85 -51t69.5 -22q24 0 40 19t22 43.5t-1 40.5l69 22q16 -48 0 -94t-54 -75.5t-90 -29.5z" />
    <glyph glyph-name="Odieresis" unicode="&#xd6;" horiz-adv-x="1540" 
d="M770 -26q-142 0 -267 56.5t-220 156.5t-149 231.5t-54 281.5t54 281.5t149 231.5t220 156.5t267 56.5q143 0 268 -56.5t220 -156.5t148.5 -231.5t53.5 -281.5t-53.5 -281.5t-148.5 -231.5t-220 -156.5t-268 -56.5zM770 60q126 0 236 51t192.5 139.5t129 204t46.5 245.5
q0 131 -47 247t-130 204.5t-192.5 138.5t-234.5 50q-126 0 -236 -51t-192.5 -139.5t-129 -204t-46.5 -245.5q0 -132 47 -247.5t130 -204t192.5 -138.5t234.5 -50zM635 1486q-23 0 -41 16t-18 40q0 23 18 40t41 17t40 -17t17 -40q0 -24 -17 -40t-40 -16zM908 1486
q-24 0 -42 16t-18 40q0 23 18 40t42 17q22 0 39.5 -17t17.5 -40q0 -24 -17.5 -40t-39.5 -16z" />
    <glyph glyph-name="multiply" unicode="&#xd7;" horiz-adv-x="928" 
d="M141 217l-61 60l323 323l-323 323l61 60l322 -322l323 322l62 -60l-324 -323l324 -323l-62 -60l-323 322z" />
    <glyph glyph-name="Oslash" unicode="&#xd8;" horiz-adv-x="1540" 
d="M377 -69l-74 44l75 130q-134 99 -216 255.5t-82 339.5q0 150 54 281.5t149 231.5t220 156.5t267 56.5q88 0 169 -21.5t153 -62.5l73 127l74 -44l-75 -129q134 -98 215 -254.5t81 -341.5q0 -150 -53.5 -281.5t-148.5 -231.5t-220 -156.5t-268 -56.5q-86 0 -166.5 22.5
t-153.5 61.5zM422 183l627 1083q-62 35 -132.5 54.5t-146.5 19.5q-126 0 -236 -51t-192.5 -139.5t-129 -204t-46.5 -245.5q0 -160 70 -295.5t186 -221.5zM770 60q126 0 236 51t192.5 139.5t129 204t46.5 245.5q0 160 -69.5 296t-184.5 223l-627 -1085q63 -35 133 -54.5
t144 -19.5z" />
    <glyph glyph-name="Ugrave" unicode="&#xd9;" horiz-adv-x="1308" 
d="M654 -26q-168 0 -287.5 82t-183 220.5t-63.5 307.5v816h86v-816q0 -143 51.5 -262t152 -190.5t244.5 -71.5q147 0 246.5 72.5t150.5 191.5t51 260v816h86v-816q0 -127 -36 -237.5t-104.5 -194.5t-168 -131t-225.5 -47zM497 1798h86l80 -288h-57z" />
    <glyph glyph-name="Uacute" unicode="&#xda;" horiz-adv-x="1308" 
d="M654 -26q-168 0 -287.5 82t-183 220.5t-63.5 307.5v816h86v-816q0 -143 51.5 -262t152 -190.5t244.5 -71.5q147 0 246.5 72.5t150.5 191.5t51 260v816h86v-816q0 -127 -36 -237.5t-104.5 -194.5t-168 -131t-225.5 -47zM636 1510l80 288h86l-108 -288h-58z" />
    <glyph glyph-name="Ucircumflex" unicode="&#xdb;" horiz-adv-x="1308" 
d="M654 -26q-168 0 -287.5 82t-183 220.5t-63.5 307.5v816h86v-816q0 -143 51.5 -262t152 -190.5t244.5 -71.5q147 0 246.5 72.5t150.5 191.5t51 260v816h86v-816q0 -127 -36 -237.5t-104.5 -194.5t-168 -131t-225.5 -47zM701 1798l192 -288h-58l-180 208l-178 -208h-58
l191 288h91z" />
    <glyph glyph-name="Udieresis" unicode="&#xdc;" horiz-adv-x="1308" 
d="M654 -26q-168 0 -287.5 82t-183 220.5t-63.5 307.5v816h86v-816q0 -143 51.5 -262t152 -190.5t244.5 -71.5q147 0 246.5 72.5t150.5 191.5t51 260v816h86v-816q0 -127 -36 -237.5t-104.5 -194.5t-168 -131t-225.5 -47zM519 1486q-23 0 -41 16t-18 40q0 23 18 40t41 17
t40 -17t17 -40q0 -24 -17 -40t-40 -16zM792 1486q-24 0 -42 16t-18 40q0 23 18 40t42 17q22 0 39.5 -17t17.5 -40q0 -24 -17.5 -40t-39.5 -16z" />
    <glyph glyph-name="Yacute" unicode="&#xdd;" horiz-adv-x="1139" 
d="M978 1400h101l-467 -765v-635h-86v635l-466 765h101l408 -670zM551 1510l80 288h86l-108 -288h-58z" />
    <glyph glyph-name="Thorn" unicode="&#xde;" horiz-adv-x="995" 
d="M120 0v1400h86v-297h335q111 0 200 -53t141.5 -144.5t52.5 -205.5q0 -115 -53.5 -206.5t-143 -144t-197.5 -52.5h-335v-297h-86zM206 383h331q86 0 157 41.5t113 113.5t42 164t-42 164.5t-113 114t-157 41.5h-331v-639z" />
    <glyph glyph-name="germandbls" unicode="&#xdf;" horiz-adv-x="1029" 
d="M120 0v981q0 86 32.5 161.5t89.5 133.5t133 91t163 33q98 0 178.5 -50.5t128 -135.5t47.5 -188q0 -66 -21.5 -127t-60.5 -109.5t-92 -78.5q57 -15 103.5 -48.5t79.5 -80t50.5 -101t17.5 -115.5q0 -101 -49.5 -184t-133 -132.5t-184.5 -49.5h-74l-22 81h93q80 0 145 39
t104 104.5t39 144.5t-39 143.5t-104 103.5t-145 39h-93v80h28q75 1 137 40t98.5 105t36.5 146q0 81 -36.5 147t-98.5 106t-137 40q-91 0 -165.5 -45t-118.5 -119.5t-44 -165.5v-989h-86z" />
    <glyph glyph-name="agrave" unicode="&#xe0;" horiz-adv-x="1143" 
d="M977 1000h86v-1000h-86l-2 218q-52 -109 -151 -176.5t-237 -67.5q-109 0 -204.5 41t-168 114t-113.5 168t-41 205q0 109 41 204.5t113 167.5t167 113t203 41q140 0 240 -67.5t155 -177.5zM586 59q122 0 208 59.5t131.5 160t45.5 221.5q0 124 -46 224.5t-132.5 159.5
t-206.5 59q-121 0 -221 -59.5t-159 -160.5t-59 -223q0 -124 61 -224t160.5 -158.5t217.5 -58.5zM429 1398h86l80 -288h-57z" />
    <glyph glyph-name="aacute" unicode="&#xe1;" horiz-adv-x="1143" 
d="M977 1000h86v-1000h-86l-2 218q-52 -109 -151 -176.5t-237 -67.5q-109 0 -204.5 41t-168 114t-113.5 168t-41 205q0 109 41 204.5t113 167.5t167 113t203 41q140 0 240 -67.5t155 -177.5zM586 59q122 0 208 59.5t131.5 160t45.5 221.5q0 124 -46 224.5t-132.5 159.5
t-206.5 59q-121 0 -221 -59.5t-159 -160.5t-59 -223q0 -124 61 -224t160.5 -158.5t217.5 -58.5zM569 1110l80 288h86l-108 -288h-58z" />
    <glyph glyph-name="acircumflex" unicode="&#xe2;" horiz-adv-x="1143" 
d="M977 1000h86v-1000h-86l-2 218q-52 -109 -151 -176.5t-237 -67.5q-109 0 -204.5 41t-168 114t-113.5 168t-41 205q0 109 41 204.5t113 167.5t167 113t203 41q140 0 240 -67.5t155 -177.5zM586 59q122 0 208 59.5t131.5 160t45.5 221.5q0 124 -46 224.5t-132.5 159.5
t-206.5 59q-121 0 -221 -59.5t-159 -160.5t-59 -223q0 -124 61 -224t160.5 -158.5t217.5 -58.5zM633 1398l192 -288h-58l-180 208l-178 -208h-58l191 288h91z" />
    <glyph glyph-name="atilde" unicode="&#xe3;" horiz-adv-x="1143" 
d="M977 1000h86v-1000h-86l-2 218q-52 -109 -151 -176.5t-237 -67.5q-109 0 -204.5 41t-168 114t-113.5 168t-41 205q0 109 41 204.5t113 167.5t167 113t203 41q140 0 240 -67.5t155 -177.5zM586 59q122 0 208 59.5t131.5 160t45.5 221.5q0 124 -46 224.5t-132.5 159.5
t-206.5 59q-121 0 -221 -59.5t-159 -160.5t-59 -223q0 -124 61 -224t160.5 -158.5t217.5 -58.5zM742 1144q-37 0 -79.5 22.5t-85.5 52t-83 51.5t-71 20q-33 -2 -54 -32.5t-11 -71.5l-70 -19q-16 46 -1 91.5t53 75.5t90 30q38 0 82.5 -22t89 -51t85 -51t69.5 -22q24 0 40 19
t22 43.5t-1 40.5l69 22q16 -48 0 -94t-54 -75.5t-90 -29.5z" />
    <glyph glyph-name="adieresis" unicode="&#xe4;" horiz-adv-x="1143" 
d="M977 1000h86v-1000h-86l-2 218q-52 -109 -151 -176.5t-237 -67.5q-109 0 -204.5 41t-168 114t-113.5 168t-41 205q0 109 41 204.5t113 167.5t167 113t203 41q140 0 240 -67.5t155 -177.5zM586 59q122 0 208 59.5t131.5 160t45.5 221.5q0 124 -46 224.5t-132.5 159.5
t-206.5 59q-121 0 -221 -59.5t-159 -160.5t-59 -223q0 -124 61 -224t160.5 -158.5t217.5 -58.5zM451 1086q-23 0 -41 16t-18 40q0 23 18 40t41 17t40 -17t17 -40q0 -24 -17 -40t-40 -16zM724 1086q-24 0 -42 16t-18 40q0 23 18 40t42 17q22 0 39.5 -17t17.5 -40
q0 -24 -17.5 -40t-39.5 -16z" />
    <glyph glyph-name="aring" unicode="&#xe5;" horiz-adv-x="1143" 
d="M977 1000h86v-1000h-86l-2 218q-52 -109 -151 -176.5t-237 -67.5q-109 0 -204.5 41t-168 114t-113.5 168t-41 205q0 109 41 204.5t113 167.5t167 113t203 41q140 0 240 -67.5t155 -177.5zM586 59q122 0 208 59.5t131.5 160t45.5 221.5q0 124 -46 224.5t-132.5 159.5
t-206.5 59q-121 0 -221 -59.5t-159 -160.5t-59 -223q0 -124 61 -224t160.5 -158.5t217.5 -58.5zM587 1108q-60 0 -102.5 43.5t-42.5 103.5q0 39 19.5 72t52.5 53t73 20q59 0 101.5 -43t42.5 -102q0 -61 -42.5 -104t-101.5 -43zM587 1166q36 0 61.5 26t25.5 63q0 35 -25.5 60
t-61.5 25t-61.5 -25t-25.5 -60q0 -37 25.5 -63t61.5 -26z" />
    <glyph glyph-name="ae" unicode="&#xe6;" horiz-adv-x="1803" 
d="M321 -24q-84 0 -149.5 34.5t-103.5 98t-38 146.5q0 77 34 141.5t97.5 104.5t152.5 40h431q2 109 -43.5 200t-131.5 146t-204 55q-74 0 -144 -29l-46 74q47 21 94.5 31t94.5 10q146 0 262 -81.5t175 -213.5q39 88 106 154t153.5 103.5t184.5 37.5q108 0 199 -41.5
t158 -117t103.5 -179t36.5 -227.5h-909q11 -116 68 -207t146.5 -143.5t197.5 -52.5q119 0 214 63t151 173l87 -20q-60 -133 -181 -217.5t-271 -84.5q-104 0 -195.5 42t-159.5 116t-105 170q-40 -97 -110.5 -170.5t-161 -114.5t-193.5 -41zM321 57q132 0 233 73.5t149 182.5
q32 71 40 151h-429q-93 0 -147.5 -59.5t-54.5 -146.5q0 -79 53 -140t156 -61zM833 540h823q-5 109 -61.5 201.5t-147.5 148.5t-201 56q-111 0 -201.5 -54.5t-146.5 -147t-65 -204.5z" />
    <glyph glyph-name="ccedilla" unicode="&#xe7;" horiz-adv-x="1019" 
d="M883 225l75 -41q-67 -96 -171.5 -153t-226.5 -57q-138 0 -251.5 71t-181 190.5t-67.5 264.5q0 110 39 205.5t107.5 168t159.5 113.5t194 41q122 0 226.5 -57t171.5 -153l-75 -41q-61 80 -147.5 122.5t-175.5 42.5q-117 0 -210.5 -60.5t-148.5 -161t-55 -220.5
q0 -121 56 -221t150 -159.5t208 -59.5q98 0 183 46t140 119zM559 -362q-59 -17 -112.5 14t-69.5 91l68 18q8 -31 36.5 -47.5t60.5 -8.5q32 9 48.5 37t6.5 60q-8 32 -36 48.5t-61 8.5l-78 -17l114 196l60 -35l-44 -76q40 -8 71 -36.5t42 -69.5q16 -60 -15 -114t-91 -69z" />
    <glyph glyph-name="egrave" unicode="&#xe8;" horiz-adv-x="1117" 
d="M560 -26q-138 0 -251.5 71t-181 190.5t-67.5 264.5q0 110 39 205.5t107.5 168t159.5 113.5t194 41q108 0 199.5 -41.5t158.5 -117t103.5 -179t35.5 -227.5h-908q10 -116 67.5 -206.5t146.5 -143.5t197 -53q119 0 214 63t151 173l87 -20q-60 -133 -181 -217.5t-271 -84.5z
M147 540h824q-5 109 -61.5 201.5t-148 148.5t-201.5 56q-111 0 -201 -54.5t-146.5 -147t-65.5 -204.5zM402 1398h86l80 -288h-57z" />
    <glyph glyph-name="eacute" unicode="&#xe9;" horiz-adv-x="1117" 
d="M560 -26q-138 0 -251.5 71t-181 190.5t-67.5 264.5q0 110 39 205.5t107.5 168t159.5 113.5t194 41q108 0 199.5 -41.5t158.5 -117t103.5 -179t35.5 -227.5h-908q10 -116 67.5 -206.5t146.5 -143.5t197 -53q119 0 214 63t151 173l87 -20q-60 -133 -181 -217.5t-271 -84.5z
M147 540h824q-5 109 -61.5 201.5t-148 148.5t-201.5 56q-111 0 -201 -54.5t-146.5 -147t-65.5 -204.5zM541 1110l80 288h86l-108 -288h-58z" />
    <glyph glyph-name="ecircumflex" unicode="&#xea;" horiz-adv-x="1117" 
d="M560 -26q-138 0 -251.5 71t-181 190.5t-67.5 264.5q0 110 39 205.5t107.5 168t159.5 113.5t194 41q108 0 199.5 -41.5t158.5 -117t103.5 -179t35.5 -227.5h-908q10 -116 67.5 -206.5t146.5 -143.5t197 -53q119 0 214 63t151 173l87 -20q-60 -133 -181 -217.5t-271 -84.5z
M147 540h824q-5 109 -61.5 201.5t-148 148.5t-201.5 56q-111 0 -201 -54.5t-146.5 -147t-65.5 -204.5zM605 1398l192 -288h-58l-180 208l-178 -208h-58l191 288h91z" />
    <glyph glyph-name="edieresis" unicode="&#xeb;" horiz-adv-x="1117" 
d="M560 -26q-138 0 -251.5 71t-181 190.5t-67.5 264.5q0 110 39 205.5t107.5 168t159.5 113.5t194 41q108 0 199.5 -41.5t158.5 -117t103.5 -179t35.5 -227.5h-908q10 -116 67.5 -206.5t146.5 -143.5t197 -53q119 0 214 63t151 173l87 -20q-60 -133 -181 -217.5t-271 -84.5z
M147 540h824q-5 109 -61.5 201.5t-148 148.5t-201.5 56q-111 0 -201 -54.5t-146.5 -147t-65.5 -204.5zM424 1086q-23 0 -41 16t-18 40q0 23 18 40t41 17t40 -17t17 -40q0 -24 -17 -40t-40 -16zM697 1086q-24 0 -42 16t-18 40q0 23 18 40t42 17q22 0 39.5 -17t17.5 -40
q0 -24 -17.5 -40t-39.5 -16z" />
    <glyph glyph-name="igrave" unicode="&#xec;" 
d="M120 1000h86v-1000h-86v1000zM6 1398h86l80 -288h-57z" />
    <glyph glyph-name="iacute" unicode="&#xed;" 
d="M120 1000h86v-1000h-86v1000zM145 1110l80 288h86l-108 -288h-58z" />
    <glyph glyph-name="icircumflex" unicode="&#xee;" 
d="M120 1000h86v-1000h-86v1000zM209 1398l192 -288h-58l-180 208l-178 -208h-58l191 288h91z" />
    <glyph glyph-name="idieresis" unicode="&#xef;" 
d="M120 1000h86v-1000h-86v1000zM28 1086q-23 0 -41 16t-18 40q0 23 18 40t41 17t40 -17t17 -40q0 -24 -17 -40t-40 -16zM301 1086q-24 0 -42 16t-18 40q0 23 18 40t42 17q22 0 39.5 -17t17.5 -40q0 -24 -17.5 -40t-39.5 -16z" />
    <glyph glyph-name="eth" unicode="&#xf0;" horiz-adv-x="1124" 
d="M429 1064l-54 55l440 429l52 -54zM582 -26q-138 0 -252 67.5t-182 181.5t-68 253q0 104 39 195t108.5 160t160.5 108t194 39q122 0 222.5 -55.5t162.5 -148.5q-23 119 -76 231t-132 201t-180 141t-221 52v86q152 0 283.5 -75t230.5 -208t155 -307.5t57 -373.5
q0 -161 -63 -284.5t-176 -193t-263 -69.5zM582 60q119 0 213.5 58t149.5 152.5t55 205.5q0 114 -56 208.5t-150.5 151t-211.5 56.5t-211 -57.5t-149.5 -152t-55.5 -206.5q0 -113 56 -207.5t150 -151.5t210 -57z" />
    <glyph glyph-name="ntilde" unicode="&#xf1;" horiz-adv-x="1049" 
d="M969 612v-612h-86v603q0 94 -45.5 170.5t-122.5 122.5t-170 46q-94 0 -171 -46t-122.5 -122.5t-45.5 -170.5v-603h-86v1000h86v-163q54 87 146 139t201 52q115 0 209.5 -56t150.5 -150.5t56 -209.5zM702 1144q-37 0 -79.5 22.5t-85.5 52t-83 51.5t-71 20
q-33 -2 -54 -32.5t-11 -71.5l-70 -19q-16 46 -1 91.5t53 75.5t90 30q38 0 82.5 -22t89 -51t85 -51t69.5 -22q24 0 40 19t22 43.5t-1 40.5l69 22q16 -48 0 -94t-54 -75.5t-90 -29.5z" />
    <glyph glyph-name="ograve" unicode="&#xf2;" horiz-adv-x="1120" 
d="M560 -26q-138 0 -251.5 71t-181 190.5t-67.5 264.5q0 110 39 205.5t107.5 168t159.5 113.5t194 41q138 0 251.5 -71t181 -191t67.5 -266q0 -109 -39 -204t-107.5 -167.5t-159 -113.5t-194.5 -41zM560 60q117 0 210.5 61t148.5 161t55 218q0 119 -55 219.5t-148.5 161.5
t-210.5 61q-118 0 -211.5 -61t-148 -161.5t-54.5 -219.5q0 -123 56.5 -222.5t150.5 -158.5t207 -59zM403 1398h86l80 -288h-57z" />
    <glyph glyph-name="oacute" unicode="&#xf3;" horiz-adv-x="1120" 
d="M560 -26q-138 0 -251.5 71t-181 190.5t-67.5 264.5q0 110 39 205.5t107.5 168t159.5 113.5t194 41q138 0 251.5 -71t181 -191t67.5 -266q0 -109 -39 -204t-107.5 -167.5t-159 -113.5t-194.5 -41zM560 60q117 0 210.5 61t148.5 161t55 218q0 119 -55 219.5t-148.5 161.5
t-210.5 61q-118 0 -211.5 -61t-148 -161.5t-54.5 -219.5q0 -123 56.5 -222.5t150.5 -158.5t207 -59zM542 1110l80 288h86l-108 -288h-58z" />
    <glyph glyph-name="ocircumflex" unicode="&#xf4;" horiz-adv-x="1120" 
d="M560 -26q-138 0 -251.5 71t-181 190.5t-67.5 264.5q0 110 39 205.5t107.5 168t159.5 113.5t194 41q138 0 251.5 -71t181 -191t67.5 -266q0 -109 -39 -204t-107.5 -167.5t-159 -113.5t-194.5 -41zM560 60q117 0 210.5 61t148.5 161t55 218q0 119 -55 219.5t-148.5 161.5
t-210.5 61q-118 0 -211.5 -61t-148 -161.5t-54.5 -219.5q0 -123 56.5 -222.5t150.5 -158.5t207 -59zM606 1398l192 -288h-58l-180 208l-178 -208h-58l191 288h91z" />
    <glyph glyph-name="otilde" unicode="&#xf5;" horiz-adv-x="1120" 
d="M560 -26q-138 0 -251.5 71t-181 190.5t-67.5 264.5q0 110 39 205.5t107.5 168t159.5 113.5t194 41q138 0 251.5 -71t181 -191t67.5 -266q0 -109 -39 -204t-107.5 -167.5t-159 -113.5t-194.5 -41zM560 60q117 0 210.5 61t148.5 161t55 218q0 119 -55 219.5t-148.5 161.5
t-210.5 61q-118 0 -211.5 -61t-148 -161.5t-54.5 -219.5q0 -123 56.5 -222.5t150.5 -158.5t207 -59zM715 1144q-37 0 -79.5 22.5t-85.5 52t-83 51.5t-71 20q-33 -2 -54 -32.5t-11 -71.5l-70 -19q-16 46 -1 91.5t53 75.5t90 30q38 0 82.5 -22t89 -51t85 -51t69.5 -22
q24 0 40 19t22 43.5t-1 40.5l69 22q16 -48 0 -94t-54 -75.5t-90 -29.5z" />
    <glyph glyph-name="odieresis" unicode="&#xf6;" horiz-adv-x="1120" 
d="M560 -26q-138 0 -251.5 71t-181 190.5t-67.5 264.5q0 110 39 205.5t107.5 168t159.5 113.5t194 41q138 0 251.5 -71t181 -191t67.5 -266q0 -109 -39 -204t-107.5 -167.5t-159 -113.5t-194.5 -41zM560 60q117 0 210.5 61t148.5 161t55 218q0 119 -55 219.5t-148.5 161.5
t-210.5 61q-118 0 -211.5 -61t-148 -161.5t-54.5 -219.5q0 -123 56.5 -222.5t150.5 -158.5t207 -59zM425 1086q-23 0 -41 16t-18 40q0 23 18 40t41 17t40 -17t17 -40q0 -24 -17 -40t-40 -16zM698 1086q-24 0 -42 16t-18 40q0 23 18 40t42 17q22 0 39.5 -17t17.5 -40
q0 -24 -17.5 -40t-39.5 -16z" />
    <glyph glyph-name="divide" unicode="&#xf7;" horiz-adv-x="1160" 
d="M80 557v86h1000v-86h-1000zM580 1051q35 0 60.5 -28t25.5 -61q0 -36 -25.5 -62t-60.5 -26q-39 0 -63 26t-24 62q0 33 24 61t63 28zM580 324q35 0 62 -27t27 -62q0 -37 -27 -61.5t-62 -24.5q-39 0 -63 24.5t-24 61.5q0 35 24 62t63 27z" />
    <glyph glyph-name="oslash" unicode="&#xf8;" horiz-adv-x="1120" 
d="M290 -45l-68 40l47 80q-95 72 -152 183.5t-57 241.5q0 110 39 205.5t107.5 168t159.5 113.5t194 41q62 0 119 -14.5t106 -41.5l46 77l69 -40l-47 -80q95 -72 151 -183.5t56 -245.5q0 -109 -39 -204t-107.5 -167.5t-159 -113.5t-194.5 -41q-60 0 -118 16t-107 42zM311 150
l433 750q-103 55 -209 45.5t-194.5 -69.5t-143 -158t-54.5 -220q0 -108 46 -198.5t122 -149.5zM376 104q108 -56 214 -46.5t193.5 70t140.5 158t53 216.5q0 108 -45.5 200t-121.5 152z" />
    <glyph glyph-name="ugrave" unicode="&#xf9;" horiz-adv-x="1009" 
d="M80 390v610h86v-601q0 -94 45.5 -170.5t122.5 -122.5t171 -46q93 0 169.5 46t122.5 122.5t46 170.5v601h86v-1000h-86v165q-55 -86 -146.5 -138.5t-200.5 -52.5q-115 0 -209.5 56t-150.5 150.5t-56 209.5zM352 1398h86l80 -288h-57z" />
    <glyph glyph-name="uacute" unicode="&#xfa;" horiz-adv-x="1009" 
d="M80 390v610h86v-601q0 -94 45.5 -170.5t122.5 -122.5t171 -46q93 0 169.5 46t122.5 122.5t46 170.5v601h86v-1000h-86v165q-55 -86 -146.5 -138.5t-200.5 -52.5q-115 0 -209.5 56t-150.5 150.5t-56 209.5zM491 1110l80 288h86l-108 -288h-58z" />
    <glyph glyph-name="ucircumflex" unicode="&#xfb;" horiz-adv-x="1009" 
d="M80 390v610h86v-601q0 -94 45.5 -170.5t122.5 -122.5t171 -46q93 0 169.5 46t122.5 122.5t46 170.5v601h86v-1000h-86v165q-55 -86 -146.5 -138.5t-200.5 -52.5q-115 0 -209.5 56t-150.5 150.5t-56 209.5zM555 1398l192 -288h-58l-180 208l-178 -208h-58l191 288h91z" />
    <glyph glyph-name="udieresis" unicode="&#xfc;" horiz-adv-x="1009" 
d="M80 390v610h86v-601q0 -94 45.5 -170.5t122.5 -122.5t171 -46q93 0 169.5 46t122.5 122.5t46 170.5v601h86v-1000h-86v165q-55 -86 -146.5 -138.5t-200.5 -52.5q-115 0 -209.5 56t-150.5 150.5t-56 209.5zM373 1086q-23 0 -41 16t-18 40q0 23 18 40t41 17t40 -17t17 -40
q0 -24 -17 -40t-40 -16zM646 1086q-24 0 -42 16t-18 40q0 23 18 40t42 17q22 0 39.5 -17t17.5 -40q0 -24 -17.5 -40t-39.5 -16z" />
    <glyph glyph-name="yacute" unicode="&#xfd;" horiz-adv-x="974" 
d="M804 1000h90l-546 -1500h-92l182 500l-358 1000h94l307 -881zM469 1110l80 288h86l-108 -288h-58z" />
    <glyph glyph-name="thorn" unicode="&#xfe;" horiz-adv-x="1183" 
d="M120 -500v1900h86v-619q53 110 153 177.5t238 67.5q109 0 204 -41t167.5 -113.5t113.5 -167.5t41 -204t-41 -205t-113.5 -168.5t-167.5 -113.5t-204 -41q-138 0 -238 67.5t-153 177.5v-717h-86zM597 57q118 0 218 59t160.5 159t60.5 225q0 121 -59 221.5t-158.5 160
t-221.5 59.5q-120 0 -206.5 -59t-132.5 -159t-46 -223q0 -121 45.5 -222t131.5 -161t208 -60z" />
    <glyph glyph-name="ydieresis" unicode="&#xff;" horiz-adv-x="974" 
d="M804 1000h90l-546 -1500h-92l182 500l-358 1000h94l307 -881zM352 1086q-23 0 -41 16t-18 40q0 23 18 40t41 17t40 -17t17 -40q0 -24 -17 -40t-40 -16zM625 1086q-24 0 -42 16t-18 40q0 23 18 40t42 17q22 0 39.5 -17t17.5 -40q0 -24 -17.5 -40t-39.5 -16z" />
    <glyph glyph-name="Amacron" unicode="&#x100;" horiz-adv-x="1298" 
d="M590 1400h118l510 -1400h-91l-119 327h-717l-119 -327h-92zM322 413h654l-327 897zM311 1661h676v-78h-676v78z" />
    <glyph glyph-name="amacron" unicode="&#x101;" horiz-adv-x="1143" 
d="M977 1000h86v-1000h-86l-2 218q-52 -109 -151 -176.5t-237 -67.5q-109 0 -204.5 41t-168 114t-113.5 168t-41 205q0 109 41 204.5t113 167.5t167 113t203 41q140 0 240 -67.5t155 -177.5zM586 59q122 0 208 59.5t131.5 160t45.5 221.5q0 124 -46 224.5t-132.5 159.5
t-206.5 59q-121 0 -221 -59.5t-159 -160.5t-59 -223q0 -124 61 -224t160.5 -158.5t217.5 -58.5zM249 1261h676v-78h-676v78z" />
    <glyph glyph-name="Abreve" unicode="&#x102;" horiz-adv-x="1298" 
d="M590 1400h118l510 -1400h-91l-119 327h-717l-119 -327h-92zM322 413h654l-327 897zM649 1488q-91 0 -166.5 45t-120.5 120.5t-45 166.5h73q0 -73 36.5 -131.5t95.5 -93t127 -34.5q71 0 130 35t94 94t35 130h73q0 -94 -46 -169t-121.5 -119t-164.5 -44z" />
    <glyph glyph-name="abreve" unicode="&#x103;" horiz-adv-x="1143" 
d="M977 1000h86v-1000h-86l-2 218q-52 -109 -151 -176.5t-237 -67.5q-109 0 -204.5 41t-168 114t-113.5 168t-41 205q0 109 41 204.5t113 167.5t167 113t203 41q140 0 240 -67.5t155 -177.5zM586 59q122 0 208 59.5t131.5 160t45.5 221.5q0 124 -46 224.5t-132.5 159.5
t-206.5 59q-121 0 -221 -59.5t-159 -160.5t-59 -223q0 -124 61 -224t160.5 -158.5t217.5 -58.5zM587 1088q-91 0 -166.5 45t-120.5 120.5t-45 166.5h73q0 -73 36.5 -131.5t95.5 -93t127 -34.5q71 0 130 35t94 94t35 130h73q0 -94 -46 -169t-121.5 -119t-164.5 -44z" />
    <glyph glyph-name="Aogonek" unicode="&#x104;" horiz-adv-x="1298" 
d="M590 1400h118l510 -1400h-91l-119 327h-717l-119 -327h-92zM322 413h654l-327 897zM1105 -382q-46 1 -80.5 23.5t-53.5 58t-19 75.5q0 29 11 57.5t35 52.5l168 168l53 -53q-65 -65 -103.5 -103t-56.5 -59t-24 -34.5t-6 -30.5q0 -30 21 -54.5t58 -26.5q38 0 72.5 28
t34.5 78h73q0 -52 -25 -92.5t-66.5 -64t-91.5 -23.5z" />
    <glyph glyph-name="aogonek" unicode="&#x105;" horiz-adv-x="1143" 
d="M977 1000h86v-1000h-86l-2 218q-52 -109 -151 -176.5t-237 -67.5q-109 0 -204.5 41t-168 114t-113.5 168t-41 205q0 109 41 204.5t113 167.5t167 113t203 41q140 0 240 -67.5t155 -177.5zM586 59q122 0 208 59.5t131.5 160t45.5 221.5q0 124 -46 224.5t-132.5 159.5
t-206.5 59q-121 0 -221 -59.5t-159 -160.5t-59 -223q0 -124 61 -224t160.5 -158.5t217.5 -58.5zM949 -382q-46 1 -80.5 23.5t-53.5 58t-19 75.5q0 29 11 57.5t35 52.5l168 168l53 -53q-65 -65 -103.5 -103t-56.5 -59t-24 -34.5t-6 -30.5q0 -30 21 -54.5t58 -26.5
q38 0 72.5 28t34.5 78h73q0 -52 -25 -92.5t-66.5 -64t-91.5 -23.5z" />
    <glyph glyph-name="Cacute" unicode="&#x106;" horiz-adv-x="1418" 
d="M768 -26q-142 0 -267 56.5t-219.5 156t-148 231t-53.5 282.5q0 150 53.5 281.5t148 231.5t219.5 156.5t267 56.5q170 0 313 -79t237 -211l-75 -40q-82 112 -209 178t-266 66q-126 0 -235.5 -51t-192 -139.5t-128.5 -204.5t-46 -245q0 -132 47 -248t130 -204.5t192 -138
t233 -49.5q146 0 271 67.5t204 175.5l75 -41q-94 -132 -237 -210t-313 -78zM750 1510l80 288h86l-108 -288h-58z" />
    <glyph glyph-name="cacute" unicode="&#x107;" horiz-adv-x="1019" 
d="M883 225l75 -41q-67 -96 -171.5 -153t-226.5 -57q-138 0 -251.5 71t-181 190.5t-67.5 264.5q0 110 39 205.5t107.5 168t159.5 113.5t194 41q122 0 226.5 -57t171.5 -153l-75 -41q-61 80 -147.5 122.5t-175.5 42.5q-117 0 -210.5 -60.5t-148.5 -161t-55 -220.5
q0 -121 56 -221t150 -159.5t208 -59.5q98 0 183 46t140 119zM542 1110l80 288h86l-108 -288h-58z" />
    <glyph glyph-name="Ccircumflex" unicode="&#x108;" horiz-adv-x="1418" 
d="M768 -26q-142 0 -267 56.5t-219.5 156t-148 231t-53.5 282.5q0 150 53.5 281.5t148 231.5t219.5 156.5t267 56.5q170 0 313 -79t237 -211l-75 -40q-82 112 -209 178t-266 66q-126 0 -235.5 -51t-192 -139.5t-128.5 -204.5t-46 -245q0 -132 47 -248t130 -204.5t192 -138
t233 -49.5q146 0 271 67.5t204 175.5l75 -41q-94 -132 -237 -210t-313 -78zM814 1798l192 -288h-58l-180 208l-178 -208h-58l191 288h91z" />
    <glyph glyph-name="ccircumflex" unicode="&#x109;" horiz-adv-x="1019" 
d="M883 225l75 -41q-67 -96 -171.5 -153t-226.5 -57q-138 0 -251.5 71t-181 190.5t-67.5 264.5q0 110 39 205.5t107.5 168t159.5 113.5t194 41q122 0 226.5 -57t171.5 -153l-75 -41q-61 80 -147.5 122.5t-175.5 42.5q-117 0 -210.5 -60.5t-148.5 -161t-55 -220.5
q0 -121 56 -221t150 -159.5t208 -59.5q98 0 183 46t140 119zM606 1398l192 -288h-58l-180 208l-178 -208h-58l191 288h91z" />
    <glyph glyph-name="Cdotaccent" unicode="&#x10a;" horiz-adv-x="1418" 
d="M768 -26q-142 0 -267 56.5t-219.5 156t-148 231t-53.5 282.5q0 150 53.5 281.5t148 231.5t219.5 156.5t267 56.5q170 0 313 -79t237 -211l-75 -40q-82 112 -209 178t-266 66q-126 0 -235.5 -51t-192 -139.5t-128.5 -204.5t-46 -245q0 -132 47 -248t130 -204.5t192 -138
t233 -49.5q146 0 271 67.5t204 175.5l75 -41q-94 -132 -237 -210t-313 -78zM769 1599q-23 0 -40 15.5t-17 39.5q0 25 17 40t40 15t39.5 -15t16.5 -39q0 -25 -16 -40.5t-40 -15.5z" />
    <glyph glyph-name="cdotaccent" unicode="&#x10b;" horiz-adv-x="1019" 
d="M883 225l75 -41q-67 -96 -171.5 -153t-226.5 -57q-138 0 -251.5 71t-181 190.5t-67.5 264.5q0 110 39 205.5t107.5 168t159.5 113.5t194 41q122 0 226.5 -57t171.5 -153l-75 -41q-61 80 -147.5 122.5t-175.5 42.5q-117 0 -210.5 -60.5t-148.5 -161t-55 -220.5
q0 -121 56 -221t150 -159.5t208 -59.5q98 0 183 46t140 119zM561 1199q-23 0 -40 15.5t-17 39.5q0 25 17 40t40 15t39.5 -15t16.5 -39q0 -25 -16 -40.5t-40 -15.5z" />
    <glyph glyph-name="Ccaron" unicode="&#x10c;" horiz-adv-x="1418" 
d="M768 -26q-142 0 -267 56.5t-219.5 156t-148 231t-53.5 282.5q0 150 53.5 281.5t148 231.5t219.5 156.5t267 56.5q170 0 313 -79t237 -211l-75 -40q-82 112 -209 178t-266 66q-126 0 -235.5 -51t-192 -139.5t-128.5 -204.5t-46 -245q0 -132 47 -248t130 -204.5t192 -138
t233 -49.5q146 0 271 67.5t204 175.5l75 -41q-94 -132 -237 -210t-313 -78zM722 1510l-192 288h57l181 -208l178 208h58l-191 -288h-91z" />
    <glyph glyph-name="ccaron" unicode="&#x10d;" horiz-adv-x="1019" 
d="M883 225l75 -41q-67 -96 -171.5 -153t-226.5 -57q-138 0 -251.5 71t-181 190.5t-67.5 264.5q0 110 39 205.5t107.5 168t159.5 113.5t194 41q122 0 226.5 -57t171.5 -153l-75 -41q-61 80 -147.5 122.5t-175.5 42.5q-117 0 -210.5 -60.5t-148.5 -161t-55 -220.5
q0 -121 56 -221t150 -159.5t208 -59.5q98 0 183 46t140 119zM514 1110l-192 288h57l181 -208l178 208h58l-191 -288h-91z" />
    <glyph glyph-name="Dcaron" unicode="&#x10e;" horiz-adv-x="1343" 
d="M120 0v1400h462q146 0 272.5 -54.5t223 -151t150.5 -223t54 -271.5t-54 -271.5t-150.5 -223t-223 -151t-272.5 -54.5h-462zM206 86h376q128 0 239.5 47.5t195.5 132t131.5 196t47.5 238.5t-47.5 238.5t-132 196t-195.5 132t-239 47.5h-376v-1228zM606 1510l-192 288h57
l181 -208l178 208h58l-191 -288h-91z" />
    <glyph glyph-name="dcaron" unicode="&#x10f;" horiz-adv-x="1183" 
d="M977 1500h86v-1500h-86v219q-53 -110 -152.5 -177.5t-238.5 -67.5q-109 0 -204 41t-167.5 113.5t-113.5 167.5t-41 204q0 110 41 205.5t113.5 168t167.5 113.5t204 41q139 0 238.5 -67.5t152.5 -177.5v717zM586 59q122 0 208 59.5t131.5 160t45.5 221.5q0 124 -46 224.5
t-132.5 159.5t-206.5 59q-121 0 -220.5 -59.5t-159 -160.5t-59.5 -223q0 -124 61 -224t160.5 -158.5t217.5 -58.5zM1165 1212l80 288h86l-108 -288h-58z" />
    <glyph glyph-name="Emacron" unicode="&#x112;" horiz-adv-x="1059" 
d="M120 0v1400h839v-86h-753v-521h634v-86h-634v-621h753v-86h-839zM191 1661h676v-78h-676v78z" />
    <glyph glyph-name="emacron" unicode="&#x113;" horiz-adv-x="1117" 
d="M560 -26q-138 0 -251.5 71t-181 190.5t-67.5 264.5q0 110 39 205.5t107.5 168t159.5 113.5t194 41q108 0 199.5 -41.5t158.5 -117t103.5 -179t35.5 -227.5h-908q10 -116 67.5 -206.5t146.5 -143.5t197 -53q119 0 214 63t151 173l87 -20q-60 -133 -181 -217.5t-271 -84.5z
M147 540h824q-5 109 -61.5 201.5t-148 148.5t-201.5 56q-111 0 -201 -54.5t-146.5 -147t-65.5 -204.5zM221 1261h676v-78h-676v78z" />
    <glyph glyph-name="Edotaccent" unicode="&#x116;" horiz-adv-x="1059" 
d="M120 0v1400h839v-86h-753v-521h634v-86h-634v-621h753v-86h-839zM530 1599q-23 0 -40 15.5t-17 39.5q0 25 17 40t40 15t39.5 -15t16.5 -39q0 -25 -16 -40.5t-40 -15.5z" />
    <glyph glyph-name="edotaccent" unicode="&#x117;" horiz-adv-x="1117" 
d="M560 -26q-138 0 -251.5 71t-181 190.5t-67.5 264.5q0 110 39 205.5t107.5 168t159.5 113.5t194 41q108 0 199.5 -41.5t158.5 -117t103.5 -179t35.5 -227.5h-908q10 -116 67.5 -206.5t146.5 -143.5t197 -53q119 0 214 63t151 173l87 -20q-60 -133 -181 -217.5t-271 -84.5z
M147 540h824q-5 109 -61.5 201.5t-148 148.5t-201.5 56q-111 0 -201 -54.5t-146.5 -147t-65.5 -204.5zM560 1199q-23 0 -40 15.5t-17 39.5q0 25 17 40t40 15t39.5 -15t16.5 -39q0 -25 -16 -40.5t-40 -15.5z" />
    <glyph glyph-name="Eogonek" unicode="&#x118;" horiz-adv-x="1059" 
d="M120 0v1400h839v-86h-753v-521h634v-86h-634v-621h753v-86h-839zM719 -382q-46 1 -80.5 23.5t-53.5 58t-19 75.5q0 29 11 57.5t35 52.5l168 168l53 -53q-65 -65 -103.5 -103t-56.5 -59t-24 -34.5t-6 -30.5q0 -30 21 -54.5t58 -26.5q38 0 72.5 28t34.5 78h73
q0 -52 -25 -92.5t-66.5 -64t-91.5 -23.5z" />
    <glyph glyph-name="eogonek" unicode="&#x119;" horiz-adv-x="1117" 
d="M560 -26q-138 0 -251.5 71t-181 190.5t-67.5 264.5q0 110 39 205.5t107.5 168t159.5 113.5t194 41q108 0 199.5 -41.5t158.5 -117t103.5 -179t35.5 -227.5h-908q10 -116 67.5 -206.5t146.5 -143.5t197 -53q119 0 214 63t151 173l87 -20q-60 -133 -181 -217.5t-271 -84.5z
M147 540h824q-5 109 -61.5 201.5t-148 148.5t-201.5 56q-111 0 -201 -54.5t-146.5 -147t-65.5 -204.5zM602 -382q-46 1 -80.5 23.5t-53.5 58t-19 75.5q0 29 11 57.5t35 52.5l168 168l53 -53q-65 -65 -103.5 -103t-56.5 -59t-24 -34.5t-6 -30.5q0 -30 21 -54.5t58 -26.5
q38 0 72.5 28t34.5 78h73q0 -52 -25 -92.5t-66.5 -64t-91.5 -23.5z" />
    <glyph glyph-name="Ecaron" unicode="&#x11a;" horiz-adv-x="1059" 
d="M120 0v1400h839v-86h-753v-521h634v-86h-634v-621h753v-86h-839zM483 1510l-192 288h57l181 -208l178 208h58l-191 -288h-91z" />
    <glyph glyph-name="ecaron" unicode="&#x11b;" horiz-adv-x="1117" 
d="M560 -26q-138 0 -251.5 71t-181 190.5t-67.5 264.5q0 110 39 205.5t107.5 168t159.5 113.5t194 41q108 0 199.5 -41.5t158.5 -117t103.5 -179t35.5 -227.5h-908q10 -116 67.5 -206.5t146.5 -143.5t197 -53q119 0 214 63t151 173l87 -20q-60 -133 -181 -217.5t-271 -84.5z
M147 540h824q-5 109 -61.5 201.5t-148 148.5t-201.5 56q-111 0 -201 -54.5t-146.5 -147t-65.5 -204.5zM513 1110l-192 288h57l181 -208l178 208h58l-191 -288h-91z" />
    <glyph glyph-name="Gcircumflex" unicode="&#x11c;" horiz-adv-x="1536" 
d="M770 -26q-144 0 -269 56.5t-219.5 156.5t-148 231.5t-53.5 281.5q0 151 54 283t149.5 231.5t220 155.5t266.5 56q166 0 310 -77.5t240 -210.5l-77 -43q-87 117 -212.5 181t-260.5 64q-126 0 -235.5 -50.5t-192.5 -139.5t-129.5 -204.5t-46.5 -245.5q0 -131 47 -247
t130 -204.5t193 -138.5t234 -50q111 0 209 39.5t176 109.5t130.5 163t71.5 199h-441v82h540q-7 -141 -63.5 -264t-150.5 -216t-215 -146t-257 -53zM816 1798l192 -288h-58l-180 208l-178 -208h-58l191 288h91z" />
    <glyph glyph-name="gcircumflex" unicode="&#x11d;" horiz-adv-x="1149" 
d="M943 1000h86v-1046q0 -90 -40.5 -171.5t-108 -145.5t-153 -100.5t-177.5 -36.5q-104 0 -200.5 49.5t-166.5 131t-95 178.5l79 37q18 -85 77 -155.5t140.5 -112.5t165.5 -42q74 0 144.5 30.5t126.5 82t89 117.5t33 138v262q-54 -108 -152 -175t-228 -67q-104 0 -195.5 41
t-160.5 113.5t-108 167.5t-39 204q0 110 39 205.5t108 168t160.5 113.5t195.5 41q130 0 228 -67t152 -176v215zM563 59q118 0 202 61.5t129 162t45 217.5q0 120 -45.5 221t-130 161.5t-200.5 60.5t-210.5 -59.5t-150 -160.5t-55.5 -223q0 -123 56.5 -223t151.5 -159t208 -59
zM621 1398l192 -288h-58l-180 208l-178 -208h-58l191 288h91z" />
    <glyph glyph-name="Gbreve" unicode="&#x11e;" horiz-adv-x="1536" 
d="M770 -26q-144 0 -269 56.5t-219.5 156.5t-148 231.5t-53.5 281.5q0 151 54 283t149.5 231.5t220 155.5t266.5 56q166 0 310 -77.5t240 -210.5l-77 -43q-87 117 -212.5 181t-260.5 64q-126 0 -235.5 -50.5t-192.5 -139.5t-129.5 -204.5t-46.5 -245.5q0 -131 47 -247
t130 -204.5t193 -138.5t234 -50q111 0 209 39.5t176 109.5t130.5 163t71.5 199h-441v82h540q-7 -141 -63.5 -264t-150.5 -216t-215 -146t-257 -53zM770 1488q-91 0 -166.5 45t-120.5 120.5t-45 166.5h73q0 -73 36.5 -131.5t95.5 -93t127 -34.5q71 0 130 35t94 94t35 130h73
q0 -94 -46 -169t-121.5 -119t-164.5 -44z" />
    <glyph glyph-name="gbreve" unicode="&#x11f;" horiz-adv-x="1149" 
d="M943 1000h86v-1046q0 -90 -40.5 -171.5t-108 -145.5t-153 -100.5t-177.5 -36.5q-104 0 -200.5 49.5t-166.5 131t-95 178.5l79 37q18 -85 77 -155.5t140.5 -112.5t165.5 -42q74 0 144.5 30.5t126.5 82t89 117.5t33 138v262q-54 -108 -152 -175t-228 -67q-104 0 -195.5 41
t-160.5 113.5t-108 167.5t-39 204q0 110 39 205.5t108 168t160.5 113.5t195.5 41q130 0 228 -67t152 -176v215zM563 59q118 0 202 61.5t129 162t45 217.5q0 120 -45.5 221t-130 161.5t-200.5 60.5t-210.5 -59.5t-150 -160.5t-55.5 -223q0 -123 56.5 -223t151.5 -159t208 -59
zM575 1088q-91 0 -166.5 45t-120.5 120.5t-45 166.5h73q0 -73 36.5 -131.5t95.5 -93t127 -34.5q71 0 130 35t94 94t35 130h73q0 -94 -46 -169t-121.5 -119t-164.5 -44z" />
    <glyph glyph-name="Gdotaccent" unicode="&#x120;" horiz-adv-x="1536" 
d="M770 -26q-144 0 -269 56.5t-219.5 156.5t-148 231.5t-53.5 281.5q0 151 54 283t149.5 231.5t220 155.5t266.5 56q166 0 310 -77.5t240 -210.5l-77 -43q-87 117 -212.5 181t-260.5 64q-126 0 -235.5 -50.5t-192.5 -139.5t-129.5 -204.5t-46.5 -245.5q0 -131 47 -247
t130 -204.5t193 -138.5t234 -50q111 0 209 39.5t176 109.5t130.5 163t71.5 199h-441v82h540q-7 -141 -63.5 -264t-150.5 -216t-215 -146t-257 -53zM771 1599q-23 0 -40 15.5t-17 39.5q0 25 17 40t40 15t39.5 -15t16.5 -39q0 -25 -16 -40.5t-40 -15.5z" />
    <glyph glyph-name="gdotaccent" unicode="&#x121;" horiz-adv-x="1149" 
d="M943 1000h86v-1046q0 -90 -40.5 -171.5t-108 -145.5t-153 -100.5t-177.5 -36.5q-104 0 -200.5 49.5t-166.5 131t-95 178.5l79 37q18 -85 77 -155.5t140.5 -112.5t165.5 -42q74 0 144.5 30.5t126.5 82t89 117.5t33 138v262q-54 -108 -152 -175t-228 -67q-104 0 -195.5 41
t-160.5 113.5t-108 167.5t-39 204q0 110 39 205.5t108 168t160.5 113.5t195.5 41q130 0 228 -67t152 -176v215zM563 59q118 0 202 61.5t129 162t45 217.5q0 120 -45.5 221t-130 161.5t-200.5 60.5t-210.5 -59.5t-150 -160.5t-55.5 -223q0 -123 56.5 -223t151.5 -159t208 -59
zM575 1199q-23 0 -40 15.5t-17 39.5q0 25 17 40t40 15t39.5 -15t16.5 -39q0 -25 -16 -40.5t-40 -15.5z" />
    <glyph glyph-name="uni0122" unicode="&#x122;" horiz-adv-x="1536" 
d="M770 -26q-144 0 -269 56.5t-219.5 156.5t-148 231.5t-53.5 281.5q0 151 54 283t149.5 231.5t220 155.5t266.5 56q166 0 310 -77.5t240 -210.5l-77 -43q-87 117 -212.5 181t-260.5 64q-126 0 -235.5 -50.5t-192.5 -139.5t-129.5 -204.5t-46.5 -245.5q0 -131 47 -247
t130 -204.5t193 -138.5t234 -50q111 0 209 39.5t176 109.5t130.5 163t71.5 199h-441v82h540q-7 -141 -63.5 -264t-150.5 -216t-215 -146t-257 -53zM663 -441l62 338h86l-91 -338h-57z" />
    <glyph glyph-name="Hcircumflex" unicode="&#x124;" horiz-adv-x="1227" 
d="M1021 1400h86v-1400h-86v707h-815v-707h-86v1400h86v-607h815v607zM660 1798l192 -288h-58l-180 208l-178 -208h-58l191 288h91z" />
    <glyph glyph-name="hcircumflex" unicode="&#x125;" horiz-adv-x="1049" 
d="M969 612v-612h-86v603q0 94 -45.5 170.5t-122.5 122.5t-170 46q-94 0 -171 -46t-122.5 -122.5t-45.5 -170.5v-603h-86v1500h86v-663q54 87 146 139t201 52q115 0 209.5 -56t150.5 -150.5t56 -209.5zM595 1823l192 -288h-58l-180 208l-178 -208h-58l191 288h91z" />
    <glyph glyph-name="Itilde" unicode="&#x128;" horiz-adv-x="386" 
d="M150 0v1400h86v-1400h-86zM348 1544q-37 0 -79.5 22.5t-85.5 52t-83 51.5t-71 20q-33 -2 -54 -32.5t-11 -71.5l-70 -19q-16 46 -1 91.5t53 75.5t90 30q38 0 82.5 -22t89 -51t85 -51t69.5 -22q24 0 40 19t22 43.5t-1 40.5l69 22q16 -48 0 -94t-54 -75.5t-90 -29.5z" />
    <glyph glyph-name="itilde" unicode="&#x129;" 
d="M273 1116q-27 0 -57 18t-60.5 41t-59 41t-50.5 16q-24 -1 -38.5 -26t-7.5 -57l-50 -15q-11 37 -0.5 73t37.5 60t64 24q27 0 58.5 -17.5t63.5 -40.5t60.5 -40.5t49.5 -17.5q25 0 37.5 31t5.5 51l50 18q16 -59 -15.5 -109t-87.5 -50zM120 1000h86v-1000h-86v1000z" />
    <glyph glyph-name="Imacron" unicode="&#x12a;" horiz-adv-x="386" 
d="M150 0v1400h86v-1400h-86zM-145 1661h676v-78h-676v78z" />
    <glyph glyph-name="imacron" unicode="&#x12b;" 
d="M0 1261h326v-78h-326v78zM120 1000h86v-1000h-86v1000z" />
    <glyph glyph-name="Iogonek" unicode="&#x12e;" horiz-adv-x="386" 
d="M150 0v1400h86v-1400h-86zM122 -382q-46 1 -80.5 23.5t-53.5 58t-19 75.5q0 29 11 57.5t35 52.5l168 168l53 -53q-65 -65 -103.5 -103t-56.5 -59t-24 -34.5t-6 -30.5q0 -30 21 -54.5t58 -26.5q38 0 72.5 28t34.5 78h73q0 -52 -25 -92.5t-66.5 -64t-91.5 -23.5z" />
    <glyph glyph-name="iogonek" unicode="&#x12f;" 
d="M120 1000h86v-1000h-86v1000zM164 1199q-23 0 -40 15.5t-17 39.5q0 25 17 40t40 15t39.5 -15t16.5 -39q0 -25 -16 -40.5t-40 -15.5zM92 -382q-46 1 -80.5 23.5t-53.5 58t-19 75.5q0 29 11 57.5t35 52.5l168 168l53 -53q-65 -65 -103.5 -103t-56.5 -59t-24 -34.5t-6 -30.5
q0 -30 21 -54.5t58 -26.5q38 0 72.5 28t34.5 78h73q0 -52 -25 -92.5t-66.5 -64t-91.5 -23.5z" />
    <glyph glyph-name="Idotaccent" unicode="&#x130;" horiz-adv-x="386" 
d="M150 0v1400h86v-1400h-86zM194 1599q-23 0 -40 15.5t-17 39.5q0 25 17 40t40 15t39.5 -15t16.5 -39q0 -25 -16 -40.5t-40 -15.5z" />
    <glyph glyph-name="dotlessi" unicode="&#x131;" 
d="M120 1000h86v-1000h-86v1000z" />
    <glyph glyph-name="IJ" unicode="&#x132;" horiz-adv-x="1145" 
d="M150 0v1400h86v-1400h-86zM658 -26q-63 0 -122.5 21t-109.5 64l55 66q36 -31 82 -48t95 -17q78 0 141.5 42t101.5 110t38 145v1043h86v-1043q0 -101 -49 -188t-132.5 -141t-185.5 -54z" />
    <glyph glyph-name="ij" unicode="&#x133;" horiz-adv-x="674" 
d="M120 1000h86v-1000h-86v1000zM164 1199q-23 0 -40 15.5t-17 39.5q0 25 17 40t40 15t39.5 -15t16.5 -39q0 -25 -16 -40.5t-40 -15.5zM177 -500v86q84 0 149.5 36.5t103.5 100t38 142.5v1135h86v-1135q0 -101 -49 -184t-134 -132t-194 -49zM512 1199q-23 0 -40 15.5
t-17 39.5q0 25 17 40t40 15t39.5 -15t16.5 -39q0 -25 -16 -40.5t-40 -15.5z" />
    <glyph glyph-name="Jcircumflex" unicode="&#x134;" horiz-adv-x="759" 
d="M272 -26q-63 0 -122.5 21t-109.5 64l55 66q36 -31 82 -48t95 -17q78 0 141.5 42t101.5 110t38 145v1043h86v-1043q0 -101 -49 -188t-132.5 -141t-185.5 -54zM643 1798l192 -288h-58l-180 208l-178 -208h-58l191 288h91z" />
    <glyph glyph-name="jcircumflex" unicode="&#x135;" horiz-adv-x="417" 
d="M-80 -500v86q84 0 149.5 36.5t103.5 100t38 142.5v1135h86v-1135q0 -101 -49 -184t-134 -132t-194 -49zM301 1398l192 -288h-58l-180 208l-178 -208h-58l191 288h91z" />
    <glyph glyph-name="uni0136" unicode="&#x136;" horiz-adv-x="1011" 
d="M955 0h-110l-494 670l-145 -175v-495h-86v1400h86v-770l646 770h112l-556 -662zM401 -441l62 338h86l-91 -338h-57z" />
    <glyph glyph-name="uni0137" unicode="&#x137;" horiz-adv-x="936" 
d="M842 0h-98l-307 530l-231 -277v-253h-86v1500h86v-1112l514 612h112l-337 -400zM349 -441l62 338h86l-91 -338h-57z" />
    <glyph glyph-name="Lacute" unicode="&#x139;" horiz-adv-x="981" 
d="M120 0v1400h86v-1314h675v-86h-761zM145 1510l80 288h86l-108 -288h-58z" />
    <glyph glyph-name="lacute" unicode="&#x13a;" 
d="M120 0v1500h86v-1500h-86zM145 1610l80 288h86l-108 -288h-58z" />
    <glyph glyph-name="uni013B" unicode="&#x13b;" horiz-adv-x="981" 
d="M120 0v1400h86v-1314h675v-86h-761zM396 -441l62 338h86l-91 -338h-57z" />
    <glyph glyph-name="uni013C" unicode="&#x13c;" 
d="M120 0v1500h86v-1500h-86zM58 -441l62 338h86l-91 -338h-57z" />
    <glyph glyph-name="Lcaron" unicode="&#x13d;" horiz-adv-x="981" 
d="M120 0v1400h86v-1314h675v-86h-761zM549 1212l80 288h86l-108 -288h-58z" />
    <glyph glyph-name="lcaron" unicode="&#x13e;" 
d="M120 0v1500h86v-1500h-86zM300 1212l80 288h86l-108 -288h-58z" />
    <glyph glyph-name="Nacute" unicode="&#x143;" horiz-adv-x="1235" 
d="M120 0v1400h94l815 -1245v1245h86v-1400h-92l-817 1245v-1245h-86zM599 1510l80 288h86l-108 -288h-58z" />
    <glyph glyph-name="nacute" unicode="&#x144;" horiz-adv-x="1049" 
d="M969 612v-612h-86v603q0 94 -45.5 170.5t-122.5 122.5t-170 46q-94 0 -171 -46t-122.5 -122.5t-45.5 -170.5v-603h-86v1000h86v-163q54 87 146 139t201 52q115 0 209.5 -56t150.5 -150.5t56 -209.5zM529 1110l80 288h86l-108 -288h-58z" />
    <glyph glyph-name="uni0145" unicode="&#x145;" horiz-adv-x="1235" 
d="M120 0v1400h94l815 -1245v1245h86v-1400h-92l-817 1245v-1245h-86zM512 -441l62 338h86l-91 -338h-57z" />
    <glyph glyph-name="uni0146" unicode="&#x146;" horiz-adv-x="1049" 
d="M969 612v-612h-86v603q0 94 -45.5 170.5t-122.5 122.5t-170 46q-94 0 -171 -46t-122.5 -122.5t-45.5 -170.5v-603h-86v1000h86v-163q54 87 146 139t201 52q115 0 209.5 -56t150.5 -150.5t56 -209.5zM440 -441l62 338h86l-91 -338h-57z" />
    <glyph glyph-name="Ncaron" unicode="&#x147;" horiz-adv-x="1235" 
d="M120 0v1400h94l815 -1245v1245h86v-1400h-92l-817 1245v-1245h-86zM571 1510l-192 288h57l181 -208l178 208h58l-191 -288h-91z" />
    <glyph glyph-name="ncaron" unicode="&#x148;" horiz-adv-x="1049" 
d="M969 612v-612h-86v603q0 94 -45.5 170.5t-122.5 122.5t-170 46q-94 0 -171 -46t-122.5 -122.5t-45.5 -170.5v-603h-86v1000h86v-163q54 87 146 139t201 52q115 0 209.5 -56t150.5 -150.5t56 -209.5zM501 1110l-192 288h57l181 -208l178 208h58l-191 -288h-91z" />
    <glyph glyph-name="Omacron" unicode="&#x14c;" horiz-adv-x="1540" 
d="M770 -26q-142 0 -267 56.5t-220 156.5t-149 231.5t-54 281.5t54 281.5t149 231.5t220 156.5t267 56.5q143 0 268 -56.5t220 -156.5t148.5 -231.5t53.5 -281.5t-53.5 -281.5t-148.5 -231.5t-220 -156.5t-268 -56.5zM770 60q126 0 236 51t192.5 139.5t129 204t46.5 245.5
q0 131 -47 247t-130 204.5t-192.5 138.5t-234.5 50q-126 0 -236 -51t-192.5 -139.5t-129 -204t-46.5 -245.5q0 -132 47 -247.5t130 -204t192.5 -138.5t234.5 -50zM432 1661h676v-78h-676v78z" />
    <glyph glyph-name="omacron" unicode="&#x14d;" horiz-adv-x="1120" 
d="M560 -26q-138 0 -251.5 71t-181 190.5t-67.5 264.5q0 110 39 205.5t107.5 168t159.5 113.5t194 41q138 0 251.5 -71t181 -191t67.5 -266q0 -109 -39 -204t-107.5 -167.5t-159 -113.5t-194.5 -41zM560 60q117 0 210.5 61t148.5 161t55 218q0 119 -55 219.5t-148.5 161.5
t-210.5 61q-118 0 -211.5 -61t-148 -161.5t-54.5 -219.5q0 -123 56.5 -222.5t150.5 -158.5t207 -59zM222 1261h676v-78h-676v78z" />
    <glyph glyph-name="Ohungarumlaut" unicode="&#x150;" horiz-adv-x="1540" 
d="M770 -26q-142 0 -267 56.5t-220 156.5t-149 231.5t-54 281.5t54 281.5t149 231.5t220 156.5t267 56.5q143 0 268 -56.5t220 -156.5t148.5 -231.5t53.5 -281.5t-53.5 -281.5t-148.5 -231.5t-220 -156.5t-268 -56.5zM770 60q126 0 236 51t192.5 139.5t129 204t46.5 245.5
q0 131 -47 247t-130 204.5t-192.5 138.5t-234.5 50q-126 0 -236 -51t-192.5 -139.5t-129 -204t-46.5 -245.5q0 -132 47 -247.5t130 -204t192.5 -138.5t234.5 -50zM881 1510l80 288h86l-108 -288h-58zM639 1510l80 288h86l-108 -288h-58z" />
    <glyph glyph-name="ohungarumlaut" unicode="&#x151;" horiz-adv-x="1120" 
d="M560 -26q-138 0 -251.5 71t-181 190.5t-67.5 264.5q0 110 39 205.5t107.5 168t159.5 113.5t194 41q138 0 251.5 -71t181 -191t67.5 -266q0 -109 -39 -204t-107.5 -167.5t-159 -113.5t-194.5 -41zM560 60q117 0 210.5 61t148.5 161t55 218q0 119 -55 219.5t-148.5 161.5
t-210.5 61q-118 0 -211.5 -61t-148 -161.5t-54.5 -219.5q0 -123 56.5 -222.5t150.5 -158.5t207 -59zM671 1110l80 288h86l-108 -288h-58zM429 1110l80 288h86l-108 -288h-58z" />
    <glyph glyph-name="OE" unicode="&#x152;" horiz-adv-x="2194" 
d="M770 -26q-142 0 -267 56.5t-220 156.5t-149 231.5t-54 281.5t54 281.5t149 231.5t220 156.5t267 56.5q133 0 250.5 -51t208.5 -140.5t145 -205.5v371h720v-86h-634v-571h538v-86h-538v-571h634v-86h-720v371q-54 -116 -145 -205.5t-208.5 -140.5t-250.5 -51zM770 60
q126 0 236 51t192.5 139.5t129 204t46.5 245.5q0 131 -47 247t-130 204.5t-192.5 138.5t-234.5 50q-126 0 -236 -51t-192.5 -139.5t-129 -204t-46.5 -245.5q0 -132 47 -247.5t130 -204t192.5 -138.5t234.5 -50z" />
    <glyph glyph-name="oe" unicode="&#x153;" horiz-adv-x="2031" 
d="M560 -26q-138 0 -251.5 71t-181 190.5t-67.5 264.5q0 110 39 205.5t107.5 168t159.5 113.5t194 41q104 0 194.5 -41.5t158.5 -115t104 -170.5q36 97 104 170.5t159 115t194 41.5q108 0 199.5 -41.5t158.5 -117t103.5 -179t35.5 -227.5h-908q10 -116 67 -206.5
t146.5 -143.5t197.5 -53q119 0 214 63t151 173l87 -20q-60 -133 -181 -217.5t-271 -84.5q-103 0 -194 41.5t-159 115t-104 168.5q-36 -95 -104 -168.5t-158.5 -115t-194.5 -41.5zM560 60q117 0 210.5 61t148.5 161t55 218q0 119 -55 219.5t-148.5 161.5t-210.5 61
q-118 0 -211.5 -61t-148 -161.5t-54.5 -219.5q0 -123 56.5 -222.5t150.5 -158.5t207 -59zM1061 540h824q-5 109 -61.5 201.5t-148 148.5t-201.5 56q-111 0 -201 -54.5t-146.5 -146.5t-65.5 -205z" />
    <glyph glyph-name="Racute" unicode="&#x154;" horiz-adv-x="1064" 
d="M120 0v1400h443q111 0 200.5 -53t141.5 -144.5t52 -205.5q0 -107 -46 -193t-124.5 -140t-174.5 -65l346 -599h-100l-345 594h-307v-594h-86zM206 680h353q86 0 157 41.5t113 114t42 163.5q0 92 -42 164.5t-113 114t-157 41.5h-353v-639zM390 1510l80 288h86l-108 -288
h-58z" />
    <glyph glyph-name="racute" unicode="&#x155;" horiz-adv-x="686" 
d="M120 0v1000h86v-163q54 87 146 139t201 52q59 0 113 -15l-36 -83q-43 12 -85 12q-94 0 -171 -46t-122.5 -122.5t-45.5 -170.5v-603h-86zM353 1110l80 288h86l-108 -288h-58z" />
    <glyph glyph-name="uni0156" unicode="&#x156;" horiz-adv-x="1064" 
d="M120 0v1400h443q111 0 200.5 -53t141.5 -144.5t52 -205.5q0 -107 -46 -193t-124.5 -140t-174.5 -65l346 -599h-100l-345 594h-307v-594h-86zM206 680h353q86 0 157 41.5t113 114t42 163.5q0 92 -42 164.5t-113 114t-157 41.5h-353v-639zM414 -441l62 338h86l-91 -338h-57
z" />
    <glyph glyph-name="uni0157" unicode="&#x157;" horiz-adv-x="686" 
d="M120 0v1000h86v-163q54 87 146 139t201 52q59 0 113 -15l-36 -83q-43 12 -85 12q-94 0 -171 -46t-122.5 -122.5t-45.5 -170.5v-603h-86zM58 -441l62 338h86l-91 -338h-57z" />
    <glyph glyph-name="Rcaron" unicode="&#x158;" horiz-adv-x="1064" 
d="M120 0v1400h443q111 0 200.5 -53t141.5 -144.5t52 -205.5q0 -107 -46 -193t-124.5 -140t-174.5 -65l346 -599h-100l-345 594h-307v-594h-86zM206 680h353q86 0 157 41.5t113 114t42 163.5q0 92 -42 164.5t-113 114t-157 41.5h-353v-639zM362 1510l-192 288h57l181 -208
l178 208h58l-191 -288h-91z" />
    <glyph glyph-name="rcaron" unicode="&#x159;" horiz-adv-x="686" 
d="M120 0v1000h86v-163q54 87 146 139t201 52q59 0 113 -15l-36 -83q-43 12 -85 12q-94 0 -171 -46t-122.5 -122.5t-45.5 -170.5v-603h-86zM325 1110l-192 288h57l181 -208l178 208h58l-191 -288h-91z" />
    <glyph glyph-name="Sacute" unicode="&#x15a;" horiz-adv-x="1205" 
d="M602 -26q-110 0 -213.5 34t-180.5 97t-108 151l80 31q26 -74 93 -124.5t154 -76.5t175 -26q107 0 200 36.5t150.5 103.5t57.5 157q0 92 -59.5 150.5t-153 93t-195.5 52.5q-141 26 -252.5 66.5t-176 115t-64.5 201.5q0 117 68.5 203t181 133t243.5 47q105 0 208 -32.5
t181.5 -96t113.5 -155.5l-82 -29q-26 74 -92.5 124.5t-153.5 76.5t-175 26q-108 0 -200.5 -37t-149.5 -104t-57 -156q0 -102 53.5 -158t145 -84.5t208.5 -50.5q130 -24 242.5 -70.5t182 -124t69.5 -191.5q0 -117 -69 -203t-181.5 -133t-243.5 -47zM585 1510l80 288h86
l-108 -288h-58z" />
    <glyph glyph-name="sacute" unicode="&#x15b;" horiz-adv-x="854" 
d="M436 -20q-84 1 -164.5 29.5t-140 77.5t-81.5 109l77 33q18 -49 69.5 -87t117.5 -59.5t126 -21.5q73 0 136 25t102.5 70.5t39.5 105.5q0 64 -41.5 101t-105.5 60t-133 44q-112 33 -192.5 66t-123.5 83t-43 134q0 87 51 150.5t133.5 98.5t176.5 35q124 0 224.5 -54.5
t139.5 -142.5l-72 -42q-20 49 -66 84t-105 54.5t-118 19.5q-74 0 -138 -24t-103.5 -69.5t-39.5 -108.5q0 -65 35 -98.5t98.5 -55t150.5 -49.5q93 -29 174 -63.5t131 -86.5t50 -135q0 -87 -51.5 -151t-135 -98.5t-178.5 -33.5zM409 1110l80 288h86l-108 -288h-58z" />
    <glyph glyph-name="Scircumflex" unicode="&#x15c;" horiz-adv-x="1205" 
d="M602 -26q-110 0 -213.5 34t-180.5 97t-108 151l80 31q26 -74 93 -124.5t154 -76.5t175 -26q107 0 200 36.5t150.5 103.5t57.5 157q0 92 -59.5 150.5t-153 93t-195.5 52.5q-141 26 -252.5 66.5t-176 115t-64.5 201.5q0 117 68.5 203t181 133t243.5 47q105 0 208 -32.5
t181.5 -96t113.5 -155.5l-82 -29q-26 74 -92.5 124.5t-153.5 76.5t-175 26q-108 0 -200.5 -37t-149.5 -104t-57 -156q0 -102 53.5 -158t145 -84.5t208.5 -50.5q130 -24 242.5 -70.5t182 -124t69.5 -191.5q0 -117 -69 -203t-181.5 -133t-243.5 -47zM649 1798l192 -288h-58
l-180 208l-178 -208h-58l191 288h91z" />
    <glyph glyph-name="scircumflex" unicode="&#x15d;" horiz-adv-x="854" 
d="M436 -20q-84 1 -164.5 29.5t-140 77.5t-81.5 109l77 33q18 -49 69.5 -87t117.5 -59.5t126 -21.5q73 0 136 25t102.5 70.5t39.5 105.5q0 64 -41.5 101t-105.5 60t-133 44q-112 33 -192.5 66t-123.5 83t-43 134q0 87 51 150.5t133.5 98.5t176.5 35q124 0 224.5 -54.5
t139.5 -142.5l-72 -42q-20 49 -66 84t-105 54.5t-118 19.5q-74 0 -138 -24t-103.5 -69.5t-39.5 -108.5q0 -65 35 -98.5t98.5 -55t150.5 -49.5q93 -29 174 -63.5t131 -86.5t50 -135q0 -87 -51.5 -151t-135 -98.5t-178.5 -33.5zM474 1398l192 -288h-58l-180 208l-178 -208h-58
l191 288h91z" />
    <glyph glyph-name="Scedilla" unicode="&#x15e;" horiz-adv-x="1205" 
d="M602 -26q-110 0 -213.5 34t-180.5 97t-108 151l80 31q26 -74 93 -124.5t154 -76.5t175 -26q107 0 200 36.5t150.5 103.5t57.5 157q0 92 -59.5 150.5t-153 93t-195.5 52.5q-141 26 -252.5 66.5t-176 115t-64.5 201.5q0 117 68.5 203t181 133t243.5 47q105 0 208 -32.5
t181.5 -96t113.5 -155.5l-82 -29q-26 74 -92.5 124.5t-153.5 76.5t-175 26q-108 0 -200.5 -37t-149.5 -104t-57 -156q0 -102 53.5 -158t145 -84.5t208.5 -50.5q130 -24 242.5 -70.5t182 -124t69.5 -191.5q0 -117 -69 -203t-181.5 -133t-243.5 -47zM668 -362
q-59 -17 -112.5 14t-69.5 91l68 18q8 -31 36.5 -47.5t60.5 -8.5q32 9 48.5 37t6.5 60q-8 32 -36 48.5t-61 8.5l-78 -17l114 196l60 -35l-44 -76q40 -8 71 -36.5t42 -69.5q16 -60 -15 -114t-91 -69z" />
    <glyph glyph-name="scedilla" unicode="&#x15f;" horiz-adv-x="854" 
d="M436 -20q-84 1 -164.5 29.5t-140 77.5t-81.5 109l77 33q18 -49 69.5 -87t117.5 -59.5t126 -21.5q73 0 136 25t102.5 70.5t39.5 105.5q0 64 -41.5 101t-105.5 60t-133 44q-112 33 -192.5 66t-123.5 83t-43 134q0 87 51 150.5t133.5 98.5t176.5 35q124 0 224.5 -54.5
t139.5 -142.5l-72 -42q-20 49 -66 84t-105 54.5t-118 19.5q-74 0 -138 -24t-103.5 -69.5t-39.5 -108.5q0 -65 35 -98.5t98.5 -55t150.5 -49.5q93 -29 174 -63.5t131 -86.5t50 -135q0 -87 -51.5 -151t-135 -98.5t-178.5 -33.5zM488 -362q-59 -17 -112.5 14t-69.5 91l68 18
q8 -31 36.5 -47.5t60.5 -8.5q32 9 48.5 37t6.5 60q-8 32 -36 48.5t-61 8.5l-78 -17l114 196l60 -35l-44 -76q40 -8 71 -36.5t42 -69.5q16 -60 -15 -114t-91 -69z" />
    <glyph glyph-name="Scaron" unicode="&#x160;" horiz-adv-x="1205" 
d="M602 -26q-110 0 -213.5 34t-180.5 97t-108 151l80 31q26 -74 93 -124.5t154 -76.5t175 -26q107 0 200 36.5t150.5 103.5t57.5 157q0 92 -59.5 150.5t-153 93t-195.5 52.5q-141 26 -252.5 66.5t-176 115t-64.5 201.5q0 117 68.5 203t181 133t243.5 47q105 0 208 -32.5
t181.5 -96t113.5 -155.5l-82 -29q-26 74 -92.5 124.5t-153.5 76.5t-175 26q-108 0 -200.5 -37t-149.5 -104t-57 -156q0 -102 53.5 -158t145 -84.5t208.5 -50.5q130 -24 242.5 -70.5t182 -124t69.5 -191.5q0 -117 -69 -203t-181.5 -133t-243.5 -47zM556 1510l-192 288h57
l181 -208l178 208h58l-191 -288h-91z" />
    <glyph glyph-name="scaron" unicode="&#x161;" horiz-adv-x="854" 
d="M436 -20q-84 1 -164.5 29.5t-140 77.5t-81.5 109l77 33q18 -49 69.5 -87t117.5 -59.5t126 -21.5q73 0 136 25t102.5 70.5t39.5 105.5q0 64 -41.5 101t-105.5 60t-133 44q-112 33 -192.5 66t-123.5 83t-43 134q0 87 51 150.5t133.5 98.5t176.5 35q124 0 224.5 -54.5
t139.5 -142.5l-72 -42q-20 49 -66 84t-105 54.5t-118 19.5q-74 0 -138 -24t-103.5 -69.5t-39.5 -108.5q0 -65 35 -98.5t98.5 -55t150.5 -49.5q93 -29 174 -63.5t131 -86.5t50 -135q0 -87 -51.5 -151t-135 -98.5t-178.5 -33.5zM381 1110l-192 288h57l181 -208l178 208h58
l-191 -288h-91z" />
    <glyph glyph-name="uni0162" unicode="&#x162;" horiz-adv-x="1259" 
d="M1178 1400v-86h-507v-1314h-86v1314h-505v86h1098zM627 -362q-59 -17 -112.5 14t-69.5 91l68 18q8 -31 36.5 -47.5t60.5 -8.5q32 9 48.5 37t6.5 60q-8 32 -36 48.5t-61 8.5l-78 -17l114 196l60 -35l-44 -76q40 -8 71 -36.5t42 -69.5q16 -60 -15 -114t-91 -69z" />
    <glyph glyph-name="uni0163" unicode="&#x163;" horiz-adv-x="677" 
d="M618 914h-262l-2 -914h-86l2 914h-198v86h198l-2 314h86l2 -314h262v-86zM310 -362q-59 -17 -112.5 14t-69.5 91l68 18q8 -31 36.5 -47.5t60.5 -8.5q32 9 48.5 37t6.5 60q-8 32 -36 48.5t-61 8.5l-78 -17l114 196l60 -35l-44 -76q40 -8 71 -36.5t42 -69.5
q16 -60 -15 -114t-91 -69z" />
    <glyph glyph-name="Tcaron" unicode="&#x164;" horiz-adv-x="1259" 
d="M1178 1400v-86h-507v-1314h-86v1314h-505v86h1098zM583 1510l-192 288h57l181 -208l178 208h58l-191 -288h-91z" />
    <glyph glyph-name="tcaron" unicode="&#x165;" horiz-adv-x="677" 
d="M618 914h-262l-2 -914h-86l2 914h-198v86h198l-2 314h86l2 -314h262v-86zM511 1212l80 288h86l-108 -288h-58z" />
    <glyph glyph-name="Utilde" unicode="&#x168;" horiz-adv-x="1308" 
d="M654 -26q-168 0 -287.5 82t-183 220.5t-63.5 307.5v816h86v-816q0 -143 51.5 -262t152 -190.5t244.5 -71.5q147 0 246.5 72.5t150.5 191.5t51 260v816h86v-816q0 -127 -36 -237.5t-104.5 -194.5t-168 -131t-225.5 -47zM809 1544q-37 0 -79.5 22.5t-85.5 52t-83 51.5
t-71 20q-33 -2 -54 -32.5t-11 -71.5l-70 -19q-16 46 -1 91.5t53 75.5t90 30q38 0 82.5 -22t89 -51t85 -51t69.5 -22q24 0 40 19t22 43.5t-1 40.5l69 22q16 -48 0 -94t-54 -75.5t-90 -29.5z" />
    <glyph glyph-name="utilde" unicode="&#x169;" horiz-adv-x="1009" 
d="M80 390v610h86v-601q0 -94 45.5 -170.5t122.5 -122.5t171 -46q93 0 169.5 46t122.5 122.5t46 170.5v601h86v-1000h-86v165q-55 -86 -146.5 -138.5t-200.5 -52.5q-115 0 -209.5 56t-150.5 150.5t-56 209.5zM664 1144q-37 0 -79.5 22.5t-85.5 52t-83 51.5t-71 20
q-33 -2 -54 -32.5t-11 -71.5l-70 -19q-16 46 -1 91.5t53 75.5t90 30q38 0 82.5 -22t89 -51t85 -51t69.5 -22q24 0 40 19t22 43.5t-1 40.5l69 22q16 -48 0 -94t-54 -75.5t-90 -29.5z" />
    <glyph glyph-name="Umacron" unicode="&#x16a;" horiz-adv-x="1308" 
d="M654 -26q-168 0 -287.5 82t-183 220.5t-63.5 307.5v816h86v-816q0 -143 51.5 -262t152 -190.5t244.5 -71.5q147 0 246.5 72.5t150.5 191.5t51 260v816h86v-816q0 -127 -36 -237.5t-104.5 -194.5t-168 -131t-225.5 -47zM316 1661h676v-78h-676v78z" />
    <glyph glyph-name="umacron" unicode="&#x16b;" horiz-adv-x="1009" 
d="M80 390v610h86v-601q0 -94 45.5 -170.5t122.5 -122.5t171 -46q93 0 169.5 46t122.5 122.5t46 170.5v601h86v-1000h-86v165q-55 -86 -146.5 -138.5t-200.5 -52.5q-115 0 -209.5 56t-150.5 150.5t-56 209.5zM171 1261h676v-78h-676v78z" />
    <glyph glyph-name="Ubreve" unicode="&#x16c;" horiz-adv-x="1308" 
d="M654 -26q-168 0 -287.5 82t-183 220.5t-63.5 307.5v816h86v-816q0 -143 51.5 -262t152 -190.5t244.5 -71.5q147 0 246.5 72.5t150.5 191.5t51 260v816h86v-816q0 -127 -36 -237.5t-104.5 -194.5t-168 -131t-225.5 -47zM654 1488q-91 0 -166.5 45t-120.5 120.5t-45 166.5
h73q0 -73 36.5 -131.5t95.5 -93t127 -34.5q71 0 130 35t94 94t35 130h73q0 -94 -46 -169t-121.5 -119t-164.5 -44z" />
    <glyph glyph-name="ubreve" unicode="&#x16d;" horiz-adv-x="1009" 
d="M80 390v610h86v-601q0 -94 45.5 -170.5t122.5 -122.5t171 -46q93 0 169.5 46t122.5 122.5t46 170.5v601h86v-1000h-86v165q-55 -86 -146.5 -138.5t-200.5 -52.5q-115 0 -209.5 56t-150.5 150.5t-56 209.5zM509 1088q-91 0 -166.5 45t-120.5 120.5t-45 166.5h73
q0 -73 36.5 -131.5t95.5 -93t127 -34.5q71 0 130 35t94 94t35 130h73q0 -94 -46 -169t-121.5 -119t-164.5 -44z" />
    <glyph glyph-name="Uring" unicode="&#x16e;" horiz-adv-x="1308" 
d="M654 -26q-168 0 -287.5 82t-183 220.5t-63.5 307.5v816h86v-816q0 -143 51.5 -262t152 -190.5t244.5 -71.5q147 0 246.5 72.5t150.5 191.5t51 260v816h86v-816q0 -127 -36 -237.5t-104.5 -194.5t-168 -131t-225.5 -47zM654 1508q-60 0 -102.5 43.5t-42.5 103.5
q0 39 19.5 72t52.5 53t73 20q59 0 101.5 -43t42.5 -102q0 -61 -42.5 -104t-101.5 -43zM654 1566q36 0 61.5 26t25.5 63q0 35 -25.5 60t-61.5 25t-61.5 -25t-25.5 -60q0 -37 25.5 -63t61.5 -26z" />
    <glyph glyph-name="uring" unicode="&#x16f;" horiz-adv-x="1009" 
d="M80 390v610h86v-601q0 -94 45.5 -170.5t122.5 -122.5t171 -46q93 0 169.5 46t122.5 122.5t46 170.5v601h86v-1000h-86v165q-55 -86 -146.5 -138.5t-200.5 -52.5q-115 0 -209.5 56t-150.5 150.5t-56 209.5zM509 1108q-60 0 -102.5 43.5t-42.5 103.5q0 39 19.5 72t52.5 53
t73 20q59 0 101.5 -43t42.5 -102q0 -61 -42.5 -104t-101.5 -43zM509 1166q36 0 61.5 26t25.5 63q0 35 -25.5 60t-61.5 25t-61.5 -25t-25.5 -60q0 -37 25.5 -63t61.5 -26z" />
    <glyph glyph-name="Uhungarumlaut" unicode="&#x170;" horiz-adv-x="1308" 
d="M654 -26q-168 0 -287.5 82t-183 220.5t-63.5 307.5v816h86v-816q0 -143 51.5 -262t152 -190.5t244.5 -71.5q147 0 246.5 72.5t150.5 191.5t51 260v816h86v-816q0 -127 -36 -237.5t-104.5 -194.5t-168 -131t-225.5 -47zM765 1510l80 288h86l-108 -288h-58zM523 1510
l80 288h86l-108 -288h-58z" />
    <glyph glyph-name="uhungarumlaut" unicode="&#x171;" horiz-adv-x="1009" 
d="M80 390v610h86v-601q0 -94 45.5 -170.5t122.5 -122.5t171 -46q93 0 169.5 46t122.5 122.5t46 170.5v601h86v-1000h-86v165q-55 -86 -146.5 -138.5t-200.5 -52.5q-115 0 -209.5 56t-150.5 150.5t-56 209.5zM620 1110l80 288h86l-108 -288h-58zM378 1110l80 288h86
l-108 -288h-58z" />
    <glyph glyph-name="Uogonek" unicode="&#x172;" horiz-adv-x="1308" 
d="M654 -26q-168 0 -287.5 82t-183 220.5t-63.5 307.5v816h86v-816q0 -143 51.5 -262t152 -190.5t244.5 -71.5q147 0 246.5 72.5t150.5 191.5t51 260v816h86v-816q0 -127 -36 -237.5t-104.5 -194.5t-168 -131t-225.5 -47zM639 -396q-46 1 -80.5 23.5t-53.5 58t-19 75.5
q0 29 11 57.5t35 52.5l168 168l53 -53q-65 -65 -103.5 -103t-56.5 -59t-24 -34.5t-6 -30.5q0 -30 21 -54.5t58 -26.5q38 0 72.5 28t34.5 78h73q0 -52 -25 -92.5t-66.5 -64t-91.5 -23.5z" />
    <glyph glyph-name="uogonek" unicode="&#x173;" horiz-adv-x="1009" 
d="M80 390v610h86v-601q0 -94 45.5 -170.5t122.5 -122.5t171 -46q93 0 169.5 46t122.5 122.5t46 170.5v601h86v-1000h-86v165q-55 -86 -146.5 -138.5t-200.5 -52.5q-115 0 -209.5 56t-150.5 150.5t-56 209.5zM815 -382q-46 1 -80.5 23.5t-53.5 58t-19 75.5q0 29 11 57.5
t35 52.5l168 168l53 -53q-65 -65 -103.5 -103t-56.5 -59t-24 -34.5t-6 -30.5q0 -30 21 -54.5t58 -26.5q38 0 72.5 28t34.5 78h73q0 -52 -25 -92.5t-66.5 -64t-91.5 -23.5z" />
    <glyph glyph-name="Wcircumflex" unicode="&#x174;" horiz-adv-x="1596" 
d="M387 0l-358 1400h88l323 -1264l322 1264h72l323 -1264l322 1264h88l-356 -1400h-108l-305 1193l-305 -1193h-106zM845 1798l192 -288h-58l-180 208l-178 -208h-58l191 288h91z" />
    <glyph glyph-name="wcircumflex" unicode="&#x175;" horiz-adv-x="1584" 
d="M488 0h-92l-336 1000h84l300 -888l298 888h100l298 -888l298 888h86l-336 -1000h-94l-304 899zM838 1398l192 -288h-58l-180 208l-178 -208h-58l191 288h91z" />
    <glyph glyph-name="Ycircumflex" unicode="&#x176;" horiz-adv-x="1139" 
d="M978 1400h101l-467 -765v-635h-86v635l-466 765h101l408 -670zM615 1798l192 -288h-58l-180 208l-178 -208h-58l191 288h91z" />
    <glyph glyph-name="ycircumflex" unicode="&#x177;" horiz-adv-x="974" 
d="M804 1000h90l-546 -1500h-92l182 500l-358 1000h94l307 -881zM533 1398l192 -288h-58l-180 208l-178 -208h-58l191 288h91z" />
    <glyph glyph-name="Ydieresis" unicode="&#x178;" horiz-adv-x="1139" 
d="M978 1400h101l-467 -765v-635h-86v635l-466 765h101l408 -670zM434 1486q-23 0 -41 16t-18 40q0 23 18 40t41 17t40 -17t17 -40q0 -24 -17 -40t-40 -16zM707 1486q-24 0 -42 16t-18 40q0 23 18 40t42 17q22 0 39.5 -17t17.5 -40q0 -24 -17.5 -40t-39.5 -16z" />
    <glyph glyph-name="Zacute" unicode="&#x179;" horiz-adv-x="1292" 
d="M80 0v86l1019 1228h-1019v86h1132v-86l-1019 -1228h1019v-86h-1132zM628 1510l80 288h86l-108 -288h-58z" />
    <glyph glyph-name="zacute" unicode="&#x17a;" horiz-adv-x="1014" 
d="M934 914l-736 -828h736v-86h-854v86l736 828h-736v86h854v-86zM489 1110l80 288h86l-108 -288h-58z" />
    <glyph glyph-name="Zdotaccent" unicode="&#x17b;" horiz-adv-x="1292" 
d="M80 0v86l1019 1228h-1019v86h1132v-86l-1019 -1228h1019v-86h-1132zM647 1599q-23 0 -40 15.5t-17 39.5q0 25 17 40t40 15t39.5 -15t16.5 -39q0 -25 -16 -40.5t-40 -15.5z" />
    <glyph glyph-name="zdotaccent" unicode="&#x17c;" horiz-adv-x="1014" 
d="M934 914l-736 -828h736v-86h-854v86l736 828h-736v86h854v-86zM508 1199q-23 0 -40 15.5t-17 39.5q0 25 17 40t40 15t39.5 -15t16.5 -39q0 -25 -16 -40.5t-40 -15.5z" />
    <glyph glyph-name="Zcaron" unicode="&#x17d;" horiz-adv-x="1292" 
d="M80 0v86l1019 1228h-1019v86h1132v-86l-1019 -1228h1019v-86h-1132zM600 1510l-192 288h57l181 -208l178 208h58l-191 -288h-91z" />
    <glyph glyph-name="zcaron" unicode="&#x17e;" horiz-adv-x="1014" 
d="M934 914l-736 -828h736v-86h-854v86l736 828h-736v86h854v-86zM461 1110l-192 288h57l181 -208l178 208h58l-191 -288h-91z" />
    <glyph glyph-name="uni01CD" unicode="&#x1cd;" horiz-adv-x="1298" 
d="M590 1400h118l510 -1400h-91l-119 327h-717l-119 -327h-92zM322 413h654l-327 897zM603 1510l-192 288h57l181 -208l178 208h58l-191 -288h-91z" />
    <glyph glyph-name="uni01CE" unicode="&#x1ce;" horiz-adv-x="1143" 
d="M977 1000h86v-1000h-86l-2 218q-52 -109 -151 -176.5t-237 -67.5q-109 0 -204.5 41t-168 114t-113.5 168t-41 205q0 109 41 204.5t113 167.5t167 113t203 41q140 0 240 -67.5t155 -177.5zM586 59q122 0 208 59.5t131.5 160t45.5 221.5q0 124 -46 224.5t-132.5 159.5
t-206.5 59q-121 0 -221 -59.5t-159 -160.5t-59 -223q0 -124 61 -224t160.5 -158.5t217.5 -58.5zM540 1110l-192 288h57l181 -208l178 208h58l-191 -288h-91z" />
    <glyph glyph-name="uni01CF" unicode="&#x1cf;" horiz-adv-x="386" 
d="M150 0v1400h86v-1400h-86zM147 1510l-192 288h57l181 -208l178 208h58l-191 -288h-91z" />
    <glyph glyph-name="uni01D0" unicode="&#x1d0;" 
d="M120 1000h86v-1000h-86v1000zM117 1110l-192 288h57l181 -208l178 208h58l-191 -288h-91z" />
    <glyph glyph-name="uni01D1" unicode="&#x1d1;" horiz-adv-x="1540" 
d="M770 -26q-142 0 -267 56.5t-220 156.5t-149 231.5t-54 281.5t54 281.5t149 231.5t220 156.5t267 56.5q143 0 268 -56.5t220 -156.5t148.5 -231.5t53.5 -281.5t-53.5 -281.5t-148.5 -231.5t-220 -156.5t-268 -56.5zM770 60q126 0 236 51t192.5 139.5t129 204t46.5 245.5
q0 131 -47 247t-130 204.5t-192.5 138.5t-234.5 50q-126 0 -236 -51t-192.5 -139.5t-129 -204t-46.5 -245.5q0 -132 47 -247.5t130 -204t192.5 -138.5t234.5 -50zM724 1510l-192 288h57l181 -208l178 208h58l-191 -288h-91z" />
    <glyph glyph-name="uni01D2" unicode="&#x1d2;" horiz-adv-x="1120" 
d="M560 -26q-138 0 -251.5 71t-181 190.5t-67.5 264.5q0 110 39 205.5t107.5 168t159.5 113.5t194 41q138 0 251.5 -71t181 -191t67.5 -266q0 -109 -39 -204t-107.5 -167.5t-159 -113.5t-194.5 -41zM560 60q117 0 210.5 61t148.5 161t55 218q0 119 -55 219.5t-148.5 161.5
t-210.5 61q-118 0 -211.5 -61t-148 -161.5t-54.5 -219.5q0 -123 56.5 -222.5t150.5 -158.5t207 -59zM514 1110l-192 288h57l181 -208l178 208h58l-191 -288h-91z" />
    <glyph glyph-name="uni01D3" unicode="&#x1d3;" horiz-adv-x="1308" 
d="M654 -26q-168 0 -287.5 82t-183 220.5t-63.5 307.5v816h86v-816q0 -143 51.5 -262t152 -190.5t244.5 -71.5q147 0 246.5 72.5t150.5 191.5t51 260v816h86v-816q0 -127 -36 -237.5t-104.5 -194.5t-168 -131t-225.5 -47zM608 1510l-192 288h57l181 -208l178 208h58
l-191 -288h-91z" />
    <glyph glyph-name="uni01D4" unicode="&#x1d4;" horiz-adv-x="1009" 
d="M80 390v610h86v-601q0 -94 45.5 -170.5t122.5 -122.5t171 -46q93 0 169.5 46t122.5 122.5t46 170.5v601h86v-1000h-86v165q-55 -86 -146.5 -138.5t-200.5 -52.5q-115 0 -209.5 56t-150.5 150.5t-56 209.5zM462 1110l-192 288h57l181 -208l178 208h58l-191 -288h-91z" />
    <glyph glyph-name="uni01D5" unicode="&#x1d5;" horiz-adv-x="1308" 
d="M654 -26q-168 0 -287.5 82t-183 220.5t-63.5 307.5v816h86v-816q0 -143 51.5 -262t152 -190.5t244.5 -71.5q147 0 246.5 72.5t150.5 191.5t51 260v816h86v-816q0 -127 -36 -237.5t-104.5 -194.5t-168 -131t-225.5 -47zM519 1486q-23 0 -41 16t-18 40q0 23 18 40t41 17
t40 -17t17 -40q0 -24 -17 -40t-40 -16zM792 1486q-24 0 -42 16t-18 40q0 23 18 40t42 17q22 0 39.5 -17t17.5 -40q0 -24 -17.5 -40t-39.5 -16zM316 1838h676v-78h-676v78z" />
    <glyph glyph-name="uni01D6" unicode="&#x1d6;" horiz-adv-x="1009" 
d="M80 390v610h86v-601q0 -94 45.5 -170.5t122.5 -122.5t171 -46q93 0 169.5 46t122.5 122.5t46 170.5v601h86v-1000h-86v165q-55 -86 -146.5 -138.5t-200.5 -52.5q-115 0 -209.5 56t-150.5 150.5t-56 209.5zM373 1086q-23 0 -41 16t-18 40q0 23 18 40t41 17t40 -17t17 -40
q0 -24 -17 -40t-40 -16zM646 1086q-24 0 -42 16t-18 40q0 23 18 40t42 17q22 0 39.5 -17t17.5 -40q0 -24 -17.5 -40t-39.5 -16zM171 1439h676v-78h-676v78z" />
    <glyph glyph-name="uni01D7" unicode="&#x1d7;" horiz-adv-x="1308" 
d="M654 -26q-168 0 -287.5 82t-183 220.5t-63.5 307.5v816h86v-816q0 -143 51.5 -262t152 -190.5t244.5 -71.5q147 0 246.5 72.5t150.5 191.5t51 260v816h86v-816q0 -127 -36 -237.5t-104.5 -194.5t-168 -131t-225.5 -47zM519 1486q-23 0 -41 16t-18 40q0 23 18 40t41 17
t40 -17t17 -40q0 -24 -17 -40t-40 -16zM792 1486q-24 0 -42 16t-18 40q0 23 18 40t42 17q22 0 39.5 -17t17.5 -40q0 -24 -17.5 -40t-39.5 -16zM636 1687l80 288h86l-108 -288h-58z" />
    <glyph glyph-name="uni01D8" unicode="&#x1d8;" horiz-adv-x="1009" 
d="M80 390v610h86v-601q0 -94 45.5 -170.5t122.5 -122.5t171 -46q93 0 169.5 46t122.5 122.5t46 170.5v601h86v-1000h-86v165q-55 -86 -146.5 -138.5t-200.5 -52.5q-115 0 -209.5 56t-150.5 150.5t-56 209.5zM373 1086q-23 0 -41 16t-18 40q0 23 18 40t41 17t40 -17t17 -40
q0 -24 -17 -40t-40 -16zM646 1086q-24 0 -42 16t-18 40q0 23 18 40t42 17q22 0 39.5 -17t17.5 -40q0 -24 -17.5 -40t-39.5 -16zM491 1288l80 288h86l-108 -288h-58z" />
    <glyph glyph-name="uni01D9" unicode="&#x1d9;" horiz-adv-x="1308" 
d="M654 -26q-168 0 -287.5 82t-183 220.5t-63.5 307.5v816h86v-816q0 -143 51.5 -262t152 -190.5t244.5 -71.5q147 0 246.5 72.5t150.5 191.5t51 260v816h86v-816q0 -127 -36 -237.5t-104.5 -194.5t-168 -131t-225.5 -47zM519 1486q-23 0 -41 16t-18 40q0 23 18 40t41 17
t40 -17t17 -40q0 -24 -17 -40t-40 -16zM792 1486q-24 0 -42 16t-18 40q0 23 18 40t42 17q22 0 39.5 -17t17.5 -40q0 -24 -17.5 -40t-39.5 -16zM608 1687l-192 288h57l181 -208l178 208h58l-191 -288h-91z" />
    <glyph glyph-name="uni01DA" unicode="&#x1da;" horiz-adv-x="1009" 
d="M80 390v610h86v-601q0 -94 45.5 -170.5t122.5 -122.5t171 -46q93 0 169.5 46t122.5 122.5t46 170.5v601h86v-1000h-86v165q-55 -86 -146.5 -138.5t-200.5 -52.5q-115 0 -209.5 56t-150.5 150.5t-56 209.5zM373 1086q-23 0 -41 16t-18 40q0 23 18 40t41 17t40 -17t17 -40
q0 -24 -17 -40t-40 -16zM646 1086q-24 0 -42 16t-18 40q0 23 18 40t42 17q22 0 39.5 -17t17.5 -40q0 -24 -17.5 -40t-39.5 -16zM462 1288l-192 288h57l181 -208l178 208h58l-191 -288h-91z" />
    <glyph glyph-name="uni01DB" unicode="&#x1db;" horiz-adv-x="1308" 
d="M654 -26q-168 0 -287.5 82t-183 220.5t-63.5 307.5v816h86v-816q0 -143 51.5 -262t152 -190.5t244.5 -71.5q147 0 246.5 72.5t150.5 191.5t51 260v816h86v-816q0 -127 -36 -237.5t-104.5 -194.5t-168 -131t-225.5 -47zM519 1486q-23 0 -41 16t-18 40q0 23 18 40t41 17
t40 -17t17 -40q0 -24 -17 -40t-40 -16zM792 1486q-24 0 -42 16t-18 40q0 23 18 40t42 17q22 0 39.5 -17t17.5 -40q0 -24 -17.5 -40t-39.5 -16zM497 1975h86l80 -288h-57z" />
    <glyph glyph-name="uni01DC" unicode="&#x1dc;" horiz-adv-x="1009" 
d="M80 390v610h86v-601q0 -94 45.5 -170.5t122.5 -122.5t171 -46q93 0 169.5 46t122.5 122.5t46 170.5v601h86v-1000h-86v165q-55 -86 -146.5 -138.5t-200.5 -52.5q-115 0 -209.5 56t-150.5 150.5t-56 209.5zM373 1086q-23 0 -41 16t-18 40q0 23 18 40t41 17t40 -17t17 -40
q0 -24 -17 -40t-40 -16zM646 1086q-24 0 -42 16t-18 40q0 23 18 40t42 17q22 0 39.5 -17t17.5 -40q0 -24 -17.5 -40t-39.5 -16zM352 1576h86l80 -288h-57z" />
    <glyph glyph-name="uni01DE" unicode="&#x1de;" horiz-adv-x="1298" 
d="M590 1400h118l510 -1400h-91l-119 327h-717l-119 -327h-92zM322 413h654l-327 897zM514 1486q-23 0 -41 16t-18 40q0 23 18 40t41 17t40 -17t17 -40q0 -24 -17 -40t-40 -16zM787 1486q-24 0 -42 16t-18 40q0 23 18 40t42 17q22 0 39.5 -17t17.5 -40q0 -24 -17.5 -40
t-39.5 -16zM311 1838h676v-78h-676v78z" />
    <glyph glyph-name="uni01DF" unicode="&#x1df;" horiz-adv-x="1143" 
d="M977 1000h86v-1000h-86l-2 218q-52 -109 -151 -176.5t-237 -67.5q-109 0 -204.5 41t-168 114t-113.5 168t-41 205q0 109 41 204.5t113 167.5t167 113t203 41q140 0 240 -67.5t155 -177.5zM586 59q122 0 208 59.5t131.5 160t45.5 221.5q0 124 -46 224.5t-132.5 159.5
t-206.5 59q-121 0 -221 -59.5t-159 -160.5t-59 -223q0 -124 61 -224t160.5 -158.5t217.5 -58.5zM451 1086q-23 0 -41 16t-18 40q0 23 18 40t41 17t40 -17t17 -40q0 -24 -17 -40t-40 -16zM724 1086q-24 0 -42 16t-18 40q0 23 18 40t42 17q22 0 39.5 -17t17.5 -40
q0 -24 -17.5 -40t-39.5 -16zM249 1438h676v-78h-676v78z" />
    <glyph glyph-name="uni01E2" unicode="&#x1e2;" horiz-adv-x="1589" 
d="M80 0l510 1400h899v-86h-613v-571h517v-86h-517v-571h613v-86h-699v327h-499l-119 -327h-92zM322 413h468v901h-138zM701 1661h676v-78h-676v78z" />
    <glyph glyph-name="uni01E3" unicode="&#x1e3;" horiz-adv-x="1803" 
d="M321 -24q-84 0 -149.5 34.5t-103.5 98t-38 146.5q0 77 34 141.5t97.5 104.5t152.5 40h431q2 109 -43.5 200t-131.5 146t-204 55q-74 0 -144 -29l-46 74q47 21 94.5 31t94.5 10q146 0 262 -81.5t175 -213.5q39 88 106 154t153.5 103.5t184.5 37.5q108 0 199 -41.5
t158 -117t103.5 -179t36.5 -227.5h-909q11 -116 68 -207t146.5 -143.5t197.5 -52.5q119 0 214 63t151 173l87 -20q-60 -133 -181 -217.5t-271 -84.5q-104 0 -195.5 42t-159.5 116t-105 170q-40 -97 -110.5 -170.5t-161 -114.5t-193.5 -41zM321 57q132 0 233 73.5t149 182.5
q32 71 40 151h-429q-93 0 -147.5 -59.5t-54.5 -146.5q0 -79 53 -140t156 -61zM833 540h823q-5 109 -61.5 201.5t-147.5 148.5t-201 56q-111 0 -201.5 -54.5t-146.5 -147t-65 -204.5zM464 1261h676v-78h-676v78z" />
    <glyph glyph-name="Gcaron" unicode="&#x1e6;" horiz-adv-x="1536" 
d="M770 -26q-144 0 -269 56.5t-219.5 156.5t-148 231.5t-53.5 281.5q0 151 54 283t149.5 231.5t220 155.5t266.5 56q166 0 310 -77.5t240 -210.5l-77 -43q-87 117 -212.5 181t-260.5 64q-126 0 -235.5 -50.5t-192.5 -139.5t-129.5 -204.5t-46.5 -245.5q0 -131 47 -247
t130 -204.5t193 -138.5t234 -50q111 0 209 39.5t176 109.5t130.5 163t71.5 199h-441v82h540q-7 -141 -63.5 -264t-150.5 -216t-215 -146t-257 -53zM724 1510l-192 288h57l181 -208l178 208h58l-191 -288h-91z" />
    <glyph glyph-name="gcaron" unicode="&#x1e7;" horiz-adv-x="1149" 
d="M943 1000h86v-1046q0 -90 -40.5 -171.5t-108 -145.5t-153 -100.5t-177.5 -36.5q-104 0 -200.5 49.5t-166.5 131t-95 178.5l79 37q18 -85 77 -155.5t140.5 -112.5t165.5 -42q74 0 144.5 30.5t126.5 82t89 117.5t33 138v262q-54 -108 -152 -175t-228 -67q-104 0 -195.5 41
t-160.5 113.5t-108 167.5t-39 204q0 110 39 205.5t108 168t160.5 113.5t195.5 41q130 0 228 -67t152 -176v215zM563 59q118 0 202 61.5t129 162t45 217.5q0 120 -45.5 221t-130 161.5t-200.5 60.5t-210.5 -59.5t-150 -160.5t-55.5 -223q0 -123 56.5 -223t151.5 -159t208 -59
zM528 1110l-192 288h57l181 -208l178 208h58l-191 -288h-91z" />
    <glyph glyph-name="uni01E8" unicode="&#x1e8;" horiz-adv-x="1011" 
d="M955 0h-110l-494 670l-145 -175v-495h-86v1400h86v-770l646 770h112l-556 -662zM459 1510l-192 288h57l181 -208l178 208h58l-191 -288h-91z" />
    <glyph glyph-name="uni01E9" unicode="&#x1e9;" horiz-adv-x="936" 
d="M842 0h-98l-307 530l-231 -277v-253h-86v1500h86v-1112l514 612h112l-337 -400zM444 1510l-192 288h57l181 -208l178 208h58l-191 -288h-91z" />
    <glyph glyph-name="uni0218" unicode="&#x218;" horiz-adv-x="1205" 
d="M602 -26q-110 0 -213.5 34t-180.5 97t-108 151l80 31q26 -74 93 -124.5t154 -76.5t175 -26q107 0 200 36.5t150.5 103.5t57.5 157q0 92 -59.5 150.5t-153 93t-195.5 52.5q-141 26 -252.5 66.5t-176 115t-64.5 201.5q0 117 68.5 203t181 133t243.5 47q105 0 208 -32.5
t181.5 -96t113.5 -155.5l-82 -29q-26 74 -92.5 124.5t-153.5 76.5t-175 26q-108 0 -200.5 -37t-149.5 -104t-57 -156q0 -102 53.5 -158t145 -84.5t208.5 -50.5q130 -24 242.5 -70.5t182 -124t69.5 -191.5q0 -117 -69 -203t-181.5 -133t-243.5 -47zM564 -441l62 338h86
l-91 -338h-57z" />
    <glyph glyph-name="uni0219" unicode="&#x219;" horiz-adv-x="854" 
d="M436 -20q-84 1 -164.5 29.5t-140 77.5t-81.5 109l77 33q18 -49 69.5 -87t117.5 -59.5t126 -21.5q73 0 136 25t102.5 70.5t39.5 105.5q0 64 -41.5 101t-105.5 60t-133 44q-112 33 -192.5 66t-123.5 83t-43 134q0 87 51 150.5t133.5 98.5t176.5 35q124 0 224.5 -54.5
t139.5 -142.5l-72 -42q-20 49 -66 84t-105 54.5t-118 19.5q-74 0 -138 -24t-103.5 -69.5t-39.5 -108.5q0 -65 35 -98.5t98.5 -55t150.5 -49.5q93 -29 174 -63.5t131 -86.5t50 -135q0 -87 -51.5 -151t-135 -98.5t-178.5 -33.5zM384 -441l62 338h86l-91 -338h-57z" />
    <glyph glyph-name="uni021A" unicode="&#x21a;" horiz-adv-x="1259" 
d="M1178 1400v-86h-507v-1314h-86v1314h-505v86h1098zM523 -441l62 338h86l-91 -338h-57z" />
    <glyph glyph-name="uni021B" unicode="&#x21b;" horiz-adv-x="677" 
d="M618 914h-262l-2 -914h-86l2 914h-198v86h198l-2 314h86l2 -314h262v-86zM206 -441l62 338h86l-91 -338h-57z" />
    <glyph glyph-name="uni022A" unicode="&#x22a;" horiz-adv-x="1540" 
d="M770 -26q-142 0 -267 56.5t-220 156.5t-149 231.5t-54 281.5t54 281.5t149 231.5t220 156.5t267 56.5q143 0 268 -56.5t220 -156.5t148.5 -231.5t53.5 -281.5t-53.5 -281.5t-148.5 -231.5t-220 -156.5t-268 -56.5zM770 60q126 0 236 51t192.5 139.5t129 204t46.5 245.5
q0 131 -47 247t-130 204.5t-192.5 138.5t-234.5 50q-126 0 -236 -51t-192.5 -139.5t-129 -204t-46.5 -245.5q0 -132 47 -247.5t130 -204t192.5 -138.5t234.5 -50zM635 1486q-23 0 -41 16t-18 40q0 23 18 40t41 17t40 -17t17 -40q0 -24 -17 -40t-40 -16zM908 1486
q-24 0 -42 16t-18 40q0 23 18 40t42 17q22 0 39.5 -17t17.5 -40q0 -24 -17.5 -40t-39.5 -16zM432 1838h676v-78h-676v78z" />
    <glyph glyph-name="uni022B" unicode="&#x22b;" horiz-adv-x="1120" 
d="M560 -26q-138 0 -251.5 71t-181 190.5t-67.5 264.5q0 110 39 205.5t107.5 168t159.5 113.5t194 41q138 0 251.5 -71t181 -191t67.5 -266q0 -109 -39 -204t-107.5 -167.5t-159 -113.5t-194.5 -41zM560 60q117 0 210.5 61t148.5 161t55 218q0 119 -55 219.5t-148.5 161.5
t-210.5 61q-118 0 -211.5 -61t-148 -161.5t-54.5 -219.5q0 -123 56.5 -222.5t150.5 -158.5t207 -59zM425 1086q-23 0 -41 16t-18 40q0 23 18 40t41 17t40 -17t17 -40q0 -24 -17 -40t-40 -16zM698 1086q-24 0 -42 16t-18 40q0 23 18 40t42 17q22 0 39.5 -17t17.5 -40
q0 -24 -17.5 -40t-39.5 -16zM222 1438h676v-78h-676v78z" />
    <glyph glyph-name="uni0232" unicode="&#x232;" horiz-adv-x="1139" 
d="M978 1400h101l-467 -765v-635h-86v635l-466 765h101l408 -670zM231 1661h676v-78h-676v78z" />
    <glyph glyph-name="uni0233" unicode="&#x233;" horiz-adv-x="974" 
d="M804 1000h90l-546 -1500h-92l182 500l-358 1000h94l307 -881zM149 1261h676v-78h-676v78z" />
    <glyph glyph-name="uni0237" unicode="&#x237;" horiz-adv-x="417" 
d="M-80 -500v86q84 0 149.5 36.5t103.5 100t38 142.5v1135h86v-1135q0 -101 -49 -184t-134 -132t-194 -49z" />
    <glyph glyph-name="quoteleft" unicode="&#x2bb;" horiz-adv-x="248" 
d="M60 878l91 522h57l-62 -522h-86z" />
    <glyph glyph-name="quoteleft" unicode="&#x2018;" horiz-adv-x="248" 
d="M60 878l91 522h57l-62 -522h-86z" />
    <glyph glyph-name="uni02BC" unicode="&#x2bc;" horiz-adv-x="335" 
d="M40 878l62 522h86l-91 -522h-57z" />
    <glyph glyph-name="circumflex" unicode="&#x2c6;" horiz-adv-x="500" 
d="M295 1398l192 -288h-58l-180 208l-178 -208h-58l191 288h91z" />
    <glyph glyph-name="caron" unicode="&#x2c7;" horiz-adv-x="466" 
d="M188 1110l-192 288h57l181 -208l178 208h58l-191 -288h-91z" />
    <glyph glyph-name="breve" unicode="&#x2d8;" horiz-adv-x="1144" 
d="M572 1088q-91 0 -166.5 45t-120.5 120.5t-45 166.5h73q0 -73 36.5 -131.5t95.5 -93t127 -34.5q71 0 130 35t94 94t35 130h73q0 -94 -46 -169t-121.5 -119t-164.5 -44z" />
    <glyph glyph-name="dotaccent" unicode="&#x2d9;" horiz-adv-x="913" 
d="M457 1199q-23 0 -40 15.5t-17 39.5q0 25 17 40t40 15t39.5 -15t16.5 -39q0 -25 -16 -40.5t-40 -15.5z" />
    <glyph glyph-name="ring" unicode="&#x2da;" horiz-adv-x="1089" 
d="M545 1108q-60 0 -102.5 43.5t-42.5 103.5q0 39 19.5 72t52.5 53t73 20q59 0 101.5 -43t42.5 -102q0 -61 -42.5 -104t-101.5 -43zM545 1166q36 0 61.5 26t25.5 63q0 35 -25.5 60t-61.5 25t-61.5 -25t-25.5 -60q0 -37 25.5 -63t61.5 -26z" />
    <glyph glyph-name="ogonek" unicode="&#x2db;" horiz-adv-x="936" 
d="M453 -382q-46 1 -80.5 23.5t-53.5 58t-19 75.5q0 29 11 57.5t35 52.5l168 168l53 -53q-65 -65 -103.5 -103t-56.5 -59t-24 -34.5t-6 -30.5q0 -30 21 -54.5t58 -26.5q38 0 72.5 28t34.5 78h73q0 -52 -25 -92.5t-66.5 -64t-91.5 -23.5z" />
    <glyph glyph-name="tilde" unicode="&#x2dc;" horiz-adv-x="1168" 
d="M744 1160q-37 0 -79.5 22.5t-85.5 52t-83 51.5t-71 20q-33 -2 -54 -32.5t-11 -71.5l-70 -19q-16 46 -1 91.5t53 75.5t90 30q38 0 82.5 -22t89 -51t85 -51t69.5 -22q24 0 40 19t22 43.5t-1 40.5l69 22q16 -48 0 -94t-54 -75.5t-90 -29.5z" />
    <glyph glyph-name="hungarumlaut" unicode="&#x2dd;" horiz-adv-x="808" 
d="M442 1110l80 288h86l-108 -288h-58zM200 1110l80 288h86l-108 -288h-58z" />
    <glyph glyph-name="gravecomb" unicode="&#x300;" horiz-adv-x="0" 
d="M213 1398h86l80 -288h-57z" />
    <glyph glyph-name="acutecomb" unicode="&#x301;" horiz-adv-x="0" 
d="M230 1110l80 288h86l-108 -288h-58z" />
    <glyph glyph-name="uni0302" unicode="&#x302;" horiz-adv-x="0" 
d="M295 1398l192 -288h-58l-180 208l-178 -208h-58l191 288h91z" />
    <glyph glyph-name="tildecomb" unicode="&#x303;" horiz-adv-x="0" 
d="M762 1144q-37 0 -79.5 22.5t-85.5 52t-83 51.5t-71 20q-33 -2 -54 -32.5t-11 -71.5l-70 -19q-16 46 -1 91.5t53 75.5t90 30q38 0 82.5 -22t89 -51t85 -51t69.5 -22q24 0 40 19t22 43.5t-1 40.5l69 22q16 -48 0 -94t-54 -75.5t-90 -29.5z" />
    <glyph glyph-name="uni0304" unicode="&#x304;" horiz-adv-x="0" 
d="M262 1261h676v-78h-676v78z" />
    <glyph glyph-name="uni0306" unicode="&#x306;" horiz-adv-x="0" 
d="M572 1088q-91 0 -166.5 45t-120.5 120.5t-45 166.5h73q0 -73 36.5 -131.5t95.5 -93t127 -34.5q71 0 130 35t94 94t35 130h73q0 -94 -46 -169t-121.5 -119t-164.5 -44z" />
    <glyph glyph-name="uni0307" unicode="&#x307;" horiz-adv-x="0" 
d="M457 1199q-23 0 -40 15.5t-17 39.5q0 25 17 40t40 15t39.5 -15t16.5 -39q0 -25 -16 -40.5t-40 -15.5z" />
    <glyph glyph-name="uni0308" unicode="&#x308;" horiz-adv-x="0" 
d="M459 1086q-23 0 -41 16t-18 40q0 23 18 40t41 17t40 -17t17 -40q0 -24 -17 -40t-40 -16zM732 1086q-24 0 -42 16t-18 40q0 23 18 40t42 17q22 0 39.5 -17t17.5 -40q0 -24 -17.5 -40t-39.5 -16z" />
    <glyph glyph-name="uni030A" unicode="&#x30a;" horiz-adv-x="0" 
d="M545 1108q-60 0 -102.5 43.5t-42.5 103.5q0 39 19.5 72t52.5 53t73 20q59 0 101.5 -43t42.5 -102q0 -61 -42.5 -104t-101.5 -43zM545 1166q36 0 61.5 26t25.5 63q0 35 -25.5 60t-61.5 25t-61.5 -25t-25.5 -60q0 -37 25.5 -63t61.5 -26z" />
    <glyph glyph-name="uni030B" unicode="&#x30b;" horiz-adv-x="0" 
d="M442 1110l80 288h86l-108 -288h-58zM200 1110l80 288h86l-108 -288h-58z" />
    <glyph glyph-name="uni030C" unicode="&#x30c;" horiz-adv-x="0" 
d="M188 1110l-192 288h57l181 -208l178 208h58l-191 -288h-91z" />
    <glyph glyph-name="dotbelowcomb" unicode="&#x323;" horiz-adv-x="0" 
d="M457 -370q-23 0 -40 15.5t-17 39.5q0 25 17 40t40 15t39.5 -15t16.5 -39q0 -25 -16 -40.5t-40 -15.5z" />
    <glyph glyph-name="uni0326" unicode="&#x326;" horiz-adv-x="0" 
d="M400 -441l62 338h86l-91 -338h-57z" />
    <glyph glyph-name="uni0327" unicode="&#x327;" horiz-adv-x="0" 
d="M582 -362q-59 -17 -112.5 14t-69.5 91l68 18q8 -31 36.5 -47.5t60.5 -8.5q32 9 48.5 37t6.5 60q-8 32 -36 48.5t-61 8.5l-78 -17l114 196l60 -35l-44 -76q40 -8 71 -36.5t42 -69.5q16 -60 -15 -114t-91 -69z" />
    <glyph glyph-name="uni0328" unicode="&#x328;" horiz-adv-x="0" 
d="M453 -382q-46 1 -80.5 23.5t-53.5 58t-19 75.5q0 29 11 57.5t35 52.5l168 168l53 -53q-65 -65 -103.5 -103t-56.5 -59t-24 -34.5t-6 -30.5q0 -30 21 -54.5t58 -26.5q38 0 72.5 28t34.5 78h73q0 -52 -25 -92.5t-66.5 -64t-91.5 -23.5z" />
    <glyph glyph-name="uni03BC" unicode="&#x3bc;" horiz-adv-x="1017" 
d="M80 -432v1432h86v-543q0 -109 46.5 -199.5t124.5 -144.5t174 -54q94 0 171.5 54t123 144.5t45.5 199.5v543h86v-1000h-86v194q-59 -104 -148.5 -162t-197.5 -58q-110 0 -198.5 59t-140.5 153v-618h-86z" />
    <glyph glyph-name="uni1E04" unicode="&#x1e04;" horiz-adv-x="1085" 
d="M120 0v1400h453q98 0 178.5 -39.5t128.5 -116.5t48 -188q0 -71 -27 -132t-67.5 -101t-80.5 -48q61 -17 107.5 -55t79 -90t49 -111t16.5 -119q0 -123 -50 -212.5t-133 -138.5t-184 -49h-518zM206 81h429q79 0 144.5 42.5t104.5 116t39 167.5q0 83 -39 156.5t-104.5 119
t-144.5 45.5h-429v-647zM206 808h364q112 0 192 64t80 184q0 134 -80 198.5t-192 64.5h-364v-511zM543 -370q-23 0 -40 15.5t-17 39.5q0 25 17 40t40 15t39.5 -15t16.5 -39q0 -25 -16 -40.5t-40 -15.5z" />
    <glyph glyph-name="uni1E05" unicode="&#x1e05;" horiz-adv-x="1183" 
d="M597 1028q145 0 264.5 -71t190.5 -191t71 -266q0 -109 -41 -204t-113.5 -167.5t-167.5 -113.5t-204 -41q-138 0 -238 67.5t-153 177.5v-219h-86v1500h86v-717q53 110 153 177.5t238 67.5zM597 59q122 0 221.5 59.5t158.5 160t59 221.5q0 125 -60.5 225.5t-160.5 159
t-218 58.5q-122 0 -208 -60t-131.5 -161t-45.5 -222q0 -123 46 -223t132.5 -159t206.5 -59zM592 -370q-23 0 -40 15.5t-17 39.5q0 25 17 40t40 15t39.5 -15t16.5 -39q0 -25 -16 -40.5t-40 -15.5z" />
    <glyph glyph-name="uni1E0C" unicode="&#x1e0c;" horiz-adv-x="1343" 
d="M120 0v1400h462q146 0 272.5 -54.5t223 -151t150.5 -223t54 -271.5t-54 -271.5t-150.5 -223t-223 -151t-272.5 -54.5h-462zM206 86h376q128 0 239.5 47.5t195.5 132t131.5 196t47.5 238.5t-47.5 238.5t-132 196t-195.5 132t-239 47.5h-376v-1228zM670 -370
q-23 0 -40 15.5t-17 39.5q0 25 17 40t40 15t39.5 -15t16.5 -39q0 -25 -16 -40.5t-40 -15.5z" />
    <glyph glyph-name="uni1E0D" unicode="&#x1e0d;" horiz-adv-x="1183" 
d="M977 1500h86v-1500h-86v219q-53 -110 -152.5 -177.5t-238.5 -67.5q-109 0 -204 41t-167.5 113.5t-113.5 167.5t-41 204q0 110 41 205.5t113.5 168t167.5 113.5t204 41q139 0 238.5 -67.5t152.5 -177.5v717zM586 59q122 0 208 59.5t131.5 160t45.5 221.5q0 124 -46 224.5
t-132.5 159.5t-206.5 59q-121 0 -220.5 -59.5t-159 -160.5t-59.5 -223q0 -124 61 -224t160.5 -158.5t217.5 -58.5zM605 -370q-23 0 -40 15.5t-17 39.5q0 25 17 40t40 15t39.5 -15t16.5 -39q0 -25 -16 -40.5t-40 -15.5z" />
    <glyph glyph-name="uni1E20" unicode="&#x1e20;" horiz-adv-x="1536" 
d="M770 -26q-144 0 -269 56.5t-219.5 156.5t-148 231.5t-53.5 281.5q0 151 54 283t149.5 231.5t220 155.5t266.5 56q166 0 310 -77.5t240 -210.5l-77 -43q-87 117 -212.5 181t-260.5 64q-126 0 -235.5 -50.5t-192.5 -139.5t-129.5 -204.5t-46.5 -245.5q0 -131 47 -247
t130 -204.5t193 -138.5t234 -50q111 0 209 39.5t176 109.5t130.5 163t71.5 199h-441v82h540q-7 -141 -63.5 -264t-150.5 -216t-215 -146t-257 -53zM432 1661h676v-78h-676v78z" />
    <glyph glyph-name="uni1E21" unicode="&#x1e21;" horiz-adv-x="1149" 
d="M943 1000h86v-1046q0 -90 -40.5 -171.5t-108 -145.5t-153 -100.5t-177.5 -36.5q-104 0 -200.5 49.5t-166.5 131t-95 178.5l79 37q18 -85 77 -155.5t140.5 -112.5t165.5 -42q74 0 144.5 30.5t126.5 82t89 117.5t33 138v262q-54 -108 -152 -175t-228 -67q-104 0 -195.5 41
t-160.5 113.5t-108 167.5t-39 204q0 110 39 205.5t108 168t160.5 113.5t195.5 41q130 0 228 -67t152 -176v215zM563 59q118 0 202 61.5t129 162t45 217.5q0 120 -45.5 221t-130 161.5t-200.5 60.5t-210.5 -59.5t-150 -160.5t-55.5 -223q0 -123 56.5 -223t151.5 -159t208 -59
zM237 1261h676v-78h-676v78z" />
    <glyph glyph-name="uni1E24" unicode="&#x1e24;" horiz-adv-x="1227" 
d="M1021 1400h86v-1400h-86v707h-815v-707h-86v1400h86v-607h815v607zM614 -370q-23 0 -40 15.5t-17 39.5q0 25 17 40t40 15t39.5 -15t16.5 -39q0 -25 -16 -40.5t-40 -15.5z" />
    <glyph glyph-name="uni1E25" unicode="&#x1e25;" horiz-adv-x="1049" 
d="M969 612v-612h-86v603q0 94 -45.5 170.5t-122.5 122.5t-170 46q-94 0 -171 -46t-122.5 -122.5t-45.5 -170.5v-603h-86v1500h86v-663q54 87 146 139t201 52q115 0 209.5 -56t150.5 -150.5t56 -209.5zM549 -370q-23 0 -40 15.5t-17 39.5q0 25 17 40t40 15t39.5 -15
t16.5 -39q0 -25 -16 -40.5t-40 -15.5z" />
    <glyph glyph-name="uni1E2E" unicode="&#x1e2e;" horiz-adv-x="386" 
d="M150 0v1400h86v-1400h-86zM58 1486q-23 0 -41 16t-18 40q0 23 18 40t41 17t40 -17t17 -40q0 -24 -17 -40t-40 -16zM331 1486q-24 0 -42 16t-18 40q0 23 18 40t42 17q22 0 39.5 -17t17.5 -40q0 -24 -17.5 -40t-39.5 -16zM175 1687l80 288h86l-108 -288h-58z" />
    <glyph glyph-name="uni1E2F" unicode="&#x1e2f;" 
d="M120 1000h86v-1000h-86v1000zM28 1086q-23 0 -41 16t-18 40q0 23 18 40t41 17t40 -17t17 -40q0 -24 -17 -40t-40 -16zM301 1086q-24 0 -42 16t-18 40q0 23 18 40t42 17q22 0 39.5 -17t17.5 -40q0 -24 -17.5 -40t-39.5 -16zM145 1287l80 288h86l-108 -288h-58z" />
    <glyph glyph-name="uni1E36" unicode="&#x1e36;" horiz-adv-x="981" 
d="M120 0v1400h86v-1314h675v-86h-761zM501 -370q-23 0 -40 15.5t-17 39.5q0 25 17 40t40 15t39.5 -15t16.5 -39q0 -25 -16 -40.5t-40 -15.5z" />
    <glyph glyph-name="uni1E37" unicode="&#x1e37;" 
d="M120 0v1500h86v-1500h-86zM164 -370q-23 0 -40 15.5t-17 39.5q0 25 17 40t40 15t39.5 -15t16.5 -39q0 -25 -16 -40.5t-40 -15.5z" />
    <glyph glyph-name="uni1E3E" unicode="&#x1e3e;" horiz-adv-x="1717" 
d="M120 0l270 1400h51l418 -1099l415 1099h51l272 -1400h-88l-228 1177l-399 -1054h-49l-398 1054l-228 -1177h-87zM841 1510l80 288h86l-108 -288h-58z" />
    <glyph glyph-name="uni1E3F" unicode="&#x1e3f;" horiz-adv-x="1777" 
d="M120 0v1000h86v-163q55 87 146.5 139t200.5 52q118 0 215 -59t150 -156q53 97 149.5 156t213.5 59q115 0 209.5 -56t150.5 -150.5t56 -209.5v-612h-86v599q0 92 -44.5 170t-119 125.5t-166.5 47.5q-90 0 -165 -44t-119.5 -121t-44.5 -178v-599h-86v599q0 101 -44.5 178
t-119.5 121t-166 44t-166 -47.5t-119.5 -125.5t-44.5 -170v-599h-86zM900 1110l80 288h86l-108 -288h-58z" />
    <glyph glyph-name="uni1E40" unicode="&#x1e40;" horiz-adv-x="1717" 
d="M120 0l270 1400h51l418 -1099l415 1099h51l272 -1400h-88l-228 1177l-399 -1054h-49l-398 1054l-228 -1177h-87zM859 1599q-23 0 -40 15.5t-17 39.5q0 25 17 40t40 15t39.5 -15t16.5 -39q0 -25 -16 -40.5t-40 -15.5z" />
    <glyph glyph-name="uni1E41" unicode="&#x1e41;" horiz-adv-x="1777" 
d="M120 0v1000h86v-163q55 87 146.5 139t200.5 52q118 0 215 -59t150 -156q53 97 149.5 156t213.5 59q115 0 209.5 -56t150.5 -150.5t56 -209.5v-612h-86v599q0 92 -44.5 170t-119 125.5t-166.5 47.5q-90 0 -165 -44t-119.5 -121t-44.5 -178v-599h-86v599q0 101 -44.5 178
t-119.5 121t-166 44t-166 -47.5t-119.5 -125.5t-44.5 -170v-599h-86zM918 1199q-23 0 -40 15.5t-17 39.5q0 25 17 40t40 15t39.5 -15t16.5 -39q0 -25 -16 -40.5t-40 -15.5z" />
    <glyph glyph-name="uni1E42" unicode="&#x1e42;" horiz-adv-x="1717" 
d="M120 0l270 1400h51l418 -1099l415 1099h51l272 -1400h-88l-228 1177l-399 -1054h-49l-398 1054l-228 -1177h-87zM859 -370q-23 0 -40 15.5t-17 39.5q0 25 17 40t40 15t39.5 -15t16.5 -39q0 -25 -16 -40.5t-40 -15.5z" />
    <glyph glyph-name="uni1E43" unicode="&#x1e43;" horiz-adv-x="1777" 
d="M120 0v1000h86v-163q55 87 146.5 139t200.5 52q118 0 215 -59t150 -156q53 97 149.5 156t213.5 59q115 0 209.5 -56t150.5 -150.5t56 -209.5v-612h-86v599q0 92 -44.5 170t-119 125.5t-166.5 47.5q-90 0 -165 -44t-119.5 -121t-44.5 -178v-599h-86v599q0 101 -44.5 178
t-119.5 121t-166 44t-166 -47.5t-119.5 -125.5t-44.5 -170v-599h-86zM910 -370q-23 0 -40 15.5t-17 39.5q0 25 17 40t40 15t39.5 -15t16.5 -39q0 -25 -16 -40.5t-40 -15.5z" />
    <glyph glyph-name="uni1E44" unicode="&#x1e44;" horiz-adv-x="1235" 
d="M120 0v1400h94l815 -1245v1245h86v-1400h-92l-817 1245v-1245h-86zM618 1599q-23 0 -40 15.5t-17 39.5q0 25 17 40t40 15t39.5 -15t16.5 -39q0 -25 -16 -40.5t-40 -15.5z" />
    <glyph glyph-name="uni1E45" unicode="&#x1e45;" horiz-adv-x="1049" 
d="M969 612v-612h-86v603q0 94 -45.5 170.5t-122.5 122.5t-170 46q-94 0 -171 -46t-122.5 -122.5t-45.5 -170.5v-603h-86v1000h86v-163q54 87 146 139t201 52q115 0 209.5 -56t150.5 -150.5t56 -209.5zM547 1199q-23 0 -40 15.5t-17 39.5q0 25 17 40t40 15t39.5 -15
t16.5 -39q0 -25 -16 -40.5t-40 -15.5z" />
    <glyph glyph-name="uni1E46" unicode="&#x1e46;" horiz-adv-x="1235" 
d="M120 0v1400h94l815 -1245v1245h86v-1400h-92l-817 1245v-1245h-86zM618 -370q-23 0 -40 15.5t-17 39.5q0 25 17 40t40 15t39.5 -15t16.5 -39q0 -25 -16 -40.5t-40 -15.5z" />
    <glyph glyph-name="uni1E47" unicode="&#x1e47;" horiz-adv-x="1049" 
d="M969 612v-612h-86v603q0 94 -45.5 170.5t-122.5 122.5t-170 46q-94 0 -171 -46t-122.5 -122.5t-45.5 -170.5v-603h-86v1000h86v-163q54 87 146 139t201 52q115 0 209.5 -56t150.5 -150.5t56 -209.5zM545 -370q-23 0 -40 15.5t-17 39.5q0 25 17 40t40 15t39.5 -15
t16.5 -39q0 -25 -16 -40.5t-40 -15.5z" />
    <glyph glyph-name="uni1E62" unicode="&#x1e62;" horiz-adv-x="1205" 
d="M602 -26q-110 0 -213.5 34t-180.5 97t-108 151l80 31q26 -74 93 -124.5t154 -76.5t175 -26q107 0 200 36.5t150.5 103.5t57.5 157q0 92 -59.5 150.5t-153 93t-195.5 52.5q-141 26 -252.5 66.5t-176 115t-64.5 201.5q0 117 68.5 203t181 133t243.5 47q105 0 208 -32.5
t181.5 -96t113.5 -155.5l-82 -29q-26 74 -92.5 124.5t-153.5 76.5t-175 26q-108 0 -200.5 -37t-149.5 -104t-57 -156q0 -102 53.5 -158t145 -84.5t208.5 -50.5q130 -24 242.5 -70.5t182 -124t69.5 -191.5q0 -117 -69 -203t-181.5 -133t-243.5 -47zM669 -370q-23 0 -40 15.5
t-17 39.5q0 25 17 40t40 15t39.5 -15t16.5 -39q0 -25 -16 -40.5t-40 -15.5z" />
    <glyph glyph-name="uni1E63" unicode="&#x1e63;" horiz-adv-x="854" 
d="M436 -20q-84 1 -164.5 29.5t-140 77.5t-81.5 109l77 33q18 -49 69.5 -87t117.5 -59.5t126 -21.5q73 0 136 25t102.5 70.5t39.5 105.5q0 64 -41.5 101t-105.5 60t-133 44q-112 33 -192.5 66t-123.5 83t-43 134q0 87 51 150.5t133.5 98.5t176.5 35q124 0 224.5 -54.5
t139.5 -142.5l-72 -42q-20 49 -66 84t-105 54.5t-118 19.5q-74 0 -138 -24t-103.5 -69.5t-39.5 -108.5q0 -65 35 -98.5t98.5 -55t150.5 -49.5q93 -29 174 -63.5t131 -86.5t50 -135q0 -87 -51.5 -151t-135 -98.5t-178.5 -33.5zM489 -370q-23 0 -40 15.5t-17 39.5q0 25 17 40
t40 15t39.5 -15t16.5 -39q0 -25 -16 -40.5t-40 -15.5z" />
    <glyph glyph-name="uni1E6C" unicode="&#x1e6c;" horiz-adv-x="1259" 
d="M1178 1400v-86h-507v-1314h-86v1314h-505v86h1098zM629 -370q-23 0 -40 15.5t-17 39.5q0 25 17 40t40 15t39.5 -15t16.5 -39q0 -25 -16 -40.5t-40 -15.5z" />
    <glyph glyph-name="uni1E6D" unicode="&#x1e6d;" horiz-adv-x="677" 
d="M618 914h-262l-2 -914h-86l2 914h-198v86h198l-2 314h86l2 -314h262v-86zM311 -370q-23 0 -40 15.5t-17 39.5q0 25 17 40t40 15t39.5 -15t16.5 -39q0 -25 -16 -40.5t-40 -15.5z" />
    <glyph glyph-name="Wgrave" unicode="&#x1e80;" horiz-adv-x="1596" 
d="M387 0l-358 1400h88l323 -1264l322 1264h72l323 -1264l322 1264h88l-356 -1400h-108l-305 1193l-305 -1193h-106zM641 1798h86l80 -288h-57z" />
    <glyph glyph-name="wgrave" unicode="&#x1e81;" horiz-adv-x="1584" 
d="M488 0h-92l-336 1000h84l300 -888l298 888h100l298 -888l298 888h86l-336 -1000h-94l-304 899zM635 1398h86l80 -288h-57z" />
    <glyph glyph-name="Wacute" unicode="&#x1e82;" horiz-adv-x="1596" 
d="M387 0l-358 1400h88l323 -1264l322 1264h72l323 -1264l322 1264h88l-356 -1400h-108l-305 1193l-305 -1193h-106zM780 1510l80 288h86l-108 -288h-58z" />
    <glyph glyph-name="wacute" unicode="&#x1e83;" horiz-adv-x="1584" 
d="M488 0h-92l-336 1000h84l300 -888l298 888h100l298 -888l298 888h86l-336 -1000h-94l-304 899zM774 1110l80 288h86l-108 -288h-58z" />
    <glyph glyph-name="Wdieresis" unicode="&#x1e84;" horiz-adv-x="1596" 
d="M387 0l-358 1400h88l323 -1264l322 1264h72l323 -1264l322 1264h88l-356 -1400h-108l-305 1193l-305 -1193h-106zM663 1486q-23 0 -41 16t-18 40q0 23 18 40t41 17t40 -17t17 -40q0 -24 -17 -40t-40 -16zM936 1486q-24 0 -42 16t-18 40q0 23 18 40t42 17q22 0 39.5 -17
t17.5 -40q0 -24 -17.5 -40t-39.5 -16z" />
    <glyph glyph-name="wdieresis" unicode="&#x1e85;" horiz-adv-x="1584" 
d="M488 0h-92l-336 1000h84l300 -888l298 888h100l298 -888l298 888h86l-336 -1000h-94l-304 899zM657 1086q-23 0 -41 16t-18 40q0 23 18 40t41 17t40 -17t17 -40q0 -24 -17 -40t-40 -16zM930 1086q-24 0 -42 16t-18 40q0 23 18 40t42 17q22 0 39.5 -17t17.5 -40
q0 -24 -17.5 -40t-39.5 -16z" />
    <glyph glyph-name="uni1E92" unicode="&#x1e92;" horiz-adv-x="1292" 
d="M80 0v86l1019 1228h-1019v86h1132v-86l-1019 -1228h1019v-86h-1132zM647 -370q-23 0 -40 15.5t-17 39.5q0 25 17 40t40 15t39.5 -15t16.5 -39q0 -25 -16 -40.5t-40 -15.5z" />
    <glyph glyph-name="uni1E93" unicode="&#x1e93;" horiz-adv-x="1014" 
d="M934 914l-736 -828h736v-86h-854v86l736 828h-736v86h854v-86zM508 -370q-23 0 -40 15.5t-17 39.5q0 25 17 40t40 15t39.5 -15t16.5 -39q0 -25 -16 -40.5t-40 -15.5z" />
    <glyph glyph-name="uni1E97" unicode="&#x1e97;" horiz-adv-x="677" 
d="M618 914h-262l-2 -914h-86l2 914h-198v86h198l-2 314h86l2 -314h262v-86zM175 1400q-23 0 -41 16t-18 40q0 23 18 40t41 17t40 -17t17 -40q0 -24 -17 -40t-40 -16zM448 1400q-24 0 -42 16t-18 40q0 23 18 40t42 17q22 0 39.5 -17t17.5 -40q0 -24 -17.5 -40t-39.5 -16z
" />
    <glyph glyph-name="uni1E9E" unicode="&#x1e9e;" horiz-adv-x="1089" 
d="M120 0v979q0 87 32.5 162.5t90.5 133.5t134 90.5t162 32.5q96 0 177.5 -28.5t130.5 -85t49 -141.5q0 -42 -27 -89.5t-86.5 -124.5t-155.5 -207q74 8 145.5 -15t129.5 -71.5t92.5 -116.5t34.5 -150q0 -92 -37.5 -161t-100 -115t-138 -69.5t-151.5 -23.5h-71l-25 81h93
q80 0 160 30.5t134 95t54 164.5q0 98 -54.5 160.5t-135 93t-160.5 30.5h-68l-3 40q-2 21 25.5 62.5t68.5 94t82.5 107t70 103t28.5 82.5q-1 62 -39 100t-99 55.5t-133 17.5q-89 0 -163 -44.5t-117.5 -118.5t-43.5 -165v-989h-86z" />
    <glyph glyph-name="uni1EA0" unicode="&#x1ea0;" horiz-adv-x="1298" 
d="M590 1400h118l510 -1400h-91l-119 327h-717l-119 -327h-92zM322 413h654l-327 897zM650 -370q-23 0 -40 15.5t-17 39.5q0 25 17 40t40 15t39.5 -15t16.5 -39q0 -25 -16 -40.5t-40 -15.5z" />
    <glyph glyph-name="uni1EA1" unicode="&#x1ea1;" horiz-adv-x="1143" 
d="M977 1000h86v-1000h-86l-2 218q-52 -109 -151 -176.5t-237 -67.5q-109 0 -204.5 41t-168 114t-113.5 168t-41 205q0 109 41 204.5t113 167.5t167 113t203 41q140 0 240 -67.5t155 -177.5zM586 59q122 0 208 59.5t131.5 160t45.5 221.5q0 124 -46 224.5t-132.5 159.5
t-206.5 59q-121 0 -221 -59.5t-159 -160.5t-59 -223q0 -124 61 -224t160.5 -158.5t217.5 -58.5zM587 -370q-23 0 -40 15.5t-17 39.5q0 25 17 40t40 15t39.5 -15t16.5 -39q0 -25 -16 -40.5t-40 -15.5z" />
    <glyph glyph-name="uni1EAC" unicode="&#x1eac;" horiz-adv-x="1298" 
d="M590 1400h118l510 -1400h-91l-119 327h-717l-119 -327h-92zM322 413h654l-327 897zM650 -370q-23 0 -40 15.5t-17 39.5q0 25 17 40t40 15t39.5 -15t16.5 -39q0 -25 -16 -40.5t-40 -15.5zM695 1798l192 -288h-58l-180 208l-178 -208h-58l191 288h91z" />
    <glyph glyph-name="uni1EAD" unicode="&#x1ead;" horiz-adv-x="1143" 
d="M977 1000h86v-1000h-86l-2 218q-52 -109 -151 -176.5t-237 -67.5q-109 0 -204.5 41t-168 114t-113.5 168t-41 205q0 109 41 204.5t113 167.5t167 113t203 41q140 0 240 -67.5t155 -177.5zM586 59q122 0 208 59.5t131.5 160t45.5 221.5q0 124 -46 224.5t-132.5 159.5
t-206.5 59q-121 0 -221 -59.5t-159 -160.5t-59 -223q0 -124 61 -224t160.5 -158.5t217.5 -58.5zM587 -370q-23 0 -40 15.5t-17 39.5q0 25 17 40t40 15t39.5 -15t16.5 -39q0 -25 -16 -40.5t-40 -15.5zM633 1398l192 -288h-58l-180 208l-178 -208h-58l191 288h91z" />
    <glyph glyph-name="uni1EB6" unicode="&#x1eb6;" horiz-adv-x="1298" 
d="M590 1400h118l510 -1400h-91l-119 327h-717l-119 -327h-92zM322 413h654l-327 897zM650 -370q-23 0 -40 15.5t-17 39.5q0 25 17 40t40 15t39.5 -15t16.5 -39q0 -25 -16 -40.5t-40 -15.5zM649 1488q-91 0 -166.5 45t-120.5 120.5t-45 166.5h73q0 -73 36.5 -131.5t95.5 -93
t127 -34.5q71 0 130 35t94 94t35 130h73q0 -94 -46 -169t-121.5 -119t-164.5 -44z" />
    <glyph glyph-name="uni1EB7" unicode="&#x1eb7;" horiz-adv-x="1143" 
d="M977 1000h86v-1000h-86l-2 218q-52 -109 -151 -176.5t-237 -67.5q-109 0 -204.5 41t-168 114t-113.5 168t-41 205q0 109 41 204.5t113 167.5t167 113t203 41q140 0 240 -67.5t155 -177.5zM586 59q122 0 208 59.5t131.5 160t45.5 221.5q0 124 -46 224.5t-132.5 159.5
t-206.5 59q-121 0 -221 -59.5t-159 -160.5t-59 -223q0 -124 61 -224t160.5 -158.5t217.5 -58.5zM587 -370q-23 0 -40 15.5t-17 39.5q0 25 17 40t40 15t39.5 -15t16.5 -39q0 -25 -16 -40.5t-40 -15.5zM587 1088q-91 0 -166.5 45t-120.5 120.5t-45 166.5h73q0 -73 36.5 -131.5
t95.5 -93t127 -34.5q71 0 130 35t94 94t35 130h73q0 -94 -46 -169t-121.5 -119t-164.5 -44z" />
    <glyph glyph-name="uni1EB8" unicode="&#x1eb8;" horiz-adv-x="1059" 
d="M120 0v1400h839v-86h-753v-521h634v-86h-634v-621h753v-86h-839zM530 -370q-23 0 -40 15.5t-17 39.5q0 25 17 40t40 15t39.5 -15t16.5 -39q0 -25 -16 -40.5t-40 -15.5z" />
    <glyph glyph-name="uni1EB9" unicode="&#x1eb9;" horiz-adv-x="1117" 
d="M560 -26q-138 0 -251.5 71t-181 190.5t-67.5 264.5q0 110 39 205.5t107.5 168t159.5 113.5t194 41q108 0 199.5 -41.5t158.5 -117t103.5 -179t35.5 -227.5h-908q10 -116 67.5 -206.5t146.5 -143.5t197 -53q119 0 214 63t151 173l87 -20q-60 -133 -181 -217.5t-271 -84.5z
M147 540h824q-5 109 -61.5 201.5t-148 148.5t-201.5 56q-111 0 -201 -54.5t-146.5 -147t-65.5 -204.5zM560 -370q-23 0 -40 15.5t-17 39.5q0 25 17 40t40 15t39.5 -15t16.5 -39q0 -25 -16 -40.5t-40 -15.5z" />
    <glyph glyph-name="uni1EBC" unicode="&#x1ebc;" horiz-adv-x="1059" 
d="M120 0v1400h839v-86h-753v-521h634v-86h-634v-621h753v-86h-839zM684 1544q-37 0 -79.5 22.5t-85.5 52t-83 51.5t-71 20q-33 -2 -54 -32.5t-11 -71.5l-70 -19q-16 46 -1 91.5t53 75.5t90 30q38 0 82.5 -22t89 -51t85 -51t69.5 -22q24 0 40 19t22 43.5t-1 40.5l69 22
q16 -48 0 -94t-54 -75.5t-90 -29.5z" />
    <glyph glyph-name="uni1EBD" unicode="&#x1ebd;" horiz-adv-x="1117" 
d="M560 -26q-138 0 -251.5 71t-181 190.5t-67.5 264.5q0 110 39 205.5t107.5 168t159.5 113.5t194 41q108 0 199.5 -41.5t158.5 -117t103.5 -179t35.5 -227.5h-908q10 -116 67.5 -206.5t146.5 -143.5t197 -53q119 0 214 63t151 173l87 -20q-60 -133 -181 -217.5t-271 -84.5z
M147 540h824q-5 109 -61.5 201.5t-148 148.5t-201.5 56q-111 0 -201 -54.5t-146.5 -147t-65.5 -204.5zM714 1144q-37 0 -79.5 22.5t-85.5 52t-83 51.5t-71 20q-33 -2 -54 -32.5t-11 -71.5l-70 -19q-16 46 -1 91.5t53 75.5t90 30q38 0 82.5 -22t89 -51t85 -51t69.5 -22
q24 0 40 19t22 43.5t-1 40.5l69 22q16 -48 0 -94t-54 -75.5t-90 -29.5z" />
    <glyph glyph-name="uni1EC6" unicode="&#x1ec6;" horiz-adv-x="1059" 
d="M120 0v1400h839v-86h-753v-521h634v-86h-634v-621h753v-86h-839zM530 -370q-23 0 -40 15.5t-17 39.5q0 25 17 40t40 15t39.5 -15t16.5 -39q0 -25 -16 -40.5t-40 -15.5zM576 1798l192 -288h-58l-180 208l-178 -208h-58l191 288h91z" />
    <glyph glyph-name="uni1EC7" unicode="&#x1ec7;" horiz-adv-x="1117" 
d="M560 -26q-138 0 -251.5 71t-181 190.5t-67.5 264.5q0 110 39 205.5t107.5 168t159.5 113.5t194 41q108 0 199.5 -41.5t158.5 -117t103.5 -179t35.5 -227.5h-908q10 -116 67.5 -206.5t146.5 -143.5t197 -53q119 0 214 63t151 173l87 -20q-60 -133 -181 -217.5t-271 -84.5z
M147 540h824q-5 109 -61.5 201.5t-148 148.5t-201.5 56q-111 0 -201 -54.5t-146.5 -147t-65.5 -204.5zM560 -370q-23 0 -40 15.5t-17 39.5q0 25 17 40t40 15t39.5 -15t16.5 -39q0 -25 -16 -40.5t-40 -15.5zM605 1398l192 -288h-58l-180 208l-178 -208h-58l191 288h91z" />
    <glyph glyph-name="uni1ECA" unicode="&#x1eca;" horiz-adv-x="386" 
d="M150 0v1400h86v-1400h-86zM194 -370q-23 0 -40 15.5t-17 39.5q0 25 17 40t40 15t39.5 -15t16.5 -39q0 -25 -16 -40.5t-40 -15.5z" />
    <glyph glyph-name="uni1ECB" unicode="&#x1ecb;" 
d="M120 1000h86v-1000h-86v1000zM164 1199q-23 0 -40 15.5t-17 39.5q0 25 17 40t40 15t39.5 -15t16.5 -39q0 -25 -16 -40.5t-40 -15.5zM164 -370q-23 0 -40 15.5t-17 39.5q0 25 17 40t40 15t39.5 -15t16.5 -39q0 -25 -16 -40.5t-40 -15.5z" />
    <glyph glyph-name="uni1ECC" unicode="&#x1ecc;" horiz-adv-x="1540" 
d="M770 -26q-142 0 -267 56.5t-220 156.5t-149 231.5t-54 281.5t54 281.5t149 231.5t220 156.5t267 56.5q143 0 268 -56.5t220 -156.5t148.5 -231.5t53.5 -281.5t-53.5 -281.5t-148.5 -231.5t-220 -156.5t-268 -56.5zM770 60q126 0 236 51t192.5 139.5t129 204t46.5 245.5
q0 131 -47 247t-130 204.5t-192.5 138.5t-234.5 50q-126 0 -236 -51t-192.5 -139.5t-129 -204t-46.5 -245.5q0 -132 47 -247.5t130 -204t192.5 -138.5t234.5 -50zM771 -370q-23 0 -40 15.5t-17 39.5q0 25 17 40t40 15t39.5 -15t16.5 -39q0 -25 -16 -40.5t-40 -15.5z" />
    <glyph glyph-name="uni1ECD" unicode="&#x1ecd;" horiz-adv-x="1120" 
d="M560 -26q-138 0 -251.5 71t-181 190.5t-67.5 264.5q0 110 39 205.5t107.5 168t159.5 113.5t194 41q138 0 251.5 -71t181 -191t67.5 -266q0 -109 -39 -204t-107.5 -167.5t-159 -113.5t-194.5 -41zM560 60q117 0 210.5 61t148.5 161t55 218q0 119 -55 219.5t-148.5 161.5
t-210.5 61q-118 0 -211.5 -61t-148 -161.5t-54.5 -219.5q0 -123 56.5 -222.5t150.5 -158.5t207 -59zM561 -370q-23 0 -40 15.5t-17 39.5q0 25 17 40t40 15t39.5 -15t16.5 -39q0 -25 -16 -40.5t-40 -15.5z" />
    <glyph glyph-name="uni1ED8" unicode="&#x1ed8;" horiz-adv-x="1540" 
d="M770 -26q-142 0 -267 56.5t-220 156.5t-149 231.5t-54 281.5t54 281.5t149 231.5t220 156.5t267 56.5q143 0 268 -56.5t220 -156.5t148.5 -231.5t53.5 -281.5t-53.5 -281.5t-148.5 -231.5t-220 -156.5t-268 -56.5zM770 60q126 0 236 51t192.5 139.5t129 204t46.5 245.5
q0 131 -47 247t-130 204.5t-192.5 138.5t-234.5 50q-126 0 -236 -51t-192.5 -139.5t-129 -204t-46.5 -245.5q0 -132 47 -247.5t130 -204t192.5 -138.5t234.5 -50zM771 -370q-23 0 -40 15.5t-17 39.5q0 25 17 40t40 15t39.5 -15t16.5 -39q0 -25 -16 -40.5t-40 -15.5z
M816 1798l192 -288h-58l-180 208l-178 -208h-58l191 288h91z" />
    <glyph glyph-name="uni1ED9" unicode="&#x1ed9;" horiz-adv-x="1120" 
d="M560 -26q-138 0 -251.5 71t-181 190.5t-67.5 264.5q0 110 39 205.5t107.5 168t159.5 113.5t194 41q138 0 251.5 -71t181 -191t67.5 -266q0 -109 -39 -204t-107.5 -167.5t-159 -113.5t-194.5 -41zM560 60q117 0 210.5 61t148.5 161t55 218q0 119 -55 219.5t-148.5 161.5
t-210.5 61q-118 0 -211.5 -61t-148 -161.5t-54.5 -219.5q0 -123 56.5 -222.5t150.5 -158.5t207 -59zM561 -370q-23 0 -40 15.5t-17 39.5q0 25 17 40t40 15t39.5 -15t16.5 -39q0 -25 -16 -40.5t-40 -15.5zM606 1398l192 -288h-58l-180 208l-178 -208h-58l191 288h91z" />
    <glyph glyph-name="uni1EE4" unicode="&#x1ee4;" horiz-adv-x="1308" 
d="M654 -26q-168 0 -287.5 82t-183 220.5t-63.5 307.5v816h86v-816q0 -143 51.5 -262t152 -190.5t244.5 -71.5q147 0 246.5 72.5t150.5 191.5t51 260v816h86v-816q0 -127 -36 -237.5t-104.5 -194.5t-168 -131t-225.5 -47zM655 -370q-23 0 -40 15.5t-17 39.5q0 25 17 40
t40 15t39.5 -15t16.5 -39q0 -25 -16 -40.5t-40 -15.5z" />
    <glyph glyph-name="uni1EE5" unicode="&#x1ee5;" horiz-adv-x="1009" 
d="M80 390v610h86v-601q0 -94 45.5 -170.5t122.5 -122.5t171 -46q93 0 169.5 46t122.5 122.5t46 170.5v601h86v-1000h-86v165q-55 -86 -146.5 -138.5t-200.5 -52.5q-115 0 -209.5 56t-150.5 150.5t-56 209.5zM509 -370q-23 0 -40 15.5t-17 39.5q0 25 17 40t40 15t39.5 -15
t16.5 -39q0 -25 -16 -40.5t-40 -15.5z" />
    <glyph glyph-name="Ygrave" unicode="&#x1ef2;" horiz-adv-x="1139" 
d="M978 1400h101l-467 -765v-635h-86v635l-466 765h101l408 -670zM412 1798h86l80 -288h-57z" />
    <glyph glyph-name="ygrave" unicode="&#x1ef3;" horiz-adv-x="974" 
d="M804 1000h90l-546 -1500h-92l182 500l-358 1000h94l307 -881zM330 1398h86l80 -288h-57z" />
    <glyph glyph-name="uni1EF4" unicode="&#x1ef4;" horiz-adv-x="1139" 
d="M978 1400h101l-467 -765v-635h-86v635l-466 765h101l408 -670zM570 -370q-23 0 -40 15.5t-17 39.5q0 25 17 40t40 15t39.5 -15t16.5 -39q0 -25 -16 -40.5t-40 -15.5z" />
    <glyph glyph-name="uni1EF5" unicode="&#x1ef5;" horiz-adv-x="974" 
d="M804 1000h90l-546 -1500h-92l182 500l-358 1000h94l307 -881zM656 -370q-23 0 -40 15.5t-17 39.5q0 25 17 40t40 15t39.5 -15t16.5 -39q0 -25 -16 -40.5t-40 -15.5z" />
    <glyph glyph-name="uni1EF8" unicode="&#x1ef8;" horiz-adv-x="1139" 
d="M978 1400h101l-467 -765v-635h-86v635l-466 765h101l408 -670zM724 1544q-37 0 -79.5 22.5t-85.5 52t-83 51.5t-71 20q-33 -2 -54 -32.5t-11 -71.5l-70 -19q-16 46 -1 91.5t53 75.5t90 30q38 0 82.5 -22t89 -51t85 -51t69.5 -22q24 0 40 19t22 43.5t-1 40.5l69 22
q16 -48 0 -94t-54 -75.5t-90 -29.5z" />
    <glyph glyph-name="uni1EF9" unicode="&#x1ef9;" horiz-adv-x="974" 
d="M804 1000h90l-546 -1500h-92l182 500l-358 1000h94l307 -881zM642 1144q-37 0 -79.5 22.5t-85.5 52t-83 51.5t-71 20q-33 -2 -54 -32.5t-11 -71.5l-70 -19q-16 46 -1 91.5t53 75.5t90 30q38 0 82.5 -22t89 -51t85 -51t69.5 -22q24 0 40 19t22 43.5t-1 40.5l69 22
q16 -48 0 -94t-54 -75.5t-90 -29.5z" />
    <glyph glyph-name="uni2002" unicode="&#x2002;" horiz-adv-x="1000" 
 />
    <glyph glyph-name="uni2009" unicode="&#x2009;" horiz-adv-x="400" 
 />
    <glyph glyph-name="uni200B" unicode="&#x200b;" horiz-adv-x="0" 
 />
    <glyph glyph-name="endash" unicode="&#x2013;" horiz-adv-x="1240" 
d="M120 643h1000v-86h-1000v86z" />
    <glyph glyph-name="emdash" unicode="&#x2014;" horiz-adv-x="2040" 
d="M120 643h1800v-86h-1800v86z" />
    <glyph glyph-name="quoteright" unicode="&#x2019;" horiz-adv-x="248" 
d="M40 878l62 522h86l-91 -522h-57z" />
    <glyph glyph-name="quoteright" unicode="&#x2032;" horiz-adv-x="248" 
d="M40 878l62 522h86l-91 -522h-57z" />
    <glyph glyph-name="quotesinglbase" unicode="&#x201a;" horiz-adv-x="272" 
d="M44 -112l62 338h86l-91 -338h-57z" />
    <glyph glyph-name="quotedblleft" unicode="&#x201c;" horiz-adv-x="567" 
d="M120 878l91 522h57l-62 -522h-86zM379 882l91 522h57l-62 -522h-86z" />
    <glyph glyph-name="quotedblright" unicode="&#x201d;" horiz-adv-x="567" 
d="M40 878l62 522h86l-91 -522h-57zM299 878l62 522h86l-91 -522h-57z" />
    <glyph glyph-name="quotedblright" unicode="&#x2033;" horiz-adv-x="567" 
d="M40 878l62 522h86l-91 -522h-57zM299 878l62 522h86l-91 -522h-57z" />
    <glyph glyph-name="quotedblbase" unicode="&#x201e;" horiz-adv-x="496" 
d="M44 -112l62 338h86l-91 -338h-57zM268 -112l62 338h86l-91 -338h-57z" />
    <glyph glyph-name="dagger" unicode="&#x2020;" horiz-adv-x="753" 
d="M80 1125v86h254v289h86v-289h253v-86h-253v-529h-86v529h-254z" />
    <glyph glyph-name="daggerdbl" unicode="&#x2021;" horiz-adv-x="753" 
d="M80 809v84h254v243h-254v86h254v278h86v-278h253v-86h-253v-243h253v-84h-253v-249h-86v249h-254z" />
    <glyph glyph-name="bullet" unicode="&#x2022;" horiz-adv-x="310" 
d="M153 525q-30 0 -51.5 21.5t-21.5 55.5q0 30 21.5 51.5t51.5 21.5q33 0 55 -21.5t22 -51.5q0 -34 -22 -55.5t-55 -21.5z" />
    <glyph glyph-name="ellipsis" unicode="&#x2026;" horiz-adv-x="908" 
d="M135 -26q-22 0 -38.5 17t-16.5 40t16.5 39.5t38.5 16.5q25 0 41.5 -16.5t16.5 -39.5t-16.5 -40t-41.5 -17zM432 -26q-22 0 -38.5 17t-16.5 40t16.5 39.5t38.5 16.5q25 0 41.5 -16.5t16.5 -39.5t-16.5 -40t-41.5 -17zM730 -26q-22 0 -38.5 17t-16.5 40t16.5 39.5
t38.5 16.5q25 0 41.5 -16.5t16.5 -39.5t-16.5 -40t-41.5 -17z" />
    <glyph glyph-name="perthousand" unicode="&#x2030;" horiz-adv-x="1608" 
d="M127 0l808 1400h100l-808 -1400h-100zM287 885q-57 0 -104 28t-75 75t-28 104q0 58 28 105t75 75.5t104 28.5q58 0 104.5 -28.5t75 -76t28.5 -104.5q0 -58 -28.5 -104.5t-75.5 -74.5t-104 -28zM287 960q56 0 94 39t38 93q0 56 -38 95t-94 39q-55 0 -93.5 -39t-38.5 -95
q0 -54 38.5 -93t93.5 -39zM824 99q-57 0 -104.5 28.5t-76 76t-28.5 104.5t28.5 104t76 75t104.5 28t104 -28t75 -75t28 -104q0 -58 -28 -105t-75 -75.5t-104 -28.5zM824 174q54 0 93 39.5t39 94.5q0 54 -39 93t-93 39q-55 0 -94.5 -39t-39.5 -93q0 -55 39.5 -94.5
t94.5 -39.5zM1321 99q-57 0 -104.5 28.5t-76 76t-28.5 104.5t28.5 104t76 75t104.5 28q58 0 104.5 -28t74.5 -75t28 -104q0 -58 -28 -105t-75 -75.5t-104 -28.5zM1321 174q54 0 93 39.5t39 94.5q0 54 -39 93t-93 39q-55 0 -94.5 -39t-39.5 -93q0 -55 39.5 -94.5t94.5 -39.5z
" />
    <glyph glyph-name="uni2035" unicode="&#x2035;" horiz-adv-x="388" 
d="M211 878l-91 522h86l62 -522h-57z" />
    <glyph glyph-name="guilsinglleft" unicode="&#x2039;" horiz-adv-x="624" 
d="M420 261l-300 340l300 338h104l-300 -338l300 -340h-104z" />
    <glyph glyph-name="guilsinglright" unicode="&#x203a;" horiz-adv-x="624" 
d="M100 261l300 340l-300 338h104l300 -338l-300 -340h-104z" />
    <glyph glyph-name="fraction" unicode="&#x2044;" horiz-adv-x="450" 
d="M-223 0l808 1400h88l-808 -1400h-88z" />
    <glyph glyph-name="fraction" unicode="&#x2215;" horiz-adv-x="450" 
d="M-223 0l808 1400h88l-808 -1400h-88z" />
    <glyph glyph-name="uni2070" unicode="&#x2070;" horiz-adv-x="648" 
d="M324 798q-69 0 -126.5 43.5t-91.5 119t-34 171.5t34 172t91.5 120t126.5 44q70 0 127 -44t91 -120t34 -172t-34 -171.5t-91 -119t-127 -43.5zM324 879q52 0 90 38t59 97t21 118q0 66 -21.5 124t-60 94.5t-88.5 36.5q-52 0 -90.5 -38t-59 -96.5t-20.5 -120.5
q0 -64 21.5 -122t60 -94.5t88.5 -36.5z" />
    <glyph glyph-name="uni2074" unicode="&#x2074;" horiz-adv-x="676" 
d="M374 818v133h-278v99l253 399h107v-415h76v-83h-76v-133h-82zM182 1034h194v304z" />
    <glyph glyph-name="uni2075" unicode="&#x2075;" horiz-adv-x="674" 
d="M307 798q-93 0 -158 59.5t-65 151.5h82q0 -57 41.5 -93.5t99.5 -36.5q57 0 98.5 36.5t41.5 93.5q0 58 -41.5 98t-98.5 40q-34 1 -60 -2t-53.5 -10t-67.5 -19l29 333h347v-80h-272l-11 -146q133 19 222 -37.5t89 -176.5q0 -92 -65 -151.5t-158 -59.5z" />
    <glyph glyph-name="uni2076" unicode="&#x2076;" horiz-adv-x="706" 
d="M329 798q-102 0 -167.5 64.5t-65.5 156.5q0 30 8.5 59t31 72.5t63.5 114t107 181.5h96l-116 -201q74 15 137 -14t101 -86t38 -126q0 -68 -33 -118t-86 -76.5t-114 -26.5zM329 879q63 0 107 39.5t43 102.5q0 68 -47.5 108t-102.5 40q-64 0 -107.5 -45t-42.5 -109
q0 -61 44.5 -98.5t105.5 -37.5z" />
    <glyph glyph-name="uni2077" unicode="&#x2077;" horiz-adv-x="620" 
d="M138 818l314 548h-332v83h428v-82l-314 -549h-96z" />
    <glyph glyph-name="uni2078" unicode="&#x2078;" horiz-adv-x="598" 
d="M297 798q-82 0 -141.5 53t-59.5 137q0 51 23.5 93t61.5 70q-31 26 -50 62.5t-19 78.5q0 78 54 127t131 49q78 0 133 -49t55 -127q0 -42 -19 -78.5t-49 -62.5q38 -28 61.5 -70t23.5 -93q0 -84 -60 -137t-145 -53zM297 879q51 0 86.5 30t35.5 79t-35.5 84t-86.5 35
q-48 0 -83.5 -35t-35.5 -84t35.5 -79t83.5 -30zM297 1190q44 0 75 30t31 72q0 44 -31 69.5t-75 25.5q-41 0 -71.5 -25.5t-30.5 -69.5q0 -42 30.5 -72t71.5 -30z" />
    <glyph glyph-name="uni2079" unicode="&#x2079;" horiz-adv-x="659" 
d="M231 818l118 204q-71 -16 -131 9t-98.5 76t-46 115.5t26.5 127.5q29 62 86 90t120 28q64 0 115.5 -29t82 -76.5t34 -104.5t-27.5 -114q-3 -13 -7 -21l-178 -305h-94zM306 1096q48 0 85 26.5t54.5 69.5t6.5 92q-14 54 -57 78.5t-89 24.5q-48 0 -85 -24.5t-54.5 -64.5
t-6.5 -88q14 -54 57 -84t89 -30z" />
    <glyph glyph-name="uni2080" unicode="&#x2080;" horiz-adv-x="648" 
d="M324 -31q-69 0 -126.5 43.5t-91.5 119t-34 171.5t34 172t91.5 120t126.5 44q70 0 127 -44t91 -120t34 -172t-34 -171.5t-91 -119t-127 -43.5zM324 51q52 0 90 38t59 96t21 118q0 65 -21.5 123t-60 94.5t-88.5 36.5q-52 0 -90.5 -38t-59 -96.5t-20.5 -119.5
q0 -64 21.5 -121.5t60 -94t88.5 -36.5z" />
    <glyph glyph-name="uni2081" unicode="&#x2081;" horiz-adv-x="408" 
d="M182 0v549h-86l12 82h156v-631h-82z" />
    <glyph glyph-name="uni2082" unicode="&#x2082;" horiz-adv-x="676" 
d="M96 0v82q38 24 95.5 67t116 94.5t99 103.5t43.5 96q0 57 -39.5 91.5t-95.5 34.5t-96.5 -34.5t-40.5 -91.5h-82q0 60 29.5 107t79.5 74t110 27t109.5 -27t78.5 -74t29 -107q0 -44 -28.5 -94t-73.5 -99t-96 -92.5t-96 -75.5h293v-82h-435z" />
    <glyph glyph-name="uni2083" unicode="&#x2083;" horiz-adv-x="545" 
d="M274 -31q-56 0 -101.5 24.5t-73 67.5t-27.5 99h82q0 -49 34.5 -79t85.5 -30q49 0 83 30t34 79q0 56 -41.5 89t-115.5 33v76q67 0 102.5 28t35.5 79q0 41 -31 66.5t-72 25.5q-42 0 -72.5 -25.5t-30.5 -66.5h-82q0 76 54 125t131 49t131.5 -49t54.5 -125q0 -46 -20.5 -86
t-48.5 -56q43 -33 65 -68.5t22 -94.5q0 -56 -27 -99t-72.5 -67.5t-99.5 -24.5z" />
    <glyph glyph-name="uni2084" unicode="&#x2084;" horiz-adv-x="676" 
d="M374 0v133h-278v100l253 398h107v-415h76v-83h-76v-133h-82zM182 216h194v304z" />
    <glyph glyph-name="uni2085" unicode="&#x2085;" horiz-adv-x="674" 
d="M307 -31q-62 0 -112.5 27t-80.5 75t-30 110h82q0 -57 41.5 -93.5t99.5 -36.5q57 0 98.5 36.5t41.5 93.5t-41.5 97.5t-98.5 40.5l-182 -31l30 331h347v-81h-272l-11 -143l88 6q95 0 159 -64.5t64 -155.5q0 -62 -30 -110t-80.5 -75t-112.5 -27z" />
    <glyph glyph-name="uni2086" unicode="&#x2086;" horiz-adv-x="682" 
d="M329 -31q-102 0 -167.5 65t-65.5 157q0 30 8.5 59.5t31 73t64 114t107.5 182.5h96l-117 -204q74 16 137 -13.5t101 -86t38 -125.5q0 -68 -33 -118t-86 -77t-114 -27zM329 51q63 0 107 39.5t43 102.5q0 68 -47.5 108t-102.5 40q-64 0 -107.5 -45.5t-42.5 -108.5
q0 -60 44.5 -98t105.5 -38z" />
    <glyph glyph-name="uni2087" unicode="&#x2087;" horiz-adv-x="620" 
d="M136 0l316 549h-332v82h428v-82l-316 -549h-96z" />
    <glyph glyph-name="uni2088" unicode="&#x2088;" horiz-adv-x="598" 
d="M297 -31q-82 0 -141.5 53.5t-59.5 136.5q0 52 23.5 94.5t61.5 69.5q-31 25 -50 62t-19 79q0 79 54 128t131 49q78 0 133 -49t55 -128q0 -42 -19 -79t-49 -62q38 -27 61.5 -69.5t23.5 -94.5q0 -83 -60 -136.5t-145 -53.5zM297 51q51 0 86.5 30t35.5 78q0 50 -35.5 84.5
t-86.5 34.5q-48 0 -83.5 -34.5t-35.5 -84.5q0 -48 35.5 -78t83.5 -30zM297 361q44 0 75 31t31 72q0 44 -31 69t-75 25q-41 0 -71.5 -25t-30.5 -69q0 -41 30.5 -72t71.5 -31z" />
    <glyph glyph-name="uni2089" unicode="&#x2089;" horiz-adv-x="660" 
d="M231 0l118 204q-71 -16 -131 9t-98.5 76.5t-46 116t26.5 127.5q20 41 52 67t72 38.5t82 12.5q66 0 118.5 -30.5t83 -80t32.5 -109t-33 -117.5l-182 -314h-94zM306 279q48 0 85 26.5t54.5 69t6.5 91.5q-14 54 -57 78.5t-89 24.5q-48 0 -85 -24.5t-54.5 -64t-6.5 -87.5
q14 -55 57 -84.5t89 -29.5z" />
    <glyph glyph-name="Euro" unicode="&#x20ac;" horiz-adv-x="1191" 
d="M1111 -14q-137 -27 -265.5 2.5t-236.5 105t-183.5 187.5t-106.5 249h-239v75h226v189h-226v75h239q33 140 109.5 252.5t184.5 187t236 104t262 3.5v-87q-122 25 -234.5 1t-207 -88.5t-161.5 -159.5t-98 -213h362v-75h-378v-189h378v-75h-362q31 -119 99 -214.5
t163 -158.5t207 -86t232 2v-87z" />
    <glyph glyph-name="trademark" unicode="&#x2122;" horiz-adv-x="2875" 
d="M1178 1400v-86h-507v-1314h-86v1314h-505v86h1098zM1279 0l270 1400h51l418 -1099l415 1099h51l272 -1400h-88l-228 1177l-399 -1054h-49l-398 1054l-228 -1177h-87z" />
    <glyph glyph-name="oneeighth" unicode="&#x215b;" horiz-adv-x="1456" 
d="M182 818v549h-86l12 82h156v-631h-82zM185 0l808 1400h88l-808 -1400h-88zM1155 -31q-82 0 -141.5 53.5t-59.5 136.5q0 52 23.5 94.5t61.5 69.5q-31 25 -50 62t-19 79q0 79 54 128t131 49q78 0 133 -49t55 -128q0 -42 -19 -79t-49 -62q38 -27 61.5 -69.5t23.5 -94.5
q0 -83 -60 -136.5t-145 -53.5zM1155 51q51 0 86.5 30t35.5 78q0 50 -35.5 84.5t-86.5 34.5q-48 0 -83.5 -34.5t-35.5 -84.5q0 -48 35.5 -78t83.5 -30zM1155 361q44 0 75 31t31 72q0 44 -31 69t-75 25q-41 0 -71.5 -25t-30.5 -69q0 -41 30.5 -72t71.5 -31z" />
    <glyph glyph-name="threeeighths" unicode="&#x215c;" horiz-adv-x="1593" 
d="M274 798q-83 0 -142.5 53.5t-59.5 137.5h82q0 -49 34.5 -79.5t85.5 -30.5q49 0 83 30.5t34 79.5q0 55 -41.5 88.5t-115.5 33.5v76q67 0 102.5 27.5t35.5 77.5q0 42 -31 67.5t-72 25.5q-42 0 -72.5 -25.5t-30.5 -67.5h-82q0 78 54 126t131 48t131.5 -48t54.5 -126
q0 -44 -20.5 -84.5t-48.5 -56.5q43 -33 65 -68.5t22 -93.5q0 -84 -58.5 -137.5t-140.5 -53.5zM322 0l808 1400h88l-808 -1400h-88zM1292 -31q-82 0 -141.5 53.5t-59.5 136.5q0 52 23.5 94.5t61.5 69.5q-31 25 -50 62t-19 79q0 79 54 128t131 49q78 0 133 -49t55 -128
q0 -42 -19 -79t-49 -62q38 -27 61.5 -69.5t23.5 -94.5q0 -83 -60 -136.5t-145 -53.5zM1292 51q51 0 86.5 30t35.5 78q0 50 -35.5 84.5t-86.5 34.5q-48 0 -83.5 -34.5t-35.5 -84.5q0 -48 35.5 -78t83.5 -30zM1292 361q44 0 75 31t31 72q0 44 -31 69t-75 25q-41 0 -71.5 -25
t-30.5 -69q0 -41 30.5 -72t71.5 -31z" />
    <glyph glyph-name="fiveeighths" unicode="&#x215d;" horiz-adv-x="1721" 
d="M307 798q-93 0 -158 59.5t-65 151.5h82q0 -57 41.5 -93.5t99.5 -36.5q57 0 98.5 36.5t41.5 93.5q0 58 -41.5 98t-98.5 40q-34 1 -60 -2t-53.5 -10t-67.5 -19l29 333h347v-80h-272l-11 -146q133 19 222 -37.5t89 -176.5q0 -92 -65 -151.5t-158 -59.5zM451 0l808 1400h88
l-808 -1400h-88zM1421 -31q-82 0 -141.5 53.5t-59.5 136.5q0 52 23.5 94.5t61.5 69.5q-31 25 -50 62t-19 79q0 79 54 128t131 49q78 0 133 -49t55 -128q0 -42 -19 -79t-49 -62q38 -27 61.5 -69.5t23.5 -94.5q0 -83 -60 -136.5t-145 -53.5zM1421 51q51 0 86.5 30t35.5 78
q0 50 -35.5 84.5t-86.5 34.5q-48 0 -83.5 -34.5t-35.5 -84.5q0 -48 35.5 -78t83.5 -30zM1421 361q44 0 75 31t31 72q0 44 -31 69t-75 25q-41 0 -71.5 -25t-30.5 -69q0 -41 30.5 -72t71.5 -31z" />
    <glyph glyph-name="seveneighths" unicode="&#x215e;" horiz-adv-x="1668" 
d="M138 818l314 548h-332v83h428v-82l-314 -549h-96zM397 0l808 1400h88l-808 -1400h-88zM1367 -31q-82 0 -141.5 53.5t-59.5 136.5q0 52 23.5 94.5t61.5 69.5q-31 25 -50 62t-19 79q0 79 54 128t131 49q78 0 133 -49t55 -128q0 -42 -19 -79t-49 -62q38 -27 61.5 -69.5
t23.5 -94.5q0 -83 -60 -136.5t-145 -53.5zM1367 51q51 0 86.5 30t35.5 78q0 50 -35.5 84.5t-86.5 34.5q-48 0 -83.5 -34.5t-35.5 -84.5q0 -48 35.5 -78t83.5 -30zM1367 361q44 0 75 31t31 72q0 44 -31 69t-75 25q-41 0 -71.5 -25t-30.5 -69q0 -41 30.5 -72t71.5 -31z" />
    <glyph glyph-name="arrowleft" unicode="&#x2190;" horiz-adv-x="1351" 
d="M555 275l-475 475l475 475l61 -60l-372 -372h1027v-86h-1027l372 -372z" />
    <glyph glyph-name="arrowup" unicode="&#x2191;" horiz-adv-x="1113" 
d="M514 153v1029l-372 -373l-62 62l477 476l476 -476l-61 -62l-372 373v-1029h-86z" />
    <glyph glyph-name="arrowright" unicode="&#x2192;" horiz-adv-x="1351" 
d="M794 275l-60 60l371 372h-1025v86h1025l-371 372l60 60l477 -475z" />
    <glyph glyph-name="arrowdown" unicode="&#x2193;" horiz-adv-x="1112" 
d="M555 155l-475 476l61 60l371 -372v1026h86v-1026l374 372l60 -60z" />
    <glyph glyph-name="arrowboth" unicode="&#x2194;" horiz-adv-x="1602" 
d="M555 275l-475 475l475 475l61 -60l-372 -372h1112l-372 372l61 60l477 -475l-477 -475l-61 60l372 372h-1112l372 -372z" />
    <glyph glyph-name="arrowupdn" unicode="&#x2195;" horiz-adv-x="1113" 
d="M555 28l-475 477l61 62l371 -375v1116l-371 -374l-61 62l475 476l478 -476l-63 -62l-372 374v-1116l372 375l63 -62z" />
    <glyph glyph-name="uni2196" unicode="&#x2196;" horiz-adv-x="1034" 
d="M893 314l-727 726v-527h-86v673h673v-86h-525l726 -726z" />
    <glyph glyph-name="uni2197" unicode="&#x2197;" horiz-adv-x="1032" 
d="M141 314l-61 61l725 725h-526v86h673v-673h-86v526z" />
    <glyph glyph-name="uni2198" unicode="&#x2198;" horiz-adv-x="1032" 
d="M279 314v86h526l-725 725l61 61l725 -725v526h86v-673h-673z" />
    <glyph glyph-name="uni2199" unicode="&#x2199;" horiz-adv-x="1032" 
d="M80 314v673h86v-526l725 725l61 -61l-725 -725h526v-86h-673z" />
    <glyph glyph-name="partialdiff" unicode="&#x2202;" horiz-adv-x="1164" 
d="M582 -26q-138 0 -252 67.5t-182 181.5t-68 253q0 104 39 195t108.5 160t160.5 108t194 39q122 0 222.5 -55.5t162.5 -148.5q-23 119 -76 231t-132 201t-180 141t-221 52v86q152 0 283.5 -75t230.5 -208t155 -307.5t57 -373.5q0 -161 -63 -284.5t-176 -193t-263 -69.5z
M582 60q119 0 213.5 58t149.5 152.5t55 205.5q0 114 -56 208.5t-150.5 151t-211.5 56.5t-211 -57.5t-149.5 -152t-55.5 -206.5q0 -113 56 -207.5t150 -151.5t210 -57z" />
    <glyph glyph-name="emptyset" unicode="&#x2205;" horiz-adv-x="1160" 
d="M310 -45l-68 40l47 80q-95 72 -152 183.5t-57 241.5q0 110 39 205.5t107.5 168t159.5 113.5t194 41q62 0 119 -14.5t106 -41.5l46 77l69 -40l-47 -80q95 -72 151 -183.5t56 -245.5q0 -109 -39 -204t-107.5 -167.5t-159 -113.5t-194.5 -41q-60 0 -117 16t-108 42zM331 150
l433 750q-103 55 -209 45.5t-194.5 -69.5t-143 -158t-54.5 -220q0 -108 46 -198.5t122 -149.5zM396 104q108 -56 214 -46.5t193.5 70t140.5 158t53 216.5q0 108 -45.5 200t-121.5 152z" />
    <glyph glyph-name="product" unicode="&#x220f;" horiz-adv-x="1280" 
d="M80 1400h1120v-86h-1120v86zM297 1345h86v-1345h-86v1345zM897 1345h86v-1345h-86v1345z" />
    <glyph glyph-name="summation" unicode="&#x2211;" horiz-adv-x="972" 
d="M80 0v86l313 612l-313 612v86h832v-86h-735l313 -612l-313 -612h735v-86h-832z" />
    <glyph glyph-name="minus" unicode="&#x2212;" horiz-adv-x="1160" 
d="M80 557v86h1000v-86h-1000z" />
    <glyph glyph-name="radical" unicode="&#x221a;" horiz-adv-x="1255" 
d="M852 1400h323v-86h-263l-480 -1314h-94l-258 708h92l214 -585z" />
    <glyph glyph-name="infinity" unicode="&#x221e;" horiz-adv-x="1446" 
d="M359 328q-84 10 -146.5 53t-97.5 108.5t-35 140.5q0 79 36.5 145.5t99.5 108.5t143 48q82 0 138.5 -25t108 -77.5t118.5 -133.5q63 78 115 130.5t105 79t120 26.5q97 -6 164.5 -47.5t102.5 -107.5t35 -147q0 -79 -36 -144.5t-98.5 -107.5t-142.5 -50q-79 0 -134 22.5
t-107 74.5t-124 139q-69 -83 -121 -135.5t-107.5 -77t-136.5 -23.5zM362 411q67 0 111 21t87.5 69t110.5 129q-70 84 -113.5 132t-86.5 67.5t-109 19.5q-86 -9 -142.5 -71.5t-56.5 -147.5q0 -89 59 -149t140 -70zM1084 411q86 10 143 72t57 147q0 88 -57.5 149t-160.5 70
q-57 0 -98 -22.5t-84 -70.5t-108 -126q59 -69 97.5 -112.5t69.5 -66.5t63.5 -31.5t77.5 -8.5z" />
    <glyph glyph-name="integral" unicode="&#x222b;" horiz-adv-x="776" 
d="M221 -26q-40 1 -74 23.5t-52.5 59t-13.5 79.5l73 -6q-3 -29 14.5 -50t48.5 -27q29 -2 50.5 16t25.5 48l103 1179q6 42 29.5 71.5t58 45t72.5 13.5q41 -3 74.5 -26t51 -58.5t14.5 -78.5l-70 7q1 33 -19 54.5t-50 21.5q-31 5 -52.5 -17t-23.5 -47l-102 -1176
q-9 -65 -50.5 -97.5t-107.5 -34.5z" />
    <glyph glyph-name="approxequal" unicode="&#x2248;" horiz-adv-x="1181" 
d="M823 742q-61 0 -134.5 37t-148 85t-141 84t-116.5 36q-51 1 -90 -27.5t-56.5 -74.5t-4.5 -98l-84 -12q-20 72 7 140t87 113t139 45q59 0 128 -37t141.5 -85t140.5 -84.5t125 -36.5q51 0 90.5 28t57.5 73t4 95l84 15q22 -77 -5.5 -144.5t-87.5 -109.5t-136 -42zM823 194
q-61 0 -134.5 37t-148 85t-141 84t-116.5 36q-51 1 -90 -27.5t-56.5 -74.5t-4.5 -98l-84 -12q-20 72 7 140t87 113t139 45q59 0 128 -37t141.5 -85t140.5 -84.5t125 -36.5q51 0 90.5 28t57.5 73t4 95l84 15q22 -77 -5.5 -144.5t-87.5 -109.5t-136 -42z" />
    <glyph glyph-name="notequal" unicode="&#x2260;" horiz-adv-x="1160" 
d="M794 1182l-100 -344h386v-86h-411l-89 -304h500v-86h-525l-102 -344h-89l101 344h-385v86h409l90 304h-499v86h525l100 344h89z" />
    <glyph glyph-name="lessequal" unicode="&#x2264;" horiz-adv-x="1160" 
d="M1080 346l-1000 284v138l1000 286v-91l-929 -263l929 -265v-89zM80 0v86h1000v-86h-1000z" />
    <glyph glyph-name="greaterequal" unicode="&#x2265;" horiz-adv-x="1160" 
d="M80 348v90l929 263l-929 262v91l1000 -285v-138zM80 0v86h1000v-86h-1000z" />
    <glyph glyph-name="lozenge" unicode="&#x25ca;" horiz-adv-x="751" 
d="M328 0l-268 702l266 698h99l266 -698l-268 -702h-95zM375 134l226 568l-226 568l-224 -568z" />
    <glyph glyph-name="uniFFFD" unicode="&#xfffd;" horiz-adv-x="1630" 
d="M816 -26q-54 0 -106 20t-94 62l-414 414q-42 42 -62 94t-20 106t21 106t61 92l414 414q42 42 94 62t106 20t105 -20t93 -62l414 -414q42 -42 62 -93t20 -105t-20 -106t-62 -94l-414 -414q-40 -40 -92 -61t-106 -21zM824 337q17 0 27 11.5t10 26.5t-10 26t-27 11
q-16 0 -27 -11t-11 -26t11 -26.5t27 -11.5zM784 519h75v2q0 61 56 92q48 26 77 74.5t29 107.5q0 56 -28 102.5t-75 74t-103 27.5q-57 0 -104 -27.5t-74.5 -74t-27.5 -102.5h76q0 54 38 91.5t92 37.5t92 -37.5t38 -91.5q0 -38 -18 -69.5t-48 -47.5q-44 -23 -69.5 -65.5
t-25.5 -91.5v-2z" />
    </font>
</defs>
</svg>
