<?xml version="1.0" standalone="no"?>
<!DOCTYPE svg PUBLIC "-//W3C//DTD SVG 1.1//EN" "http://www.w3.org/Graphics/SVG/1.1/DTD/svg11.dtd" >
<svg xmlns="http://www.w3.org/2000/svg" xmlns:xlink="http://www.w3.org/1999/xlink" version="1.1">
<metadata>
Created by FontForge 20201107 at Wed Oct 27 17:11:08 2021
 By 
Copyright 2021 The Urbanist Project Authors (https://github.com/coreyhu/Urbanist)
</metadata>
<defs>
<font id="Urbanist-LightItalic" horiz-adv-x="348" >
  <font-face 
    font-family="Urbanist Light"
    font-weight="300"
    font-style="italic"
    font-stretch="normal"
    units-per-em="2000"
    panose-1="2 11 10 4 4 2 0 0 2 3"
    ascent="1600"
    descent="-400"
    x-height="1000"
    cap-height="1400"
    bbox="-329 -500 2679 1990"
    underline-thickness="50"
    underline-position="-125"
    unicode-range="U+000D-FFFD"
  />
<missing-glyph horiz-adv-x="1000" 
d="M100 -500v2400h800v-2400h-800zM200 -400h600v2200h-600v-2200z" />
    <glyph glyph-name=".notdef" horiz-adv-x="1000" 
d="M100 -500v2400h800v-2400h-800zM200 -400h600v2200h-600v-2200z" />
    <glyph glyph-name=".null" horiz-adv-x="1200" 
 />
    <glyph glyph-name=".null" horiz-adv-x="1200" 
 />
    <glyph glyph-name="nonmarkingreturn" unicode="&#xd;" horiz-adv-x="1200" 
 />
    <glyph glyph-name="nonmarkingreturn" unicode="&#xfeff;" horiz-adv-x="1200" 
 />
    <glyph glyph-name="space" unicode=" " horiz-adv-x="480" 
 />
    <glyph glyph-name="exclam" unicode="!" horiz-adv-x="331" 
d="M59 420l137 980h98l-137 -980h-98zM45 -26q-28 0 -44.5 19.5t-13.5 47.5q4 27 26 46t50 19q27 0 43.5 -19t11.5 -46q-3 -28 -25 -47.5t-48 -19.5z" />
    <glyph glyph-name="quotedbl" unicode="&#x22;" horiz-adv-x="498" 
d="M101 878l73 522h88l-73 -522h-88zM359 878l73 522h88l-73 -522h-88z" />
    <glyph glyph-name="numbersign" unicode="#" horiz-adv-x="1492" 
d="M1419 945h-212l-201 -488h215l-44 -104h-212l-145 -353h-108l145 353h-505l-144 -353h-108l144 353h-213l44 104h211l201 488h-215l44 104h213l143 351h108l-143 -351h504l143 351h108l-143 -351h213zM898 457l201 488h-504l-201 -488h504z" />
    <glyph glyph-name="dollar" unicode="$" horiz-adv-x="1171" 
d="M671 1311q-103 1 -196.5 -34.5t-156.5 -98.5t-76 -147q-13 -97 30.5 -150t128 -79.5t191.5 -47.5q129 -23 236 -70.5t165.5 -126t42.5 -194.5q-15 -112 -89.5 -196t-184.5 -133.5t-234 -57.5l-28 -200h-88l29 200q-103 6 -192.5 41.5t-151 97t-79.5 144.5l107 38
q15 -68 71 -116.5t136 -73.5t166 -25q102 0 196 35t158 97.5t76 148.5t-37 141.5t-134 88t-180 50.5q-138 25 -244.5 66.5t-161 117.5t-37.5 204q16 111 90.5 195t185 133.5t233.5 57.5l29 207h88l-29 -207q99 -6 187.5 -41t151 -96t83.5 -147l-109 -37q-14 69 -71 117
t-137 73t-165 25z" />
    <glyph glyph-name="percent" unicode="%" horiz-adv-x="1212" 
d="M41 0l1004 1400h125l-1004 -1400h-125zM325 872q-61 0 -107 29.5t-69 79.5t-14 111q9 62 46 112t91 80t114 30q61 0 107 -30.5t69 -80.5t13 -111q-8 -61 -45 -111t-91 -79.5t-114 -29.5zM337 960q56 0 99.5 38.5t50.5 93.5q8 56 -24.5 94.5t-88.5 38.5q-55 0 -99 -38.5
t-52 -94.5q-7 -55 26 -93.5t88 -38.5zM826 86q-61 0 -107 30.5t-69 81t-14 109.5q8 62 45.5 112t92 79.5t114.5 29.5q62 0 107.5 -30t68 -80t13.5 -111q-8 -60 -45 -110.5t-91 -80.5t-115 -30zM838 174q54 0 99 39t52 94q8 55 -26 94t-88 39q-55 0 -99.5 -39t-52.5 -94
q-7 -55 26.5 -94t88.5 -39z" />
    <glyph glyph-name="ampersand" unicode="&#x26;" horiz-adv-x="1413" 
d="M375 -26q-117 0 -198.5 56.5t-119 148t-23.5 194.5q9 66 29.5 113.5t62.5 95.5t114 112t184 163q-51 60 -83 99.5t-48.5 69.5t-20 61t2.5 73q10 75 55.5 136.5t111.5 97.5t138 36q74 0 130.5 -36.5t84.5 -97t18 -136.5q-6 -43 -20 -75t-39.5 -63t-68.5 -69.5t-108 -95.5
l350 -408l240 210l-21 -153l-155 -136l254 -294l-87 -76l-252 292q-114 -99 -187 -161.5t-125.5 -96.5t-102 -47t-116.5 -13zM391 82q54 0 93.5 12t83 42.5t107.5 87.5t165 147l-351 409q-105 -92 -169.5 -149t-100.5 -95.5t-52 -76t-24 -89.5q-11 -80 18.5 -145.5t89 -104
t140.5 -38.5zM509 923q81 70 122.5 106.5t58.5 63.5t22 68q10 72 -33 121t-112 49q-72 0 -127.5 -51t-64.5 -119q-6 -41 4 -69t41.5 -64t88.5 -105z" />
    <glyph glyph-name="quotesingle" unicode="'" horiz-adv-x="240" 
d="M101 878l73 522h88l-73 -522h-88z" />
    <glyph glyph-name="parenleft" unicode="(" horiz-adv-x="607" 
d="M285 -112q-87 93 -131.5 214t-53 259.5t11.5 282.5q11 82 34.5 169.5t57.5 172t78 162t98 142.5t117 110h108q-60 -55 -112.5 -120.5t-95.5 -139.5t-77.5 -155t-59 -166.5t-40.5 -174.5q-17 -157 -3.5 -294t58 -252t118.5 -210h-108z" />
    <glyph glyph-name="parenright" unicode=")" horiz-adv-x="607" 
d="M-14 -112q101 95 178 210t129 252t78 294q10 89 9 174.5t-12 166.5t-33.5 155t-56.5 139.5t-80 120.5h108q51 -45 86.5 -110t58.5 -142.5t33 -162t8.5 -172t-13.5 -169.5q-19 -144 -67 -282.5t-126.5 -259.5t-191.5 -214h-108z" />
    <glyph glyph-name="asterisk" unicode="*" horiz-adv-x="699" 
d="M223 858l-63 52l157 181l-202 70l37 83l205 -68l31 224h89l-32 -224l223 68l16 -83l-224 -70l107 -181l-80 -52l-105 183z" />
    <glyph glyph-name="plus" unicode="+" horiz-adv-x="1160" 
d="M442 100l62 446h-446l16 108h446l62 446h108l-62 -446h446l-16 -108h-446l-62 -446h-108z" />
    <glyph glyph-name="comma" unicode="," horiz-adv-x="370" 
d="M-34 -112l109 338h108l-145 -338h-72z" />
    <glyph glyph-name="hyphen" unicode="-" horiz-adv-x="880" 
d="M114 654h640l-16 -108h-640z" />
    <glyph glyph-name="period" unicode="." horiz-adv-x="332" 
d="M43 -26q-27 0 -43 19.5t-13 47.5q4 26 26 45.5t49 19.5q28 0 44.5 -19.5t12.5 -45.5q-3 -28 -25.5 -47.5t-50.5 -19.5z" />
    <glyph glyph-name="slash" unicode="/" horiz-adv-x="673" 
d="M691 1400l-617 -1512h-108l617 1512h108z" />
    <glyph glyph-name="zero" unicode="0" horiz-adv-x="1186" 
d="M492 -26q-127 0 -218 56.5t-146 156.5t-72 231.5t4 281.5t75 282t137 231.5t190 156t234 56.5q126 0 217 -56.5t145 -156t71.5 -231.5t-3.5 -282t-75.5 -281.5t-136.5 -231.5t-189 -156.5t-233 -56.5zM507 82q140 0 247.5 85t176 225.5t91.5 307.5q25 176 -5 315.5
t-114.5 221t-221.5 81.5q-108 0 -195.5 -49.5t-153.5 -135.5t-108 -197.5t-60 -235.5q-24 -168 5.5 -308.5t113.5 -225t224 -84.5z" />
    <glyph glyph-name="one" unicode="1" horiz-adv-x="490" 
d="M124 0l181 1292h-142l47 108h218l-196 -1400h-108z" />
    <glyph glyph-name="two" unicode="2" horiz-adv-x="1073" 
d="M-18 0l13 95q99 84 213.5 180t226 196.5t205 197.5t153.5 184t70 156q12 84 -19.5 154.5t-95 112.5t-147.5 42q-85 0 -161 -42t-127.5 -112.5t-63.5 -154.5h-108q17 116 86.5 210.5t172 150.5t216.5 56t200 -56.5t128.5 -151t26.5 -209.5q-10 -73 -64 -162t-137.5 -186
t-183.5 -195t-203.5 -189.5t-196.5 -168.5h684l-15 -108h-873z" />
    <glyph glyph-name="three" unicode="3" horiz-adv-x="971" 
d="M383 -26q-128 0 -216 55.5t-127.5 148.5t-23.5 205h108q-12 -83 16.5 -151.5t93.5 -109t164 -40.5q83 0 161 40.5t133 109t66 151.5q15 102 -27 170t-125 102t-196 34l13 93q156 0 262 69t124 201q10 73 -21.5 133.5t-90.5 97t-132 36.5q-74 0 -145.5 -36.5t-121 -97
t-60.5 -133.5h-108q11 77 52.5 145t105 119.5t138.5 81t153 29.5q103 0 185 -51t125 -136t28 -188q-15 -110 -84.5 -194t-170.5 -119q79 -27 128.5 -80t68.5 -123t7 -153q-15 -112 -88 -205t-177.5 -148.5t-217.5 -55.5z" />
    <glyph glyph-name="four" unicode="4" horiz-adv-x="1071" 
d="M588 0l58 409h-607l16 111l700 880h137l-124 -883h157l-15 -108h-156l-58 -409h-108zM185 520l475 -3l100 724z" />
    <glyph glyph-name="five" unicode="5" horiz-adv-x="1094" 
d="M420 -26q-126 0 -220 61t-140 164t-29 227h108q-13 -95 22.5 -173t107 -124.5t166.5 -46.5t179 46.5t142 124.5t71 173q14 94 -21 172.5t-108.5 125t-176.5 46.5h-335l215 630h645l-15 -108h-558l-139 -414h182q143 -1 243.5 -58.5t147.5 -159t28 -234.5
q-13 -93 -59.5 -175t-118 -144.5t-157.5 -97.5t-180 -35z" />
    <glyph glyph-name="six" unicode="6" horiz-adv-x="1070" 
d="M427 -26q-131 0 -231 65t-149.5 174.5t-30.5 241.5q11 79 36.5 132t71.5 121l494 692h126l-372 -519q96 43 189.5 44.5t175 -32.5t140 -97t86.5 -150t13 -191q-14 -99 -64 -186.5t-125.5 -153.5t-168 -103.5t-191.5 -37.5zM441 82q109 0 200.5 52.5t152 138t74.5 183.5
q14 102 -24 186t-115.5 134t-180.5 50q-106 0 -197.5 -51.5t-152 -135.5t-74.5 -183q-15 -106 24 -190.5t116.5 -134t176.5 -49.5z" />
    <glyph glyph-name="seven" unicode="7" horiz-adv-x="1060" 
d="M52 0l925 1292h-854l15 108h980l-15 -108l-928 -1292h-123z" />
    <glyph glyph-name="eight" unicode="8" horiz-adv-x="1041" 
d="M418 -26q-121 0 -213.5 55t-138.5 147.5t-31 204.5q17 118 98 213t194 143q-83 45 -129 129.5t-33 186.5q15 103 81.5 187.5t165.5 135t210 50.5t196 -50.5t127.5 -135t28.5 -187.5q-14 -102 -84 -186.5t-166 -129.5q101 -48 155 -143t38 -213q-16 -112 -88.5 -204.5
t-180.5 -147.5t-230 -55zM433 82q91 0 170.5 40.5t132.5 108.5t65 150q12 83 -22.5 151t-102.5 108t-158 40q-89 0 -168.5 -40t-133 -108t-65.5 -151q-12 -82 22.5 -150t102.5 -108.5t157 -40.5zM532 788q81 0 151 36t117.5 96t57.5 133q11 74 -19.5 134t-90.5 95.5
t-140 35.5t-150.5 -35.5t-118 -95.5t-58.5 -134q-10 -73 20.5 -133t91 -96t139.5 -36z" />
    <glyph glyph-name="nine" unicode="9" horiz-adv-x="1040" 
d="M273 0l399 556q-114 -50 -224 -40t-195.5 69.5t-129 157t-25.5 221.5q13 95 60.5 179t119.5 147.5t160.5 99.5t183.5 36q126 0 221.5 -62.5t143.5 -167.5t31 -232q-11 -75 -36.5 -125t-68.5 -116l-516 -723h-124zM505 611q102 0 189.5 49t145.5 129.5t71 173.5
q14 101 -23.5 181.5t-111.5 127.5t-168 47q-104 0 -191 -49.5t-144.5 -131t-71.5 -175.5q-13 -97 23.5 -177t110 -127.5t170.5 -47.5z" />
    <glyph glyph-name="colon" unicode=":" horiz-adv-x="332" 
d="M169 868q-27 0 -43.5 19.5t-12.5 47.5q4 26 25.5 45.5t48.5 19.5q28 0 45 -19.5t13 -45.5q-4 -28 -26 -47.5t-50 -19.5zM43 -26q-27 0 -43 19.5t-13 47.5q4 26 26 45.5t49 19.5q28 0 44.5 -19.5t12.5 -45.5q-3 -28 -25.5 -47.5t-50.5 -19.5z" />
    <glyph glyph-name="semicolon" unicode=";" horiz-adv-x="380" 
d="M-34 -112l109 338h108l-145 -338h-72zM219 868q-28 0 -45.5 19t-12.5 46q3 28 25.5 47.5t50.5 19.5q26 0 42.5 -19.5t13.5 -47.5q-5 -27 -26.5 -46t-47.5 -19z" />
    <glyph glyph-name="less" unicode="&#x3c;" horiz-adv-x="1160" 
d="M1014 227l-960 284l24 176l1040 286l-15 -114l-951 -259l877 -261z" />
    <glyph glyph-name="equal" unicode="=" horiz-adv-x="1160" 
d="M31 348l14 108h1000l-14 -108h-1000zM87 744l14 108h1000l-14 -108h-1000z" />
    <glyph glyph-name="greater" unicode="&#x3e;" horiz-adv-x="1160" 
d="M14 230l16 111l950 259l-878 257l16 113l960 -283l-24 -176z" />
    <glyph glyph-name="question" unicode="?" horiz-adv-x="971" 
d="M396 497q13 95 72 174t149 125q69 35 115.5 101t57.5 145q11 77 -17.5 140t-86.5 100t-135 37q-76 0 -144 -37t-114 -100t-57 -140h-108q16 107 79.5 194t158.5 139t201 52t186.5 -52t120.5 -139t24 -194q-15 -109 -80.5 -200.5t-164.5 -141.5q-61 -30 -100.5 -84
t-48.5 -119h-108zM369 -26q-27 0 -43.5 20t-13.5 47q4 27 26 46t49 19q28 0 44.5 -19t12.5 -46q-3 -27 -25.5 -47t-49.5 -20z" />
    <glyph glyph-name="at" unicode="@" horiz-adv-x="1699" 
d="M728 -166q-159 0 -291 52t-225 147.5t-134.5 227t-18.5 290.5t102 298.5t200 245t269 165.5t307 60q161 0 292 -60t221.5 -166t130.5 -245.5t17 -297.5q-11 -78 -41.5 -157t-76.5 -144.5t-105.5 -105t-128.5 -39.5q-56 0 -105.5 26.5t-77.5 72.5t-23 104
q-52 -70 -129 -112.5t-171 -42.5q-109 0 -192 53.5t-123.5 144t-25.5 200.5q16 110 82 200t164 143.5t207 53.5q93 0 160.5 -41.5t98.5 -111.5l19 133l90 -10l-82 -583q-7 -52 31 -87t88 -35q65 0 112.5 51.5t78.5 129.5t42 157q19 137 -15.5 257t-113 210.5t-191 142
t-249.5 51.5q-136 0 -263 -51t-230.5 -142t-172.5 -210.5t-88 -257.5q-19 -137 17 -249t115.5 -192.5t193 -124t250.5 -43.5zM758 245q85 0 152.5 46.5t110 120.5t53.5 153q10 76 -10.5 142t-75 107.5t-145.5 41.5q-85 0 -160 -41t-125.5 -110t-62.5 -154
q-12 -86 20.5 -155.5t96.5 -110t146 -40.5z" />
    <glyph glyph-name="A" unicode="A" horiz-adv-x="1321" 
d="M687 1400h142l314 -1400h-115l-72 316h-700l-159 -316h-115zM311 424h621l-191 853z" />
    <glyph glyph-name="B" unicode="B" horiz-adv-x="1097" 
d="M22 0l196 1400h461q100 0 176 -40.5t114 -118t22 -190.5q-9 -68 -43 -127.5t-78.5 -100t-87.5 -49.5q59 -17 99.5 -55.5t64 -91t30.5 -111.5t-2 -118q-16 -121 -79 -210.5t-154 -138.5t-194 -49h-525zM143 99h411q77 0 145.5 40.5t116.5 111t59 159.5q12 80 -15.5 150
t-84.5 113.5t-134 43.5h-411zM244 815h346q107 0 192 61.5t101 175.5q18 127 -50 188t-175 61h-345z" />
    <glyph glyph-name="C" unicode="C" horiz-adv-x="1418" 
d="M666 -26q-142 0 -259 56.5t-197.5 156t-115.5 231.5t-14 282t93 282t180.5 231.5t241.5 156t275 56.5q170 0 301.5 -79t207.5 -210l-102 -52q-63 107 -175.5 170t-246.5 63q-121 0 -233.5 -49t-204 -134.5t-151.5 -197.5t-78 -237q-18 -128 11 -239.5t97 -197
t166.5 -133.5t218.5 -48q139 0 268 64t219 167l88 -51q-112 -131 -266 -209.5t-324 -78.5z" />
    <glyph glyph-name="D" unicode="D" horiz-adv-x="1343" 
d="M22 0l196 1400h463q145 0 264.5 -54.5t202 -151t119 -223t16.5 -271.5t-92 -271.5t-182 -223t-244.5 -151t-279.5 -54.5h-463zM145 108h354q123 0 237 46t206.5 127.5t153.5 188.5t79 230q17 123 -14 230t-101 188.5t-171 127.5t-224 46h-354z" />
    <glyph glyph-name="E" unicode="E" horiz-adv-x="1064" 
d="M22 0l196 1400h844l-15 -108h-736l-68 -488h615l-14 -108h-617l-82 -588h736l-15 -108h-844z" />
    <glyph glyph-name="F" unicode="F" horiz-adv-x="956" 
d="M22 0l196 1400h816l-15 -108h-708l-68 -488h611l-14 -108h-613l-97 -696h-108z" />
    <glyph glyph-name="G" unicode="G" horiz-adv-x="1536" 
d="M667 -26q-143 0 -260.5 56.5t-198 157t-115 232t-13.5 281.5q21 151 94 283t182.5 231t242 154.5t274.5 55.5q163 0 296 -76t212 -212l-104 -52q-69 112 -180 172.5t-240 60.5q-120 0 -233 -48.5t-205 -134t-152.5 -197.5t-78.5 -239t11.5 -238.5t97.5 -196.5t167 -133.5
t219 -48.5q104 0 202 36.5t181.5 102.5t147 153t97.5 188h-415l14 100h541q-26 -143 -99.5 -267.5t-180.5 -219t-236.5 -148t-267.5 -53.5z" />
    <glyph glyph-name="H" unicode="H" horiz-adv-x="1239" 
d="M1109 1400h108l-196 -1400h-108l97 696h-783l-97 -696h-108l196 1400h108l-83 -596h782z" />
    <glyph glyph-name="I" unicode="I" horiz-adv-x="408" 
d="M52 0l196 1400h108l-196 -1400h-108z" />
    <glyph glyph-name="J" unicode="J" horiz-adv-x="777" 
d="M178 -26q-66 0 -124.5 21.5t-103.5 65.5l81 84q30 -30 71.5 -46.5t89.5 -16.5q75 0 142 40.5t112.5 105t55.5 138.5l145 1034h108l-145 -1034q-14 -104 -77.5 -193t-157 -144t-197.5 -55z" />
    <glyph glyph-name="K" unicode="K" horiz-adv-x="1033" 
d="M883 0h-139l-388 653l-157 -161l-69 -492h-108l196 1400h108l-104 -740l724 740h141l-648 -661z" />
    <glyph glyph-name="L" unicode="L" horiz-adv-x="990" 
d="M22 0l196 1400h108l-181 -1292h662l-15 -108h-770z" />
    <glyph glyph-name="M" unicode="M" horiz-adv-x="1738" 
d="M22 0l467 1400h71l257 -1071l556 1071h71l76 -1400h-110l-61 1134l-531 -1024h-65l-244 1024l-378 -1134h-109z" />
    <glyph glyph-name="N" unicode="N" horiz-adv-x="1250" 
d="M22 0l196 1400h118l615 -1205l169 1205h108l-196 -1400h-116l-617 1205l-169 -1205h-108z" />
    <glyph glyph-name="O" unicode="O" horiz-adv-x="1540" 
d="M668 -26q-142 0 -259.5 56.5t-198 156.5t-116 231.5t-14.5 281.5t93 281.5t181.5 231.5t242.5 156.5t275 56.5q143 0 260 -56.5t197.5 -156.5t116 -231.5t14.5 -281.5t-93 -281.5t-181.5 -231.5t-242 -156.5t-275.5 -56.5zM683 82q121 0 233.5 49t204.5 134.5
t152.5 197.5t78.5 237q18 127 -11.5 239t-97.5 197t-166.5 133.5t-219.5 48.5t-233.5 -49t-204.5 -134.5t-152.5 -197.5t-78.5 -237q-18 -127 11.5 -239t97.5 -197.5t166.5 -133.5t219.5 -48z" />
    <glyph glyph-name="P" unicode="P" horiz-adv-x="1028" 
d="M22 0l196 1400h432q111 0 193 -53.5t122.5 -145.5t23.5 -206q-16 -116 -83 -208t-164.5 -145t-205.5 -53h-324l-82 -589h-108zM227 697h317q81 0 153.5 39.5t122.5 107.5t62 155q12 86 -18 154.5t-92 108t-143 39.5h-316z" />
    <glyph glyph-name="Q" unicode="Q" horiz-adv-x="1547" 
d="M1287 -18l-147 170q-102 -83 -223 -129.5t-249 -46.5q-143 0 -260 56.5t-198 156t-116 231.5t-14 282t93 281.5t181 231.5t242 156.5t276 56.5t259.5 -56.5t197.5 -156.5t116 -231.5t14 -281.5q-20 -136 -81 -256.5t-153 -216.5l149 -171zM683 84q101 0 203.5 38
t186.5 108l-199 231l87 78l196 -230q78 82 128.5 183.5t65.5 209.5q17 127 -12.5 239t-97.5 197.5t-166 133.5t-218 48q-121 0 -233.5 -49t-204.5 -135t-152.5 -197.5t-78.5 -236.5q-18 -128 11.5 -239.5t98 -197t167 -133.5t218.5 -48z" />
    <glyph glyph-name="R" unicode="R" horiz-adv-x="1085" 
d="M22 0l196 1400h456q111 0 193.5 -53.5t122 -145.5t23.5 -206q-14 -106 -70.5 -191t-140.5 -139.5t-181 -68.5l262 -596h-125l-259 589h-287l-82 -589h-108zM227 697h341q81 0 154 39.5t122.5 107.5t61.5 155q13 86 -17.5 154.5t-92.5 108t-142 39.5h-341z" />
    <glyph glyph-name="S" unicode="S" horiz-adv-x="1211" 
d="M503 -26q-111 0 -210 34.5t-167.5 98t-87.5 152.5l107 38q15 -68 71 -116.5t136 -73.5t166 -25q102 0 196 35t158 97.5t76 148.5t-37 141.5t-134 88t-180 50.5q-138 25 -244.5 66.5t-161 117.5t-37.5 204q17 119 99 206t202 135t251 48q107 0 205.5 -33.5t169 -97.5
t92.5 -156l-109 -37q-14 69 -71 117t-137 73t-165 25q-103 1 -196.5 -34.5t-156.5 -98.5t-76 -147q-13 -97 30.5 -150t128 -79.5t191.5 -47.5q129 -23 236 -70.5t165.5 -126t42.5 -194.5q-17 -118 -98.5 -205.5t-201.5 -135.5t-253 -48z" />
    <glyph glyph-name="T" unicode="T" horiz-adv-x="1259" 
d="M1277 1400l-16 -108h-496l-180 -1292h-108l180 1292h-494l15 108h1099z" />
    <glyph glyph-name="U" unicode="U" horiz-adv-x="1316" 
d="M556 -26q-168 0 -277 82t-154 220.5t-21 307.5l114 816h108l-114 -816q-19 -137 14.5 -251t119.5 -182.5t225 -68.5q140 0 245.5 69t170.5 183.5t85 249.5l114 816h108l-114 -816q-18 -127 -70.5 -237.5t-134 -194.5t-187.5 -131t-232 -47z" />
    <glyph glyph-name="V" unicode="V" horiz-adv-x="1215" 
d="M446 0l-312 1400h115l280 -1258l634 1258h114l-705 -1400h-126z" />
    <glyph glyph-name="W" unicode="W" horiz-adv-x="1634" 
d="M296 0l-162 1400h111l142 -1221l481 1221h94l141 -1221l481 1221h111l-552 -1400h-131l-133 1145l-453 -1145h-130z" />
    <glyph glyph-name="X" unicode="X" horiz-adv-x="1279" 
d="M-38 0l612 704l-410 696h133l356 -605l525 605h133l-603 -696l413 -704h-134l-360 611l-530 -611h-135z" />
    <glyph glyph-name="Y" unicode="Y" horiz-adv-x="1165" 
d="M1076 1400h127l-576 -765l-89 -635h-108l89 635l-361 765h127l304 -647z" />
    <glyph glyph-name="Z" unicode="Z" horiz-adv-x="1292" 
d="M-18 0l15 108l1154 1184h-988l15 108h1132l-15 -108l-1154 -1184h988l-15 -108h-1132z" />
    <glyph glyph-name="bracketleft" unicode="[" horiz-adv-x="507" 
d="M308 -4l-15 -108h-287l212 1512h287l-15 -108h-179l-182 -1296h179z" />
    <glyph glyph-name="backslash" unicode="\" horiz-adv-x="673" 
d="M371 -112l-193 1512h108l193 -1512h-108z" />
    <glyph glyph-name="bracketright" unicode="]" horiz-adv-x="507" 
d="M-14 -112l15 108h180l182 1296h-180l15 108h287l-212 -1512h-287z" />
    <glyph glyph-name="asciicircum" unicode="^" horiz-adv-x="732" 
d="M122 1000l328 650h100l144 -650h-115l-105 471l-238 -471h-114z" />
    <glyph glyph-name="underscore" unicode="_" horiz-adv-x="1240" 
d="M21 -4h1000l-15 -108h-1000z" />
    <glyph glyph-name="grave" unicode="`" horiz-adv-x="668" 
d="M322 1398h108l40 -288h-72z" />
    <glyph glyph-name="a" unicode="a" horiz-adv-x="1150" 
d="M1005 1000h108l-140 -1000h-108l26 205q-66 -104 -169.5 -167.5t-235.5 -63.5q-109 0 -199 41.5t-152.5 114t-90 168t-11.5 205.5q15 109 68.5 204t136 167.5t183 113t208.5 40.5q133 0 222 -64.5t128 -168.5zM499 80q116 0 206.5 56.5t147.5 152.5t74 211
q17 118 -14.5 213.5t-106 152t-188.5 56.5q-115 0 -218 -57t-172.5 -153t-85.5 -212q-16 -118 27.5 -213t130.5 -151t199 -56z" />
    <glyph glyph-name="b" unicode="b" horiz-adv-x="1192" 
d="M652 1028q145 0 254.5 -71t164 -190.5t33.5 -265.5q-15 -109 -69.5 -204.5t-137 -168t-183.5 -113.5t-210 -41q-133 0 -219.5 64t-124.5 168l-29 -206h-108l210 1500h108l-98 -704q67 104 171.5 168t237.5 64zM518 80q116 0 218.5 57t172 152.5t86.5 211.5
q17 118 -27 213.5t-131.5 151.5t-199.5 56q-116 0 -206.5 -57t-148 -153t-73.5 -211q-16 -118 15 -213t105.5 -151.5t188.5 -56.5z" />
    <glyph glyph-name="c" unicode="c" horiz-adv-x="1019" 
d="M797 235l89 -52q-82 -95 -194 -152t-234 -57q-138 0 -241.5 71t-154 190.5t-30.5 264.5q15 110 67.5 205.5t131.5 168t175.5 113.5t199.5 41q122 0 218.5 -57t151.5 -153l-104 -51q-46 74 -121.5 113.5t-159.5 39.5q-110 0 -207 -57.5t-162.5 -153t-81.5 -209.5
q-16 -115 23.5 -210t120.5 -151.5t189 -56.5q91 0 177 43t147 110z" />
    <glyph glyph-name="d" unicode="d" horiz-adv-x="1191" 
d="M1075 1500h108l-210 -1500h-108l29 206q-67 -105 -172 -168.5t-238 -63.5q-109 0 -198.5 41t-151.5 113.5t-89.5 167.5t-12.5 204t69.5 204.5t137 168t183.5 113.5t210 41q133 0 220 -63.5t125 -167.5zM499 80q116 0 206.5 56.5t147.5 152.5t74 211q17 118 -14.5 213.5
t-106 152t-188.5 56.5q-115 0 -217.5 -57t-172.5 -153t-86 -212q-16 -118 27.5 -213t130.5 -151t199 -56z" />
    <glyph glyph-name="e" unicode="e" horiz-adv-x="1117" 
d="M458 -26q-138 0 -241.5 71t-154 190.5t-30.5 264.5q15 110 67.5 205.5t131.5 168t175.5 113.5t199.5 41q109 0 195.5 -42.5t142.5 -119.5t77.5 -181.5t0.5 -228.5h-883q-4 -107 37.5 -191.5t118 -133t178.5 -49.5q111 0 209 58.5t165 160.5l105 -25
q-79 -133 -211.5 -217.5t-282.5 -84.5zM149 548h778q8 103 -33.5 189.5t-119.5 138.5t-181 52q-104 0 -196 -51t-157.5 -137.5t-90.5 -191.5z" />
    <glyph glyph-name="f" unicode="f" horiz-adv-x="648" 
d="M384 1277l-39 -277h309l-14 -108h-310l-125 -892h-108l125 892h-145l15 108h145l39 277q10 68 51.5 124t102.5 89.5t129 33.5q50 0 93 -19.5t74 -56.5l-87 -76q-16 21 -41 32.5t-54 11.5q-58 0 -104.5 -41t-55.5 -98z" />
    <glyph glyph-name="g" unicode="g" horiz-adv-x="1159" 
d="M973 1000h108l-145 -1042q-13 -93 -65.5 -175.5t-131 -146t-171 -100t-185.5 -36.5q-104 0 -194 48.5t-149 129.5t-72 177l105 46q7 -81 54 -147.5t119 -105.5t152 -39q72 0 144 28t133 76.5t102 111.5t51 133l34 245q-68 -102 -171 -165.5t-228 -63.5q-104 0 -190 41
t-145 113.5t-85 167.5t-11 204t68 204.5t132.5 168t177 113.5t201.5 41q125 0 210 -62.5t125 -166.5zM479 80q111 0 200 58t146.5 154t72.5 208q16 115 -14.5 210.5t-103.5 153.5t-183 58q-111 0 -208.5 -57t-164 -153t-82.5 -212q-16 -117 24 -212t122.5 -151.5
t190.5 -56.5z" />
    <glyph glyph-name="h" unicode="h" horiz-adv-x="1059" 
d="M967 615l-86 -615h-108l84 598q12 89 -21 162t-99.5 116t-155.5 43t-168 -43t-132 -116t-66 -162l-84 -598h-108l210 1500h108l-91 -653q66 83 161.5 132t200.5 49q115 0 200.5 -55.5t128 -149.5t26.5 -208z" />
    <glyph glyph-name="i" unicode="i" 
d="M162 1000h108l-140 -1000h-108zM244 1189q-28 0 -45 18.5t-13 46.5t26 46.5t50 18.5q27 0 44 -18.5t13 -46.5q-5 -28 -26 -46.5t-49 -18.5z" />
    <glyph glyph-name="j" unicode="j" horiz-adv-x="427" 
d="M-249 -500l16 108q80 0 148 35t113 96t56 137l157 1124h108l-157 -1124q-15 -104 -77.5 -189.5t-157.5 -136t-206 -50.5zM323 1189q-28 0 -45 18.5t-13 46.5t26 46.5t50 18.5q27 0 44 -18.5t13 -46.5q-5 -28 -26 -46.5t-49 -18.5z" />
    <glyph glyph-name="k" unicode="k" horiz-adv-x="956" 
d="M769 0h-124l-225 511l-254 -261l-35 -250h-108l210 1500h108l-152 -1082l570 582h141l-394 -401z" />
    <glyph glyph-name="l" unicode="l" 
d="M23 0l210 1500h108l-210 -1500h-108z" />
    <glyph glyph-name="m" unicode="m" horiz-adv-x="1776" 
d="M22 0l140 1000h108l-21 -153q66 83 161 132t201 49q116 0 203.5 -57.5t126.5 -152.5q67 95 170 152.5t219 57.5q114 0 200 -55.5t129 -149.5t26 -208l-86 -615h-108l84 595q12 87 -20 160.5t-96.5 118.5t-151.5 45t-164 -41.5t-129 -114.5t-66 -168l-83 -595h-108l83 595
q14 95 -18.5 168t-97.5 114.5t-152 41.5q-86 0 -163.5 -45t-130 -118.5t-64.5 -160.5l-84 -595h-108z" />
    <glyph glyph-name="n" unicode="n" horiz-adv-x="1058" 
d="M966 615l-86 -615h-108l84 598q12 89 -21 162t-99.5 116t-155.5 43t-168 -43t-132 -116t-66 -162l-84 -598h-108l140 1000h108l-21 -153q66 83 161.5 132t200.5 49q115 0 200.5 -55.5t128 -149.5t26.5 -208z" />
    <glyph glyph-name="o" unicode="o" horiz-adv-x="1120" 
d="M458 -26q-138 0 -241.5 71t-154 190.5t-30.5 264.5q15 110 67.5 205.5t131.5 168t175.5 113.5t199.5 41q138 0 241.5 -71t154.5 -191t30 -266q-15 -109 -67.5 -204t-131.5 -167.5t-175 -113.5t-200 -41zM473 82q110 0 207 58t163 153t81 207q16 113 -23 209t-119 153.5
t-191 57.5t-208 -58t-162 -153.5t-81 -208.5q-16 -117 24 -211.5t121 -150.5t188 -56z" />
    <glyph glyph-name="p" unicode="p" horiz-adv-x="1191" 
d="M59 -500h-108l211 1500h108l-29 -206q68 104 172.5 168t237.5 64q109 0 198.5 -41t151.5 -113.5t89.5 -167.5t12.5 -204t-69.5 -205t-137 -168.5t-183.5 -113.5t-210 -41q-133 0 -220 64t-125 168zM635 920q-114 0 -204.5 -56.5t-148.5 -151.5t-74 -212
q-16 -115 14.5 -211t104.5 -153.5t189 -57.5q113 0 216 56t174 151.5t88 214.5q16 115 -27 210.5t-130 152.5t-202 57z" />
    <glyph glyph-name="q" unicode="q" horiz-adv-x="1191" 
d="M484 -28q-145 0 -254.5 71t-163.5 191t-34 266q15 109 69.5 204t137 167.5t183.5 113.5t210 41q133 0 219.5 -64t124.5 -168l29 206h108l-211 -1500h-108l99 704q-67 -104 -171.5 -168t-237.5 -64zM618 920q-116 0 -218.5 -57t-172 -152.5t-85.5 -210.5
q-16 -119 27.5 -214.5t130.5 -151.5t199 -56q116 0 206 57.5t147.5 153.5t74.5 211q16 117 -15.5 212t-106 151.5t-187.5 56.5z" />
    <glyph glyph-name="r" unicode="r" horiz-adv-x="698" 
d="M22 0l140 1000h108l-21 -153q66 83 161.5 132t200.5 49q59 0 111 -15l-60 -106q-40 12 -82 12q-89 0 -168 -43t-132 -116t-66 -162l-84 -598h-108z" />
    <glyph glyph-name="s" unicode="s" horiz-adv-x="856" 
d="M332 -19q-83 1 -158.5 29.5t-127.5 76.5t-67 109l101 41q11 -45 54 -81t102 -56.5t117 -20.5q68 0 130.5 23t105.5 65t50 99q9 60 -25.5 94.5t-92 56t-118.5 40.5q-105 32 -181 65.5t-113 85.5t-25 137q12 88 72.5 153t148.5 100.5t183 35.5q123 0 215.5 -54t122.5 -142
l-96 -52q-13 46 -51.5 79t-91 51t-107.5 19q-70 1 -134 -21.5t-106.5 -65t-51.5 -102.5t21 -92t88 -51.5t134 -45.5q89 -29 164.5 -64.5t117.5 -88.5t30 -137q-13 -88 -74.5 -153t-151 -100t-185.5 -33z" />
    <glyph glyph-name="t" unicode="t" horiz-adv-x="682" 
d="M651 892h-253l-127 -892h-108l127 892h-191l14 108h191l43 314h108l-43 -314h253z" />
    <glyph glyph-name="u" unicode="u" horiz-adv-x="1018" 
d="M36 387l86 613h108l-84 -596q-12 -89 21 -162t100 -116t155 -43q89 0 168 43t132.5 116t66.5 162l83 596h108l-140 -1000h-108l21 155q-65 -82 -160.5 -131.5t-201.5 -49.5q-114 0 -200 55.5t-128.5 149.5t-26.5 208z" />
    <glyph glyph-name="v" unicode="v" horiz-adv-x="987" 
d="M463 0h-136l-224 1003h115l195 -875l441 875h115z" />
    <glyph glyph-name="w" unicode="w" horiz-adv-x="1601" 
d="M411 0h-114l-195 1000h105l169 -855l407 855h119l167 -855l407 855h107l-476 -1000h-115l-170 864z" />
    <glyph glyph-name="x" unicode="x" horiz-adv-x="1025" 
d="M-18 0l436 502l-294 501h133l241 -408l356 408h133l-436 -501l296 -502h-133l-242 411l-357 -411h-133z" />
    <glyph glyph-name="y" unicode="y" horiz-adv-x="998" 
d="M847 1000h113l-757 -1500h-115l253 500l-219 1000h118l175 -851z" />
    <glyph glyph-name="z" unicode="z" horiz-adv-x="1014" 
d="M961 892l-814 -784h704l-15 -108h-854l15 108l814 784h-704l15 108h854z" />
    <glyph glyph-name="braceleft" unicode="{" horiz-adv-x="798" 
d="M520 -113q-97 0 -170 47.5t-108.5 127t-22.5 175.5l34 245q3 35 -19 53t-52.5 30.5t-52 29.5t-17.5 48q5 33 31.5 50t60 29.5t61.5 30t34 51.5l34 246q14 96 72 175.5t144 127t183 47.5h64l-15 -108h-63q-66 0 -126 -32.5t-100.5 -87.5t-50.5 -122l-35 -250
q-7 -40 -23.5 -63t-46.5 -43t-80 -51q42 -34 67 -53.5t34.5 -41t5.5 -62.5l-36 -249q-9 -67 15.5 -122t75.5 -87.5t117 -32.5h64l-15 -108h-64z" />
    <glyph glyph-name="bar" unicode="|" horiz-adv-x="388" 
d="M238 1400h108l-239 -1702h-108z" />
    <glyph glyph-name="braceright" unicode="}" horiz-adv-x="798" 
d="M-14 -113l15 108h63q67 0 126.5 32.5t100 87.5t50.5 122l35 249q8 41 23.5 62.5t45.5 41t81 53.5q-40 31 -65 51t-35 43t-6 63l35 250q10 67 -15.5 122t-76 87.5t-116.5 32.5h-64l15 108h64q97 0 170 -47.5t109 -127t22 -175.5l-34 -246q-3 -34 19.5 -51.5t52.5 -30
t52 -29.5t17 -50q-4 -31 -31 -48t-60.5 -29.5t-61.5 -30.5t-34 -53l-34 -245q-13 -96 -71.5 -175.5t-144.5 -127t-183 -47.5h-64z" />
    <glyph glyph-name="asciitilde" unicode="~" horiz-adv-x="1199" 
d="M839 431q-62 0 -130.5 35t-136.5 81.5t-130.5 81.5t-113.5 34q-48 1 -87.5 -25.5t-61.5 -70t-18 -92.5l-107 -10q-8 75 30 144.5t106 114.5t149 45q60 0 124 -35.5t129 -81.5t127.5 -81.5t118.5 -35.5q49 0 89.5 26.5t63 69t17.5 89.5l106 12q10 -78 -27.5 -146.5
t-103.5 -111.5t-144 -43z" />
    <glyph glyph-name="uni00A0" unicode="&#xa0;" horiz-adv-x="480" 
 />
    <glyph glyph-name="exclamdown" unicode="&#xa1;" horiz-adv-x="300" 
d="M191 1026q28 0 44.5 -19t11.5 -48q-3 -27 -25 -46t-50 -19q-26 0 -42.5 19t-13.5 46q4 29 26 48t49 19zM177 580l-138 -980h-98l138 980h98z" />
    <glyph glyph-name="cent" unicode="&#xa2;" horiz-adv-x="1092" 
d="M437 0l28 202q-126 12 -219.5 81.5t-138.5 178.5t-27 240q19 131 95 239.5t188.5 178t241.5 80.5l28 200h88l-28 -200q122 -8 215.5 -73t140.5 -165l-101 -54q-40 85 -125 136.5t-186 51.5q-107 0 -204 -53t-163 -142.5t-82 -198.5q-15 -111 26.5 -201t124 -142.5
t188.5 -52.5q100 0 199 51.5t164 136.5l85 -54q-75 -100 -186.5 -164.5t-235.5 -73.5l-28 -202h-88z" />
    <glyph glyph-name="sterling" unicode="&#xa3;" horiz-adv-x="1150" 
d="M6 0l15 108q60 0 117 16t104 46t76 71.5t31 92.5q7 72 -10.5 120.5t-49 85t-66.5 70.5t-65 75.5t-43.5 101t-1.5 145.5q14 102 65 191.5t128.5 157.5t172.5 106.5t197 38.5q103 0 187.5 -38.5t143 -106.5t84.5 -157.5t12 -191.5h-108q15 106 -25 193.5t-121 140
t-188 52.5q-105 0 -200.5 -52.5t-160 -140t-79.5 -193.5q-12 -88 3 -144t46.5 -94t68.5 -70t68.5 -70t46.5 -94.5t3 -144.5q-6 -46 -34 -87.5t-66 -72.5t-76 -47h700l-14 -108h-961zM69 450l13 88h745l-14 -88h-744z" />
    <glyph glyph-name="currency" unicode="&#xa4;" horiz-adv-x="970" 
d="M85 294l-54 62l140 124q-40 65 -46 142t22 154.5t88 141.5l-106 126l71 62l107 -126q70 50 150 67t156 1t131 -66l142 124l53 -62l-140 -123q43 -64 49.5 -142.5t-21.5 -157t-88 -143.5l103 -122l-71 -62l-104 122q-73 -52 -153.5 -69.5t-156 0.5t-133.5 71zM448 426
q75 1 141.5 37.5t112 98t56.5 136.5q11 76 -17 137t-84.5 97t-131.5 36q-76 0 -142.5 -36t-111 -97.5t-55.5 -136.5q-11 -77 18 -138.5t86 -97.5t128 -36z" />
    <glyph glyph-name="yen" unicode="&#xa5;" horiz-adv-x="1197" 
d="M447 0l29 207h-310l11 87h310l26 179h-310l12 87h310l10 75l-361 765h127l305 -647l486 647h127l-576 -765l-10 -75h310l-12 -87h-310l-26 -179h310l-11 -87h-310l-29 -207h-108z" />
    <glyph glyph-name="brokenbar" unicode="&#xa6;" 
d="M85 448h108l-106 -750h-108zM218 1400h108l-105 -750h-108z" />
    <glyph glyph-name="section" unicode="&#xa7;" horiz-adv-x="1068" 
d="M389 -410q-123 0 -215.5 54t-122.5 141l96 52q13 -45 51.5 -78t91 -51.5t107.5 -19.5q71 0 134 22t106.5 65t51.5 102q8 62 -20.5 96.5t-86 55t-136.5 38.5q-120 25 -206 81t-125 143.5t-23 207.5q12 87 59.5 164.5t120.5 134.5t161 81q-124 24 -176 83t-38 159
q13 89 73 154t148 100t183 35q123 0 215.5 -53.5t122.5 -141.5l-96 -52q-13 45 -51.5 78t-91 51.5t-108.5 19.5q-70 0 -133.5 -22t-106 -65t-51.5 -102q-8 -61 19.5 -95.5t85 -55t137.5 -38.5q123 -28 208.5 -82.5t124.5 -141t22 -211.5q-12 -88 -60.5 -165.5t-121.5 -134
t-160 -79.5q123 -23 176 -82.5t39 -158.5q-13 -89 -73 -154t-148 -100t-183 -35zM465 185q85 0 161.5 42.5t128.5 112.5t64 154q14 100 -22 172t-103.5 110.5t-147.5 38.5q-84 0 -160.5 -42t-128.5 -114t-65 -160q-13 -89 22.5 -160t102.5 -112.5t148 -41.5z" />
    <glyph glyph-name="dieresis" unicode="&#xa8;" horiz-adv-x="1225" 
d="M523 1084q-28 0 -46 18.5t-14 46.5q4 27 27 47t51 20q27 0 44.5 -20t13.5 -47q-4 -28 -26.5 -46.5t-49.5 -18.5zM813 1084q-28 0 -46 18.5t-14 46.5q3 27 26.5 47t51.5 20q27 0 44 -20t14 -47q-5 -28 -27 -46.5t-49 -18.5z" />
    <glyph glyph-name="copyright" unicode="&#xa9;" horiz-adv-x="1771" 
d="M761 -185q-167 0 -304 62.5t-232.5 173.5t-137.5 257t-18 313q24 166 106.5 312t209 257t281.5 173.5t321 62.5q167 0 304.5 -62.5t233 -173.5t137.5 -257t18 -312q-23 -167 -106.5 -313t-209.5 -257t-281 -173.5t-322 -62.5zM776 -77q148 0 282.5 55t243 151.5
t180 222.5t90.5 269q21 145 -16 272t-120 223t-201.5 149.5t-261.5 52.5q-145 -1 -279 -56t-244 -151t-181.5 -221.5t-91.5 -268.5q-20 -148 17 -275t120 -222t202 -148t260 -53zM1132 356l89 -52q-82 -95 -194 -152t-234 -57q-138 0 -241.5 71t-154 190.5t-30.5 264.5
q15 110 67.5 205.5t131.5 168t175.5 113.5t199.5 41q122 0 218.5 -57t151.5 -153l-104 -52q-46 74 -121.5 114t-159.5 40q-110 0 -207 -58t-162.5 -153.5t-81.5 -208.5q-16 -115 23.5 -210t120.5 -151.5t189 -56.5q91 0 177 42.5t147 110.5z" />
    <glyph glyph-name="ordfeminine" unicode="&#xaa;" horiz-adv-x="1150" 
d="M1005 1000h108l-140 -1000h-108l26 205q-66 -104 -169.5 -167.5t-235.5 -63.5q-109 0 -199 41.5t-152.5 114t-90 168t-11.5 205.5q15 109 68.5 204t136 167.5t183 113t208.5 40.5q133 0 222 -64.5t128 -168.5zM499 80q116 0 206.5 56.5t147.5 152.5t74 211
q17 118 -14.5 213.5t-106 152t-188.5 56.5q-115 0 -218 -57t-172.5 -153t-85.5 -212q-16 -118 27.5 -213t130.5 -151t199 -56z" />
    <glyph glyph-name="guillemotleft" unicode="&#xab;" horiz-adv-x="972" 
d="M358 261l-252 340l348 338h124l-348 -338l252 -340h-124zM686 261l-252 340l348 338h124l-348 -338l252 -340h-124z" />
    <glyph glyph-name="logicalnot" unicode="&#xac;" horiz-adv-x="957" 
d="M717 323l62 446h-689l15 108h797l-77 -554h-108z" />
    <glyph glyph-name="uni00AD" unicode="&#xad;" horiz-adv-x="912" 
d="M146 654h640l-16 -108h-640z" />
    <glyph glyph-name="registered" unicode="&#xae;" horiz-adv-x="955" 
d="M447 483q-87 0 -158.5 33.5t-120.5 91.5t-70.5 133t-9.5 160t55 160t108.5 133t146 91t167.5 33q89 0 160 -33.5t119.5 -92.5t69.5 -133.5t9 -157.5q-11 -86 -54 -161t-108.5 -133t-146 -91t-167.5 -33zM459 573q91 0 171.5 44.5t135.5 119t67 164.5q13 90 -21 164.5
t-102 118.5t-159 44q-90 0 -170.5 -44t-135 -118.5t-67.5 -164.5q-12 -90 21.5 -164.5t101.5 -119t158 -44.5zM362 711l55 392h145q47 0 74.5 -34t20.5 -83q-6 -39 -32.5 -69t-62.5 -40l74 -166h-81l-71 161h-29l-23 -161h-70zM464 941h76q16 0 29.5 14t16.5 31
q3 20 -7 33.5t-27 13.5h-75z" />
    <glyph glyph-name="macron" unicode="&#xaf;" horiz-adv-x="1200" 
d="M342 1270h676l-13 -92h-676z" />
    <glyph glyph-name="degree" unicode="&#xb0;" horiz-adv-x="641" 
d="M340 840q-67 0 -117 33t-74.5 87.5t-15.5 119.5q10 66 49.5 120.5t99 87t125.5 32.5q68 0 117.5 -33t74 -87t15.5 -120q-9 -67 -49.5 -121.5t-99.5 -86.5t-125 -32zM356 948q55 0 99 38.5t51 93.5q8 56 -25 94t-88 38t-99.5 -38t-52.5 -94q-7 -55 26.5 -93.5t88.5 -38.5z
" />
    <glyph glyph-name="plusminus" unicode="&#xb1;" horiz-adv-x="1160" 
d="M473 320l62 446h-446l15 108h446l63 446h108l-63 -446h446l-15 -108h-446l-62 -446h-108zM-18 0l15 108h1000l-15 -108h-1000z" />
    <glyph glyph-name="uni00B2" unicode="&#xb2;" horiz-adv-x="681" 
d="M113 818l12 88q42 26 104 67t126 90t111 99.5t59 95.5q7 54 -25.5 87.5t-85.5 33.5q-54 0 -97.5 -33.5t-50.5 -87.5h-92q9 61 45.5 108.5t91 74.5t115.5 27q91 0 147 -59.5t43 -150.5q-6 -44 -40 -92t-83.5 -95.5t-104.5 -89t-103 -72.5h279l-12 -91h-439z" />
    <glyph glyph-name="uni00B3" unicode="&#xb3;" horiz-adv-x="550" 
d="M290 798q-84 0 -136.5 54t-40.5 139h91q-7 -47 22 -75.5t76 -28.5t83 28.5t42 75.5q7 53 -28 85.5t-107 32.5l10 79q66 0 104 27.5t45 74.5q5 39 -20.5 63.5t-64.5 24.5t-71 -24.5t-37 -63.5h-91q11 79 72.5 128t139.5 49t126 -49t37 -128q-6 -43 -30.5 -82.5
t-54.5 -56.5q38 -33 54 -68.5t7 -91.5q-11 -85 -78 -139t-150 -54z" />
    <glyph glyph-name="acute" unicode="&#xb4;" horiz-adv-x="668" 
d="M314 1110l120 288h108l-156 -288h-72z" />
    <glyph glyph-name="uni00B5" unicode="&#xb5;" horiz-adv-x="1033" 
d="M-79 -432l201 1432h108l-76 -538q-14 -105 18 -192t99.5 -138.5t160.5 -51.5q91 0 172.5 51.5t137 138.5t70.5 192l75 538h108l-140 -1000h-108l26 183q-72 -98 -166.5 -154t-199.5 -56q-104 0 -180 54.5t-114 139.5l-84 -599h-108z" />
    <glyph glyph-name="paragraph" unicode="&#xb6;" horiz-adv-x="795" 
d="M279 -302l144 1020q-94 0 -165 46t-106 123.5t-22 171.5q14 94 70.5 171.5t140 123.5t177.5 46h108l-239 -1702h-108zM466 -302l239 1702h108l-239 -1702h-108z" />
    <glyph glyph-name="periodcentered" unicode="&#xb7;" horiz-adv-x="292" 
d="M122 534q-27 0 -43.5 19.5t-12.5 47.5q4 26 25.5 45.5t48.5 19.5q28 0 45 -19.5t13 -45.5q-4 -28 -26 -47.5t-50 -19.5z" />
    <glyph glyph-name="cedilla" unicode="&#xb8;" horiz-adv-x="1201" 
d="M438 -364q-63 -17 -113.5 15t-58.5 93l78 20q4 -30 29 -45.5t55 -7.5q32 9 51.5 35.5t15.5 56.5q-4 31 -29 46t-56 8l-88 -16l147 204l62 -39l-54 -75q38 -9 64.5 -37.5t31.5 -69.5q8 -62 -31.5 -117t-103.5 -71z" />
    <glyph glyph-name="uni00B9" unicode="&#xb9;" horiz-adv-x="414" 
d="M196 818l75 540h-82l25 91h161l-88 -631h-91z" />
    <glyph glyph-name="ordmasculine" unicode="&#xba;" horiz-adv-x="1120" 
d="M458 -26q-138 0 -241.5 71t-154 190.5t-30.5 264.5q15 110 67.5 205.5t131.5 168t175.5 113.5t199.5 41q138 0 241.5 -71t154.5 -191t30 -266q-15 -109 -67.5 -204t-131.5 -167.5t-175 -113.5t-200 -41zM473 82q110 0 207 58t163 153t81 207q16 113 -23 209t-119 153.5
t-191 57.5t-208 -58t-162 -153.5t-81 -208.5q-16 -117 24 -211.5t121 -150.5t188 -56z" />
    <glyph glyph-name="guillemotright" unicode="&#xbb;" horiz-adv-x="992" 
d="M366 261l347 340l-251 338h124l252 -338l-348 -340h-124zM38 261l347 340l-251 338h124l252 -338l-348 -340h-124z" />
    <glyph glyph-name="onequarter" unicode="&#xbc;" horiz-adv-x="1542" 
d="M196 818l75 540h-82l25 91h161l-88 -631h-91zM85 0l1004 1400h104l-1004 -1400h-104zM1135 0l18 128h-273l15 111l304 392h116l-58 -412h73l-12 -91h-74l-17 -128h-92zM987 219h182l41 288z" />
    <glyph glyph-name="onehalf" unicode="&#xbd;" horiz-adv-x="1546" 
d="M196 818l75 540h-82l25 91h161l-88 -631h-91zM85 0l1004 1400h104l-1004 -1400h-104zM862 0l12 88q42 26 104 67t126 90t111 100t59 96q8 54 -25 87t-86 33q-54 0 -97 -33t-51 -87h-92q9 60 45.5 108t90.5 75.5t116 27.5q61 0 107 -27.5t69 -75.5t14 -108
q-6 -44 -40 -92.5t-83.5 -95.5t-104.5 -88.5t-103 -73.5h279l-12 -91h-439z" />
    <glyph glyph-name="threequarters" unicode="&#xbe;" horiz-adv-x="1678" 
d="M290 798q-84 0 -136.5 54t-40.5 139h91q-7 -47 22 -75.5t76 -28.5t83 28.5t42 75.5q7 53 -28 85.5t-107 32.5l10 79q66 0 104 27.5t45 74.5q5 39 -20.5 63.5t-64.5 24.5t-71 -24.5t-37 -63.5h-91q11 79 72.5 128t139.5 49t126 -49t37 -128q-6 -43 -30.5 -82.5
t-54.5 -56.5q38 -33 54 -68.5t7 -91.5q-11 -85 -78 -139t-150 -54zM221 0l1004 1400h104l-1004 -1400h-104zM1271 0l18 128h-273l15 111l304 392h116l-58 -412h73l-12 -91h-74l-17 -128h-92zM1123 219h182l41 288z" />
    <glyph glyph-name="questiondown" unicode="&#xbf;" horiz-adv-x="940" 
d="M307 -427q-107 0 -187 52t-119.5 139.5t-24.5 193.5q15 109 81 201.5t163 140.5q62 31 102 85t49 119h108q-14 -93 -72 -172.5t-149 -126.5q-69 -35 -116 -101.5t-58 -145.5q-11 -76 17.5 -139t86.5 -100.5t135 -37.5q76 0 144.5 37.5t115 100.5t57.5 139h108
q-15 -106 -79.5 -193.5t-159.5 -139.5t-202 -52zM487 894q-27 0 -44 19t-13 46q4 29 26 48t50 19q27 0 43 -19t12 -48q-3 -27 -25 -46t-49 -19z" />
    <glyph glyph-name="Agrave" unicode="&#xc0;" horiz-adv-x="1321" 
d="M687 1400h142l314 -1400h-115l-72 316h-700l-159 -316h-115zM311 424h621l-191 853zM642 1798h108l40 -288h-72z" />
    <glyph glyph-name="Aacute" unicode="&#xc1;" horiz-adv-x="1321" 
d="M687 1400h142l314 -1400h-115l-72 316h-700l-159 -316h-115zM311 424h621l-191 853zM750 1510l120 288h108l-156 -288h-72z" />
    <glyph glyph-name="Acircumflex" unicode="&#xc2;" horiz-adv-x="1321" 
d="M687 1400h142l314 -1400h-115l-72 316h-700l-159 -316h-115zM311 424h621l-191 853zM872 1798l153 -288h-72l-151 206l-205 -206h-71l231 288h115z" />
    <glyph glyph-name="Atilde" unicode="&#xc3;" horiz-adv-x="1321" 
d="M687 1400h142l314 -1400h-115l-72 316h-700l-159 -316h-115zM311 424h621l-191 853zM932 1539q-37 0 -77.5 23t-80 53t-76 51t-65.5 18q-31 -4 -53.5 -33t-18.5 -68l-83 -22q-10 50 11 98t65 79t99 31q38 0 79.5 -22t82.5 -50.5t78 -50.5t65 -22q23 0 39.5 18.5t25 42
t4.5 40.5l82 25q11 -53 -11.5 -101.5t-66.5 -79t-99 -30.5z" />
    <glyph glyph-name="Adieresis" unicode="&#xc4;" horiz-adv-x="1321" 
d="M687 1400h142l314 -1400h-115l-72 316h-700l-159 -316h-115zM311 424h621l-191 853zM626 1484q-28 0 -46 18.5t-14 46.5q4 27 27 47t51 20q27 0 44.5 -20t13.5 -47q-4 -28 -26.5 -46.5t-49.5 -18.5zM916 1484q-28 0 -46 18.5t-14 46.5q3 27 26.5 47t51.5 20q27 0 44 -20
t14 -47q-5 -28 -27 -46.5t-49 -18.5z" />
    <glyph glyph-name="Aring" unicode="&#xc5;" horiz-adv-x="1321" 
d="M687 1400h142l314 -1400h-115l-72 316h-700l-159 -316h-115zM311 424h621l-191 853zM772 1503q-62 0 -100 45t-29 107q6 41 31 75t62 54.5t78 20.5q62 0 100 -44.5t30 -105.5q-9 -63 -59.5 -107.5t-112.5 -44.5zM781 1569q35 0 63.5 25t33.5 61q5 34 -16.5 58t-57.5 24
q-34 0 -61.5 -24t-32.5 -58q-5 -36 16 -61t55 -25z" />
    <glyph glyph-name="AE" unicode="&#xc6;" horiz-adv-x="1601" 
d="M-18 0l705 1400h912l-15 -108h-596l-75 -538h500l-15 -108h-500l-76 -538h596l-15 -108h-704l44 316h-487l-159 -316h-115zM311 424h448l121 868h-130z" />
    <glyph glyph-name="Ccedilla" unicode="&#xc7;" horiz-adv-x="1418" 
d="M666 -26q-142 0 -259 56.5t-197.5 156t-115.5 231.5t-14 282t93 282t180.5 231.5t241.5 156t275 56.5q170 0 301.5 -79t207.5 -210l-102 -52q-63 107 -175.5 170t-246.5 63q-121 0 -233.5 -49t-204 -134.5t-151.5 -197.5t-78 -237q-18 -128 11 -239.5t97 -197
t166.5 -133.5t218.5 -48q139 0 268 64t219 167l88 -51q-112 -131 -266 -209.5t-324 -78.5zM619 -364q-63 -17 -113.5 15t-58.5 93l78 20q4 -30 29 -45.5t55 -7.5q32 9 51.5 35.5t15.5 56.5q-4 31 -29 46t-56 8l-88 -16l147 204l62 -39l-54 -75q38 -9 64.5 -37.5t31.5 -69.5
q8 -62 -31.5 -117t-103.5 -71z" />
    <glyph glyph-name="Egrave" unicode="&#xc8;" horiz-adv-x="1064" 
d="M22 0l196 1400h844l-15 -108h-736l-68 -488h615l-14 -108h-617l-82 -588h736l-15 -108h-844zM514 1798h108l40 -288h-72z" />
    <glyph glyph-name="Eacute" unicode="&#xc9;" horiz-adv-x="1064" 
d="M22 0l196 1400h844l-15 -108h-736l-68 -488h615l-14 -108h-617l-82 -588h736l-15 -108h-844zM622 1510l120 288h108l-156 -288h-72z" />
    <glyph glyph-name="Ecircumflex" unicode="&#xca;" horiz-adv-x="1064" 
d="M22 0l196 1400h844l-15 -108h-736l-68 -488h615l-14 -108h-617l-82 -588h736l-15 -108h-844zM744 1798l153 -288h-72l-151 206l-205 -206h-71l231 288h115z" />
    <glyph glyph-name="Edieresis" unicode="&#xcb;" horiz-adv-x="1064" 
d="M22 0l196 1400h844l-15 -108h-736l-68 -488h615l-14 -108h-617l-82 -588h736l-15 -108h-844zM498 1484q-28 0 -46 18.5t-14 46.5q4 27 27 47t51 20q27 0 44.5 -20t13.5 -47q-4 -28 -26.5 -46.5t-49.5 -18.5zM788 1484q-28 0 -46 18.5t-14 46.5q3 27 26.5 47t51.5 20
q27 0 44 -20t14 -47q-5 -28 -27 -46.5t-49 -18.5z" />
    <glyph glyph-name="Igrave" unicode="&#xcc;" horiz-adv-x="408" 
d="M52 0l196 1400h108l-196 -1400h-108zM186 1798h108l40 -288h-72z" />
    <glyph glyph-name="Iacute" unicode="&#xcd;" horiz-adv-x="408" 
d="M52 0l196 1400h108l-196 -1400h-108zM294 1510l120 288h108l-156 -288h-72z" />
    <glyph glyph-name="Icircumflex" unicode="&#xce;" horiz-adv-x="408" 
d="M52 0l196 1400h108l-196 -1400h-108zM416 1798l153 -288h-72l-151 206l-205 -206h-71l231 288h115z" />
    <glyph glyph-name="Idieresis" unicode="&#xcf;" horiz-adv-x="408" 
d="M52 0l196 1400h108l-196 -1400h-108zM170 1484q-28 0 -46 18.5t-14 46.5q4 27 27 47t51 20q27 0 44.5 -20t13.5 -47q-4 -28 -26.5 -46.5t-49.5 -18.5zM460 1484q-28 0 -46 18.5t-14 46.5q3 27 26.5 47t51.5 20q27 0 44 -20t14 -47q-5 -28 -27 -46.5t-49 -18.5z" />
    <glyph glyph-name="Eth" unicode="&#xd0;" horiz-adv-x="1454" 
d="M132 0l98 696h-131l16 108h130l83 596h464q145 0 264 -54.5t202 -151t119.5 -223t16.5 -271.5t-92.5 -271.5t-182 -223t-244 -151t-279.5 -54.5h-464zM255 108h356q124 0 238.5 46.5t206.5 129t152.5 189.5t77.5 227q18 124 -14 232t-103 188.5t-171.5 126t-220.5 45.5
h-355l-69 -488h366l-15 -108h-366z" />
    <glyph glyph-name="Ntilde" unicode="&#xd1;" horiz-adv-x="1250" 
d="M22 0l196 1400h118l615 -1205l169 1205h108l-196 -1400h-116l-617 1205l-169 -1205h-108zM897 1539q-37 0 -77.5 23t-80 53t-76 51t-65.5 18q-31 -4 -53.5 -33t-18.5 -68l-83 -22q-10 50 11 98t65 79t99 31q38 0 79.5 -22t82.5 -50.5t78 -50.5t65 -22q23 0 39.5 18.5
t25 42t4.5 40.5l82 25q11 -53 -11.5 -101.5t-66.5 -79t-99 -30.5z" />
    <glyph glyph-name="Ograve" unicode="&#xd2;" horiz-adv-x="1540" 
d="M668 -26q-142 0 -259.5 56.5t-198 156.5t-116 231.5t-14.5 281.5t93 281.5t181.5 231.5t242.5 156.5t275 56.5q143 0 260 -56.5t197.5 -156.5t116 -231.5t14.5 -281.5t-93 -281.5t-181.5 -231.5t-242 -156.5t-275.5 -56.5zM683 82q121 0 233.5 49t204.5 134.5
t152.5 197.5t78.5 237q18 127 -11.5 239t-97.5 197t-166.5 133.5t-219.5 48.5t-233.5 -49t-204.5 -134.5t-152.5 -197.5t-78.5 -237q-18 -127 11.5 -239t97.5 -197.5t166.5 -133.5t219.5 -48zM752 1798h108l40 -288h-72z" />
    <glyph glyph-name="Oacute" unicode="&#xd3;" horiz-adv-x="1540" 
d="M668 -26q-142 0 -259.5 56.5t-198 156.5t-116 231.5t-14.5 281.5t93 281.5t181.5 231.5t242.5 156.5t275 56.5q143 0 260 -56.5t197.5 -156.5t116 -231.5t14.5 -281.5t-93 -281.5t-181.5 -231.5t-242 -156.5t-275.5 -56.5zM683 82q121 0 233.5 49t204.5 134.5
t152.5 197.5t78.5 237q18 127 -11.5 239t-97.5 197t-166.5 133.5t-219.5 48.5t-233.5 -49t-204.5 -134.5t-152.5 -197.5t-78.5 -237q-18 -127 11.5 -239t97.5 -197.5t166.5 -133.5t219.5 -48zM860 1510l120 288h108l-156 -288h-72z" />
    <glyph glyph-name="Ocircumflex" unicode="&#xd4;" horiz-adv-x="1540" 
d="M668 -26q-142 0 -259.5 56.5t-198 156.5t-116 231.5t-14.5 281.5t93 281.5t181.5 231.5t242.5 156.5t275 56.5q143 0 260 -56.5t197.5 -156.5t116 -231.5t14.5 -281.5t-93 -281.5t-181.5 -231.5t-242 -156.5t-275.5 -56.5zM683 82q121 0 233.5 49t204.5 134.5
t152.5 197.5t78.5 237q18 127 -11.5 239t-97.5 197t-166.5 133.5t-219.5 48.5t-233.5 -49t-204.5 -134.5t-152.5 -197.5t-78.5 -237q-18 -127 11.5 -239t97.5 -197.5t166.5 -133.5t219.5 -48zM982 1798l153 -288h-72l-151 206l-205 -206h-71l231 288h115z" />
    <glyph glyph-name="Otilde" unicode="&#xd5;" horiz-adv-x="1540" 
d="M668 -26q-142 0 -259.5 56.5t-198 156.5t-116 231.5t-14.5 281.5t93 281.5t181.5 231.5t242.5 156.5t275 56.5q143 0 260 -56.5t197.5 -156.5t116 -231.5t14.5 -281.5t-93 -281.5t-181.5 -231.5t-242 -156.5t-275.5 -56.5zM683 82q121 0 233.5 49t204.5 134.5
t152.5 197.5t78.5 237q18 127 -11.5 239t-97.5 197t-166.5 133.5t-219.5 48.5t-233.5 -49t-204.5 -134.5t-152.5 -197.5t-78.5 -237q-18 -127 11.5 -239t97.5 -197.5t166.5 -133.5t219.5 -48zM1042 1539q-37 0 -77.5 23t-80 53t-76 51t-65.5 18q-31 -4 -53.5 -33t-18.5 -68
l-83 -22q-10 50 11 98t65 79t99 31q38 0 79.5 -22t82.5 -50.5t78 -50.5t65 -22q23 0 39.5 18.5t25 42t4.5 40.5l82 25q11 -53 -11.5 -101.5t-66.5 -79t-99 -30.5z" />
    <glyph glyph-name="Odieresis" unicode="&#xd6;" horiz-adv-x="1540" 
d="M668 -26q-142 0 -259.5 56.5t-198 156.5t-116 231.5t-14.5 281.5t93 281.5t181.5 231.5t242.5 156.5t275 56.5q143 0 260 -56.5t197.5 -156.5t116 -231.5t14.5 -281.5t-93 -281.5t-181.5 -231.5t-242 -156.5t-275.5 -56.5zM683 82q121 0 233.5 49t204.5 134.5
t152.5 197.5t78.5 237q18 127 -11.5 239t-97.5 197t-166.5 133.5t-219.5 48.5t-233.5 -49t-204.5 -134.5t-152.5 -197.5t-78.5 -237q-18 -127 11.5 -239t97.5 -197.5t166.5 -133.5t219.5 -48zM736 1484q-28 0 -46 18.5t-14 46.5q4 27 27 47t51 20q27 0 44.5 -20t13.5 -47
q-4 -28 -26.5 -46.5t-49.5 -18.5zM1026 1484q-28 0 -46 18.5t-14 46.5q3 27 26.5 47t51.5 20q27 0 44 -20t14 -47q-5 -28 -27 -46.5t-49 -18.5z" />
    <glyph glyph-name="multiply" unicode="&#xd7;" horiz-adv-x="944" 
d="M87 209l-66 76l360 315l-270 315l87 76l270 -315l359 315l67 -76l-361 -315l272 -315l-88 -76l-271 315z" />
    <glyph glyph-name="Oslash" unicode="&#xd8;" horiz-adv-x="1540" 
d="M278 -74l-86 54l94 132q-115 99 -173 253.5t-33 334.5q21 150 93 281.5t181.5 231.5t242.5 156.5t275 56.5q85 0 160.5 -20.5t140.5 -59.5l91 128l86 -54l-95 -132q117 -97 173.5 -251.5t31.5 -336.5q-21 -150 -93 -281.5t-181.5 -231.5t-242 -156.5t-275.5 -56.5
q-83 0 -158 21.5t-141 58.5zM357 211l747 1040q-52 32 -114.5 49.5t-132.5 17.5q-121 0 -233.5 -49t-204.5 -134.5t-152.5 -197.5t-78.5 -237q-21 -151 25.5 -279t143.5 -210zM683 82q121 0 233.5 49t204.5 134.5t152.5 197.5t78.5 237q22 151 -24.5 279.5t-141.5 211.5
l-748 -1042q53 -32 115 -49.5t130 -17.5z" />
    <glyph glyph-name="Ugrave" unicode="&#xd9;" horiz-adv-x="1316" 
d="M556 -26q-168 0 -277 82t-154 220.5t-21 307.5l114 816h108l-114 -816q-19 -137 14.5 -251t119.5 -182.5t225 -68.5q140 0 245.5 69t170.5 183.5t85 249.5l114 816h108l-114 -816q-18 -127 -70.5 -237.5t-134 -194.5t-187.5 -131t-232 -47zM640 1798h108l40 -288h-72z
" />
    <glyph glyph-name="Uacute" unicode="&#xda;" horiz-adv-x="1316" 
d="M556 -26q-168 0 -277 82t-154 220.5t-21 307.5l114 816h108l-114 -816q-19 -137 14.5 -251t119.5 -182.5t225 -68.5q140 0 245.5 69t170.5 183.5t85 249.5l114 816h108l-114 -816q-18 -127 -70.5 -237.5t-134 -194.5t-187.5 -131t-232 -47zM748 1510l120 288h108
l-156 -288h-72z" />
    <glyph glyph-name="Ucircumflex" unicode="&#xdb;" horiz-adv-x="1316" 
d="M556 -26q-168 0 -277 82t-154 220.5t-21 307.5l114 816h108l-114 -816q-19 -137 14.5 -251t119.5 -182.5t225 -68.5q140 0 245.5 69t170.5 183.5t85 249.5l114 816h108l-114 -816q-18 -127 -70.5 -237.5t-134 -194.5t-187.5 -131t-232 -47zM870 1798l153 -288h-72
l-151 206l-205 -206h-71l231 288h115z" />
    <glyph glyph-name="Udieresis" unicode="&#xdc;" horiz-adv-x="1316" 
d="M556 -26q-168 0 -277 82t-154 220.5t-21 307.5l114 816h108l-114 -816q-19 -137 14.5 -251t119.5 -182.5t225 -68.5q140 0 245.5 69t170.5 183.5t85 249.5l114 816h108l-114 -816q-18 -127 -70.5 -237.5t-134 -194.5t-187.5 -131t-232 -47zM624 1484q-28 0 -46 18.5
t-14 46.5q4 27 27 47t51 20q27 0 44.5 -20t13.5 -47q-4 -28 -26.5 -46.5t-49.5 -18.5zM914 1484q-28 0 -46 18.5t-14 46.5q3 27 26.5 47t51.5 20q27 0 44 -20t14 -47q-5 -28 -27 -46.5t-49 -18.5z" />
    <glyph glyph-name="Yacute" unicode="&#xdd;" horiz-adv-x="1165" 
d="M1076 1400h127l-576 -765l-89 -635h-108l89 635l-361 765h127l304 -647zM672 1510l120 288h108l-156 -288h-72z" />
    <glyph glyph-name="Thorn" unicode="&#xde;" horiz-adv-x="1008" 
d="M22 0l196 1400h108l-41 -295h324q111 0 193.5 -53.5t122 -145t23.5 -206.5q-16 -116 -83 -207.5t-164.5 -144.5t-205.5 -53h-324l-41 -295h-108zM186 403h317q81 0 153.5 39t122.5 107.5t62 154.5q12 87 -18.5 155t-92 107.5t-141.5 39.5h-318z" />
    <glyph glyph-name="germandbls" unicode="&#xdf;" horiz-adv-x="1045" 
d="M22 0l135 969q13 89 57 167t111.5 137t150 93t171.5 34q100 0 174.5 -51t111.5 -136.5t22 -189.5q-9 -64 -38 -124t-73.5 -108t-101.5 -78q56 -14 97 -48t66 -80.5t33.5 -101t0.5 -113.5q-15 -103 -77 -187t-153.5 -133.5t-193.5 -49.5h-74l-11 99h92q77 0 145 37.5
t114 100t57 138.5q11 75 -17.5 137t-86.5 99t-135 37l-91 1l13 96l28 2q71 1 135 38t108 99.5t55 138.5q10 76 -16 139t-79.5 101t-124.5 38q-87 0 -164.5 -43t-129.5 -114.5t-65 -158.5l-138 -985h-108z" />
    <glyph glyph-name="agrave" unicode="&#xe0;" horiz-adv-x="1150" 
d="M1005 1000h108l-140 -1000h-108l26 205q-66 -104 -169.5 -167.5t-235.5 -63.5q-109 0 -199 41.5t-152.5 114t-90 168t-11.5 205.5q15 109 68.5 204t136 167.5t183 113t208.5 40.5q133 0 222 -64.5t128 -168.5zM499 80q116 0 206.5 56.5t147.5 152.5t74 211
q17 118 -14.5 213.5t-106 152t-188.5 56.5q-115 0 -218 -57t-172.5 -153t-85.5 -212q-16 -118 27.5 -213t130.5 -151t199 -56zM517 1398h108l40 -288h-72z" />
    <glyph glyph-name="aacute" unicode="&#xe1;" horiz-adv-x="1150" 
d="M1005 1000h108l-140 -1000h-108l26 205q-66 -104 -169.5 -167.5t-235.5 -63.5q-109 0 -199 41.5t-152.5 114t-90 168t-11.5 205.5q15 109 68.5 204t136 167.5t183 113t208.5 40.5q133 0 222 -64.5t128 -168.5zM499 80q116 0 206.5 56.5t147.5 152.5t74 211
q17 118 -14.5 213.5t-106 152t-188.5 56.5q-115 0 -218 -57t-172.5 -153t-85.5 -212q-16 -118 27.5 -213t130.5 -151t199 -56zM624 1110l120 288h108l-156 -288h-72z" />
    <glyph glyph-name="acircumflex" unicode="&#xe2;" horiz-adv-x="1150" 
d="M1005 1000h108l-140 -1000h-108l26 205q-66 -104 -169.5 -167.5t-235.5 -63.5q-109 0 -199 41.5t-152.5 114t-90 168t-11.5 205.5q15 109 68.5 204t136 167.5t183 113t208.5 40.5q133 0 222 -64.5t128 -168.5zM499 80q116 0 206.5 56.5t147.5 152.5t74 211
q17 118 -14.5 213.5t-106 152t-188.5 56.5q-115 0 -218 -57t-172.5 -153t-85.5 -212q-16 -118 27.5 -213t130.5 -151t199 -56zM747 1398l153 -288h-72l-151 206l-205 -206h-71l231 288h115z" />
    <glyph glyph-name="atilde" unicode="&#xe3;" horiz-adv-x="1150" 
d="M1005 1000h108l-140 -1000h-108l26 205q-66 -104 -169.5 -167.5t-235.5 -63.5q-109 0 -199 41.5t-152.5 114t-90 168t-11.5 205.5q15 109 68.5 204t136 167.5t183 113t208.5 40.5q133 0 222 -64.5t128 -168.5zM499 80q116 0 206.5 56.5t147.5 152.5t74 211
q17 118 -14.5 213.5t-106 152t-188.5 56.5q-115 0 -218 -57t-172.5 -153t-85.5 -212q-16 -118 27.5 -213t130.5 -151t199 -56zM807 1139q-37 0 -77.5 23t-80 53t-76 51t-65.5 18q-31 -4 -53.5 -33t-18.5 -68l-83 -22q-10 50 11 98t65 79t99 31q38 0 79.5 -22t82.5 -50.5
t78 -50.5t65 -22q23 0 39.5 18.5t25 42t4.5 40.5l82 25q11 -53 -11.5 -101.5t-66.5 -79t-99 -30.5z" />
    <glyph glyph-name="adieresis" unicode="&#xe4;" horiz-adv-x="1150" 
d="M1005 1000h108l-140 -1000h-108l26 205q-66 -104 -169.5 -167.5t-235.5 -63.5q-109 0 -199 41.5t-152.5 114t-90 168t-11.5 205.5q15 109 68.5 204t136 167.5t183 113t208.5 40.5q133 0 222 -64.5t128 -168.5zM499 80q116 0 206.5 56.5t147.5 152.5t74 211
q17 118 -14.5 213.5t-106 152t-188.5 56.5q-115 0 -218 -57t-172.5 -153t-85.5 -212q-16 -118 27.5 -213t130.5 -151t199 -56zM501 1084q-28 0 -46 18.5t-14 46.5q4 27 27 47t51 20q27 0 44.5 -20t13.5 -47q-4 -28 -26.5 -46.5t-49.5 -18.5zM791 1084q-28 0 -46 18.5
t-14 46.5q3 27 26.5 47t51.5 20q27 0 44 -20t14 -47q-5 -28 -27 -46.5t-49 -18.5z" />
    <glyph glyph-name="aring" unicode="&#xe5;" horiz-adv-x="1150" 
d="M1005 1000h108l-140 -1000h-108l26 205q-66 -104 -169.5 -167.5t-235.5 -63.5q-109 0 -199 41.5t-152.5 114t-90 168t-11.5 205.5q15 109 68.5 204t136 167.5t183 113t208.5 40.5q133 0 222 -64.5t128 -168.5zM499 80q116 0 206.5 56.5t147.5 152.5t74 211
q17 118 -14.5 213.5t-106 152t-188.5 56.5q-115 0 -218 -57t-172.5 -153t-85.5 -212q-16 -118 27.5 -213t130.5 -151t199 -56zM647 1103q-62 0 -100 45t-29 107q6 41 31 75t62 54.5t78 20.5q62 0 100 -44.5t30 -105.5q-9 -63 -59.5 -107.5t-112.5 -44.5zM656 1169
q35 0 63.5 25t33.5 61q5 34 -16.5 58t-57.5 24q-34 0 -61.5 -24t-32.5 -58q-5 -36 16 -61t55 -25z" />
    <glyph glyph-name="ae" unicode="&#xe6;" horiz-adv-x="1792" 
d="M224 -25q-85 0 -146.5 36t-91.5 100.5t-18 148.5q11 77 55 143t115 106t160 40h414q16 101 -15.5 185.5t-104.5 135t-183 50.5q-75 0 -148 -30l-46 92q52 23 104.5 34.5t103.5 11.5q140 0 242.5 -76.5t143.5 -202.5q52 83 126 146t163 98t183 35q110 0 196 -42.5
t142.5 -119.5t77 -181.5t1.5 -228.5h-884q-4 -107 37.5 -191.5t118.5 -133.5t178 -49q111 0 209 58.5t165 160.5l105 -25q-79 -133 -211.5 -217.5t-282.5 -84.5q-101 0 -184.5 39.5t-140.5 110t-81 162.5q-53 -91 -132.5 -161.5t-174.5 -110t-196 -39.5zM239 76
q124 0 228.5 67.5t166.5 168.5q43 66 63 145h-411q-87 0 -146.5 -55.5t-70.5 -137.5q-11 -73 31 -130.5t139 -57.5zM824 548h778q9 103 -32.5 189.5t-120.5 138.5t-182 52t-195 -51t-158 -137.5t-90 -191.5z" />
    <glyph glyph-name="ccedilla" unicode="&#xe7;" horiz-adv-x="1019" 
d="M797 235l89 -52q-82 -95 -194 -152t-234 -57q-138 0 -241.5 71t-154 190.5t-30.5 264.5q15 110 67.5 205.5t131.5 168t175.5 113.5t199.5 41q122 0 218.5 -57t151.5 -153l-104 -51q-46 74 -121.5 113.5t-159.5 39.5q-110 0 -207 -57.5t-162.5 -153t-81.5 -209.5
q-16 -115 23.5 -210t120.5 -151.5t189 -56.5q91 0 177 43t147 110zM411 -364q-63 -17 -113.5 15t-58.5 93l78 20q4 -30 29 -45.5t55 -7.5q32 9 51.5 35.5t15.5 56.5q-4 31 -29 46t-56 8l-88 -16l147 204l62 -39l-54 -75q38 -9 64.5 -37.5t31.5 -69.5q8 -62 -31.5 -117
t-103.5 -71z" />
    <glyph glyph-name="egrave" unicode="&#xe8;" horiz-adv-x="1117" 
d="M458 -26q-138 0 -241.5 71t-154 190.5t-30.5 264.5q15 110 67.5 205.5t131.5 168t175.5 113.5t199.5 41q109 0 195.5 -42.5t142.5 -119.5t77.5 -181.5t0.5 -228.5h-883q-4 -107 37.5 -191.5t118 -133t178.5 -49.5q111 0 209 58.5t165 160.5l105 -25
q-79 -133 -211.5 -217.5t-282.5 -84.5zM149 548h778q8 103 -33.5 189.5t-119.5 138.5t-181 52q-104 0 -196 -51t-157.5 -137.5t-90.5 -191.5zM485 1398h108l40 -288h-72z" />
    <glyph glyph-name="eacute" unicode="&#xe9;" horiz-adv-x="1117" 
d="M458 -26q-138 0 -241.5 71t-154 190.5t-30.5 264.5q15 110 67.5 205.5t131.5 168t175.5 113.5t199.5 41q109 0 195.5 -42.5t142.5 -119.5t77.5 -181.5t0.5 -228.5h-883q-4 -107 37.5 -191.5t118 -133t178.5 -49.5q111 0 209 58.5t165 160.5l105 -25
q-79 -133 -211.5 -217.5t-282.5 -84.5zM149 548h778q8 103 -33.5 189.5t-119.5 138.5t-181 52q-104 0 -196 -51t-157.5 -137.5t-90.5 -191.5zM593 1110l120 288h108l-156 -288h-72z" />
    <glyph glyph-name="ecircumflex" unicode="&#xea;" horiz-adv-x="1117" 
d="M458 -26q-138 0 -241.5 71t-154 190.5t-30.5 264.5q15 110 67.5 205.5t131.5 168t175.5 113.5t199.5 41q109 0 195.5 -42.5t142.5 -119.5t77.5 -181.5t0.5 -228.5h-883q-4 -107 37.5 -191.5t118 -133t178.5 -49.5q111 0 209 58.5t165 160.5l105 -25
q-79 -133 -211.5 -217.5t-282.5 -84.5zM149 548h778q8 103 -33.5 189.5t-119.5 138.5t-181 52q-104 0 -196 -51t-157.5 -137.5t-90.5 -191.5zM715 1398l153 -288h-72l-151 206l-205 -206h-71l231 288h115z" />
    <glyph glyph-name="edieresis" unicode="&#xeb;" horiz-adv-x="1117" 
d="M458 -26q-138 0 -241.5 71t-154 190.5t-30.5 264.5q15 110 67.5 205.5t131.5 168t175.5 113.5t199.5 41q109 0 195.5 -42.5t142.5 -119.5t77.5 -181.5t0.5 -228.5h-883q-4 -107 37.5 -191.5t118 -133t178.5 -49.5q111 0 209 58.5t165 160.5l105 -25
q-79 -133 -211.5 -217.5t-282.5 -84.5zM149 548h778q8 103 -33.5 189.5t-119.5 138.5t-181 52q-104 0 -196 -51t-157.5 -137.5t-90.5 -191.5zM469 1084q-28 0 -46 18.5t-14 46.5q4 27 27 47t51 20q27 0 44.5 -20t13.5 -47q-4 -28 -26.5 -46.5t-49.5 -18.5zM759 1084
q-28 0 -46 18.5t-14 46.5q3 27 26.5 47t51.5 20q27 0 44 -20t14 -47q-5 -28 -27 -46.5t-49 -18.5z" />
    <glyph glyph-name="igrave" unicode="&#xec;" 
d="M162 1000h108l-140 -1000h-108zM100 1398h108l40 -288h-72z" />
    <glyph glyph-name="iacute" unicode="&#xed;" 
d="M162 1000h108l-140 -1000h-108zM208 1110l120 288h108l-156 -288h-72z" />
    <glyph glyph-name="icircumflex" unicode="&#xee;" 
d="M162 1000h108l-140 -1000h-108zM330 1398l153 -288h-72l-151 206l-205 -206h-71l231 288h115z" />
    <glyph glyph-name="idieresis" unicode="&#xef;" 
d="M162 1000h108l-140 -1000h-108zM84 1084q-28 0 -46 18.5t-14 46.5q4 27 27 47t51 20q27 0 44.5 -20t13.5 -47q-4 -28 -26.5 -46.5t-49.5 -18.5zM374 1084q-28 0 -46 18.5t-14 46.5q3 27 26.5 47t51.5 20q27 0 44 -20t14 -47q-5 -28 -27 -46.5t-49 -18.5z" />
    <glyph glyph-name="eth" unicode="&#xf0;" horiz-adv-x="1125" 
d="M481 1060l-55 63l500 429l53 -62zM481 -26q-138 0 -243 68t-157 182t-32 252q15 104 66.5 195.5t130.5 160.5t175.5 108t200.5 39q110 0 195.5 -50t131.5 -135q-8 111 -43 216.5t-97 189.5t-151.5 133.5t-205.5 49.5l15 108q154 0 275.5 -76.5t201.5 -210.5t111 -309.5
t4 -374.5q-22 -161 -103 -284t-204 -192.5t-271 -69.5zM495 82q112 0 209 54.5t162.5 144.5t80.5 195q15 108 -25.5 197.5t-122.5 143.5t-193 54t-207.5 -54.5t-161.5 -144.5t-80 -196q-15 -107 25 -196.5t122 -143.5t191 -54z" />
    <glyph glyph-name="ntilde" unicode="&#xf1;" horiz-adv-x="1058" 
d="M966 615l-86 -615h-108l84 598q12 89 -21 162t-99.5 116t-155.5 43t-168 -43t-132 -116t-66 -162l-84 -598h-108l140 1000h108l-21 -153q66 83 161.5 132t200.5 49q115 0 200.5 -55.5t128 -149.5t26.5 -208zM770 1139q-37 0 -77.5 23t-80 53t-76 51t-65.5 18
q-31 -4 -53.5 -33t-18.5 -68l-83 -22q-10 50 11 98t65 79t99 31q38 0 79.5 -22t82.5 -50.5t78 -50.5t65 -22q23 0 39.5 18.5t25 42t4.5 40.5l82 25q11 -53 -11.5 -101.5t-66.5 -79t-99 -30.5z" />
    <glyph glyph-name="ograve" unicode="&#xf2;" horiz-adv-x="1120" 
d="M458 -26q-138 0 -241.5 71t-154 190.5t-30.5 264.5q15 110 67.5 205.5t131.5 168t175.5 113.5t199.5 41q138 0 241.5 -71t154.5 -191t30 -266q-15 -109 -67.5 -204t-131.5 -167.5t-175 -113.5t-200 -41zM473 82q110 0 207 58t163 153t81 207q16 113 -23 209t-119 153.5
t-191 57.5t-208 -58t-162 -153.5t-81 -208.5q-16 -117 24 -211.5t121 -150.5t188 -56zM486 1398h108l40 -288h-72z" />
    <glyph glyph-name="oacute" unicode="&#xf3;" horiz-adv-x="1120" 
d="M458 -26q-138 0 -241.5 71t-154 190.5t-30.5 264.5q15 110 67.5 205.5t131.5 168t175.5 113.5t199.5 41q138 0 241.5 -71t154.5 -191t30 -266q-15 -109 -67.5 -204t-131.5 -167.5t-175 -113.5t-200 -41zM473 82q110 0 207 58t163 153t81 207q16 113 -23 209t-119 153.5
t-191 57.5t-208 -58t-162 -153.5t-81 -208.5q-16 -117 24 -211.5t121 -150.5t188 -56zM594 1110l120 288h108l-156 -288h-72z" />
    <glyph glyph-name="ocircumflex" unicode="&#xf4;" horiz-adv-x="1120" 
d="M458 -26q-138 0 -241.5 71t-154 190.5t-30.5 264.5q15 110 67.5 205.5t131.5 168t175.5 113.5t199.5 41q138 0 241.5 -71t154.5 -191t30 -266q-15 -109 -67.5 -204t-131.5 -167.5t-175 -113.5t-200 -41zM473 82q110 0 207 58t163 153t81 207q16 113 -23 209t-119 153.5
t-191 57.5t-208 -58t-162 -153.5t-81 -208.5q-16 -117 24 -211.5t121 -150.5t188 -56zM716 1398l153 -288h-72l-151 206l-205 -206h-71l231 288h115z" />
    <glyph glyph-name="otilde" unicode="&#xf5;" horiz-adv-x="1120" 
d="M458 -26q-138 0 -241.5 71t-154 190.5t-30.5 264.5q15 110 67.5 205.5t131.5 168t175.5 113.5t199.5 41q138 0 241.5 -71t154.5 -191t30 -266q-15 -109 -67.5 -204t-131.5 -167.5t-175 -113.5t-200 -41zM473 82q110 0 207 58t163 153t81 207q16 113 -23 209t-119 153.5
t-191 57.5t-208 -58t-162 -153.5t-81 -208.5q-16 -117 24 -211.5t121 -150.5t188 -56zM776 1139q-37 0 -77.5 23t-80 53t-76 51t-65.5 18q-31 -4 -53.5 -33t-18.5 -68l-83 -22q-10 50 11 98t65 79t99 31q38 0 79.5 -22t82.5 -50.5t78 -50.5t65 -22q23 0 39.5 18.5t25 42
t4.5 40.5l82 25q11 -53 -11.5 -101.5t-66.5 -79t-99 -30.5z" />
    <glyph glyph-name="odieresis" unicode="&#xf6;" horiz-adv-x="1120" 
d="M458 -26q-138 0 -241.5 71t-154 190.5t-30.5 264.5q15 110 67.5 205.5t131.5 168t175.5 113.5t199.5 41q138 0 241.5 -71t154.5 -191t30 -266q-15 -109 -67.5 -204t-131.5 -167.5t-175 -113.5t-200 -41zM473 82q110 0 207 58t163 153t81 207q16 113 -23 209t-119 153.5
t-191 57.5t-208 -58t-162 -153.5t-81 -208.5q-16 -117 24 -211.5t121 -150.5t188 -56zM470 1084q-28 0 -46 18.5t-14 46.5q4 27 27 47t51 20q27 0 44.5 -20t13.5 -47q-4 -28 -26.5 -46.5t-49.5 -18.5zM760 1084q-28 0 -46 18.5t-14 46.5q3 27 26.5 47t51.5 20q27 0 44 -20
t14 -47q-5 -28 -27 -46.5t-49 -18.5z" />
    <glyph glyph-name="divide" unicode="&#xf7;" horiz-adv-x="1160" 
d="M58 546l16 108h1000l-16 -108h-1000zM630 1057q38 0 61 -29.5t18 -66.5q-5 -38 -36 -65.5t-69 -27.5q-42 0 -64 27.5t-17 65.5q5 37 35 66.5t72 29.5zM528 331q38 0 62.5 -29t20.5 -67q-6 -39 -38.5 -65.5t-70.5 -26.5q-41 0 -64 26.5t-17 65.5q5 38 35 67t72 29z" />
    <glyph glyph-name="oslash" unicode="&#xf8;" horiz-adv-x="1120" 
d="M192 -49l-76 48l59 81q-81 72 -121 182t-22 238q15 110 67.5 205.5t131.5 168t175.5 113.5t199.5 41q60 0 113 -13.5t97 -39.5l58 78l76 -48l-59 -82q81 -72 120 -181.5t21 -241.5q-15 -109 -67.5 -204t-131.5 -167.5t-175 -113.5t-200 -41q-58 0 -111.5 15t-98.5 39z
M242 174l510 712q-91 49 -191.5 38t-191.5 -69t-154.5 -151t-79.5 -208q-14 -99 16 -183t91 -139zM312 117q94 -49 195.5 -38t191.5 69t152 150.5t78 205.5q14 99 -15 184.5t-89 141.5z" />
    <glyph glyph-name="ugrave" unicode="&#xf9;" horiz-adv-x="1018" 
d="M36 387l86 613h108l-84 -596q-12 -89 21 -162t100 -116t155 -43q89 0 168 43t132.5 116t66.5 162l83 596h108l-140 -1000h-108l21 155q-65 -82 -160.5 -131.5t-201.5 -49.5q-114 0 -200 55.5t-128.5 149.5t-26.5 208zM443 1399h108l40 -288h-72z" />
    <glyph glyph-name="uacute" unicode="&#xfa;" horiz-adv-x="1018" 
d="M36 387l86 613h108l-84 -596q-12 -89 21 -162t100 -116t155 -43q89 0 168 43t132.5 116t66.5 162l83 596h108l-140 -1000h-108l21 155q-65 -82 -160.5 -131.5t-201.5 -49.5q-114 0 -200 55.5t-128.5 149.5t-26.5 208zM551 1111l120 288h108l-156 -288h-72z" />
    <glyph glyph-name="ucircumflex" unicode="&#xfb;" horiz-adv-x="1018" 
d="M36 387l86 613h108l-84 -596q-12 -89 21 -162t100 -116t155 -43q89 0 168 43t132.5 116t66.5 162l83 596h108l-140 -1000h-108l21 155q-65 -82 -160.5 -131.5t-201.5 -49.5q-114 0 -200 55.5t-128.5 149.5t-26.5 208zM673 1399l153 -288h-72l-151 206l-205 -206h-71
l231 288h115z" />
    <glyph glyph-name="udieresis" unicode="&#xfc;" horiz-adv-x="1018" 
d="M36 387l86 613h108l-84 -596q-12 -89 21 -162t100 -116t155 -43q89 0 168 43t132.5 116t66.5 162l83 596h108l-140 -1000h-108l21 155q-65 -82 -160.5 -131.5t-201.5 -49.5q-114 0 -200 55.5t-128.5 149.5t-26.5 208zM427 1085q-28 0 -46 18.5t-14 46.5q4 27 27 47t51 20
q27 0 44.5 -20t13.5 -47q-4 -28 -26.5 -46.5t-49.5 -18.5zM717 1085q-28 0 -46 18.5t-14 46.5q3 27 26.5 47t51.5 20q27 0 44 -20t14 -47q-5 -28 -27 -46.5t-49 -18.5z" />
    <glyph glyph-name="yacute" unicode="&#xfd;" horiz-adv-x="998" 
d="M847 1000h113l-757 -1500h-115l253 500l-219 1000h118l175 -851zM533 1110l120 288h108l-156 -288h-72z" />
    <glyph glyph-name="thorn" unicode="&#xfe;" horiz-adv-x="1191" 
d="M-49 -500l267 1900h108l-85 -606q68 104 172.5 168t237.5 64q109 0 198.5 -41t151.5 -113.5t89.5 -167.5t12.5 -204t-69.5 -205t-137 -168.5t-183.5 -113.5t-210 -41q-133 0 -220 64t-125 168l-99 -704h-108zM516 78q113 0 216 56t174 151.5t88 214.5q16 115 -27 210.5
t-130 152.5t-202 57q-114 0 -204.5 -56.5t-148.5 -151.5t-74 -212q-16 -115 14.5 -211t104.5 -153.5t189 -57.5z" />
    <glyph glyph-name="ydieresis" unicode="&#xff;" horiz-adv-x="998" 
d="M847 1000h113l-757 -1500h-115l253 500l-219 1000h118l175 -851zM409 1084q-28 0 -46 18.5t-14 46.5q4 27 27 47t51 20q27 0 44.5 -20t13.5 -47q-4 -28 -26.5 -46.5t-49.5 -18.5zM699 1084q-28 0 -46 18.5t-14 46.5q3 27 26.5 47t51.5 20q27 0 44 -20t14 -47
q-5 -28 -27 -46.5t-49 -18.5z" />
    <glyph glyph-name="Amacron" unicode="&#x100;" horiz-adv-x="1321" 
d="M687 1400h142l314 -1400h-115l-72 316h-700l-159 -316h-115zM311 424h621l-191 853zM458 1670h676l-13 -92h-676z" />
    <glyph glyph-name="amacron" unicode="&#x101;" horiz-adv-x="1150" 
d="M1005 1000h108l-140 -1000h-108l26 205q-66 -104 -169.5 -167.5t-235.5 -63.5q-109 0 -199 41.5t-152.5 114t-90 168t-11.5 205.5q15 109 68.5 204t136 167.5t183 113t208.5 40.5q133 0 222 -64.5t128 -168.5zM499 80q116 0 206.5 56.5t147.5 152.5t74 211
q17 118 -14.5 213.5t-106 152t-188.5 56.5q-115 0 -218 -57t-172.5 -153t-85.5 -212q-16 -118 27.5 -213t130.5 -151t199 -56zM332 1270h676l-13 -92h-676z" />
    <glyph glyph-name="Abreve" unicode="&#x102;" horiz-adv-x="1321" 
d="M687 1400h142l314 -1400h-115l-72 316h-700l-159 -316h-115zM311 424h621l-191 853zM771 1488q-91 0 -160 45t-103.5 120.5t-22.5 166.5h84q-9 -70 17.5 -126t79 -89t117.5 -33q67 0 128 33.5t103 90t51 124.5h84q-13 -93 -69 -168.5t-138 -119.5t-171 -44z" />
    <glyph glyph-name="abreve" unicode="&#x103;" horiz-adv-x="1150" 
d="M1005 1000h108l-140 -1000h-108l26 205q-66 -104 -169.5 -167.5t-235.5 -63.5q-109 0 -199 41.5t-152.5 114t-90 168t-11.5 205.5q15 109 68.5 204t136 167.5t183 113t208.5 40.5q133 0 222 -64.5t128 -168.5zM499 80q116 0 206.5 56.5t147.5 152.5t74 211
q17 118 -14.5 213.5t-106 152t-188.5 56.5q-115 0 -218 -57t-172.5 -153t-85.5 -212q-16 -118 27.5 -213t130.5 -151t199 -56zM645 1088q-91 0 -160 45t-103.5 120.5t-22.5 166.5h84q-9 -70 17.5 -126t79 -89t117.5 -33q67 0 128 33.5t103 90t51 124.5h84
q-13 -93 -69 -168.5t-138 -119.5t-171 -44z" />
    <glyph glyph-name="Aogonek" unicode="&#x104;" horiz-adv-x="1321" 
d="M687 1400h142l314 -1400h-115l-72 316h-700l-159 -316h-115zM311 424h621l-191 853zM973 -392q-50 1 -83.5 25t-48.5 62.5t-8 80.5q4 32 20 62t45 56l192 168l53 -62q-70 -61 -113 -98t-65 -58.5t-30.5 -37t-10.5 -32.5q-4 -30 12.5 -53.5t52.5 -25.5q38 0 75 28t44 76
h86q-8 -54 -40.5 -97.5t-80 -68.5t-100.5 -25z" />
    <glyph glyph-name="aogonek" unicode="&#x105;" horiz-adv-x="1150" 
d="M1005 1000h108l-140 -1000h-108l26 205q-66 -104 -169.5 -167.5t-235.5 -63.5q-109 0 -199 41.5t-152.5 114t-90 168t-11.5 205.5q15 109 68.5 204t136 167.5t183 113t208.5 40.5q133 0 222 -64.5t128 -168.5zM499 80q116 0 206.5 56.5t147.5 152.5t74 211
q17 118 -14.5 213.5t-106 152t-188.5 56.5q-115 0 -218 -57t-172.5 -153t-85.5 -212q-16 -118 27.5 -213t130.5 -151t199 -56zM803 -392q-50 1 -83.5 25t-48.5 62.5t-8 80.5q4 32 20 62t45 56l192 168l53 -62q-70 -61 -113 -98t-65 -58.5t-30.5 -37t-10.5 -32.5
q-4 -30 12.5 -53.5t52.5 -25.5q38 0 75 28t44 76h86q-8 -54 -40.5 -97.5t-80 -68.5t-100.5 -25z" />
    <glyph glyph-name="Cacute" unicode="&#x106;" horiz-adv-x="1418" 
d="M666 -26q-142 0 -259 56.5t-197.5 156t-115.5 231.5t-14 282t93 282t180.5 231.5t241.5 156t275 56.5q170 0 301.5 -79t207.5 -210l-102 -52q-63 107 -175.5 170t-246.5 63q-121 0 -233.5 -49t-204 -134.5t-151.5 -197.5t-78 -237q-18 -128 11 -239.5t97 -197
t166.5 -133.5t218.5 -48q139 0 268 64t219 167l88 -51q-112 -131 -266 -209.5t-324 -78.5zM858 1510l120 288h108l-156 -288h-72z" />
    <glyph glyph-name="cacute" unicode="&#x107;" horiz-adv-x="1019" 
d="M797 235l89 -52q-82 -95 -194 -152t-234 -57q-138 0 -241.5 71t-154 190.5t-30.5 264.5q15 110 67.5 205.5t131.5 168t175.5 113.5t199.5 41q122 0 218.5 -57t151.5 -153l-104 -51q-46 74 -121.5 113.5t-159.5 39.5q-110 0 -207 -57.5t-162.5 -153t-81.5 -209.5
q-16 -115 23.5 -210t120.5 -151.5t189 -56.5q91 0 177 43t147 110zM594 1110l120 288h108l-156 -288h-72z" />
    <glyph glyph-name="Ccircumflex" unicode="&#x108;" horiz-adv-x="1418" 
d="M666 -26q-142 0 -259 56.5t-197.5 156t-115.5 231.5t-14 282t93 282t180.5 231.5t241.5 156t275 56.5q170 0 301.5 -79t207.5 -210l-102 -52q-63 107 -175.5 170t-246.5 63q-121 0 -233.5 -49t-204 -134.5t-151.5 -197.5t-78 -237q-18 -128 11 -239.5t97 -197
t166.5 -133.5t218.5 -48q139 0 268 64t219 167l88 -51q-112 -131 -266 -209.5t-324 -78.5zM980 1798l153 -288h-72l-151 206l-205 -206h-71l231 288h115z" />
    <glyph glyph-name="ccircumflex" unicode="&#x109;" horiz-adv-x="1019" 
d="M797 235l89 -52q-82 -95 -194 -152t-234 -57q-138 0 -241.5 71t-154 190.5t-30.5 264.5q15 110 67.5 205.5t131.5 168t175.5 113.5t199.5 41q122 0 218.5 -57t151.5 -153l-104 -51q-46 74 -121.5 113.5t-159.5 39.5q-110 0 -207 -57.5t-162.5 -153t-81.5 -209.5
q-16 -115 23.5 -210t120.5 -151.5t189 -56.5q91 0 177 43t147 110zM716 1398l153 -288h-72l-151 206l-205 -206h-71l231 288h115z" />
    <glyph glyph-name="Cdotaccent" unicode="&#x10a;" horiz-adv-x="1418" 
d="M666 -26q-142 0 -259 56.5t-197.5 156t-115.5 231.5t-14 282t93 282t180.5 231.5t241.5 156t275 56.5q170 0 301.5 -79t207.5 -210l-102 -52q-63 107 -175.5 170t-246.5 63q-121 0 -233.5 -49t-204 -134.5t-151.5 -197.5t-78 -237q-18 -128 11 -239.5t97 -197
t166.5 -133.5t218.5 -48q139 0 268 64t219 167l88 -51q-112 -131 -266 -209.5t-324 -78.5zM894 1589q-28 0 -45 18.5t-13 46.5t26 46.5t50 18.5q27 0 44 -18.5t13 -46.5q-5 -28 -26 -46.5t-49 -18.5z" />
    <glyph glyph-name="cdotaccent" unicode="&#x10b;" horiz-adv-x="1019" 
d="M797 235l89 -52q-82 -95 -194 -152t-234 -57q-138 0 -241.5 71t-154 190.5t-30.5 264.5q15 110 67.5 205.5t131.5 168t175.5 113.5t199.5 41q122 0 218.5 -57t151.5 -153l-104 -51q-46 74 -121.5 113.5t-159.5 39.5q-110 0 -207 -57.5t-162.5 -153t-81.5 -209.5
q-16 -115 23.5 -210t120.5 -151.5t189 -56.5q91 0 177 43t147 110zM630 1189q-28 0 -45 18.5t-13 46.5t26 46.5t50 18.5q27 0 44 -18.5t13 -46.5q-5 -28 -26 -46.5t-49 -18.5z" />
    <glyph glyph-name="Ccaron" unicode="&#x10c;" horiz-adv-x="1418" 
d="M666 -26q-142 0 -259 56.5t-197.5 156t-115.5 231.5t-14 282t93 282t180.5 231.5t241.5 156t275 56.5q170 0 301.5 -79t207.5 -210l-102 -52q-63 107 -175.5 170t-246.5 63q-121 0 -233.5 -49t-204 -134.5t-151.5 -197.5t-78 -237q-18 -128 11 -239.5t97 -197
t166.5 -133.5t218.5 -48q139 0 268 64t219 167l88 -51q-112 -131 -266 -209.5t-324 -78.5zM824 1510l-153 288h72l151 -206l204 206h72l-231 -288h-115z" />
    <glyph glyph-name="ccaron" unicode="&#x10d;" horiz-adv-x="1019" 
d="M797 235l89 -52q-82 -95 -194 -152t-234 -57q-138 0 -241.5 71t-154 190.5t-30.5 264.5q15 110 67.5 205.5t131.5 168t175.5 113.5t199.5 41q122 0 218.5 -57t151.5 -153l-104 -51q-46 74 -121.5 113.5t-159.5 39.5q-110 0 -207 -57.5t-162.5 -153t-81.5 -209.5
q-16 -115 23.5 -210t120.5 -151.5t189 -56.5q91 0 177 43t147 110zM560 1110l-153 288h72l151 -206l204 206h72l-231 -288h-115z" />
    <glyph glyph-name="Dcaron" unicode="&#x10e;" horiz-adv-x="1343" 
d="M22 0l196 1400h463q145 0 264.5 -54.5t202 -151t119 -223t16.5 -271.5t-92 -271.5t-182 -223t-244.5 -151t-279.5 -54.5h-463zM145 108h354q123 0 237 46t206.5 127.5t153.5 188.5t79 230q17 123 -14 230t-101 188.5t-171 127.5t-224 46h-354zM708 1510l-153 288h72
l151 -206l204 206h72l-231 -288h-115z" />
    <glyph glyph-name="dcaron" unicode="&#x10f;" horiz-adv-x="1191" 
d="M1075 1500h108l-210 -1500h-108l29 206q-67 -105 -172 -168.5t-238 -63.5q-109 0 -198.5 41t-151.5 113.5t-89.5 167.5t-12.5 204t69.5 204.5t137 168t183.5 113.5t210 41q133 0 220 -63.5t125 -167.5zM499 80q116 0 206.5 56.5t147.5 152.5t74 211q17 118 -14.5 213.5
t-106 152t-188.5 56.5q-115 0 -217.5 -57t-172.5 -153t-86 -212q-16 -118 27.5 -213t130.5 -151t199 -56zM1239 1212l120 288h108l-156 -288h-72z" />
    <glyph glyph-name="Emacron" unicode="&#x112;" horiz-adv-x="1064" 
d="M22 0l196 1400h844l-15 -108h-736l-68 -488h615l-14 -108h-617l-82 -588h736l-15 -108h-844zM330 1670h676l-13 -92h-676z" />
    <glyph glyph-name="emacron" unicode="&#x113;" horiz-adv-x="1117" 
d="M458 -26q-138 0 -241.5 71t-154 190.5t-30.5 264.5q15 110 67.5 205.5t131.5 168t175.5 113.5t199.5 41q109 0 195.5 -42.5t142.5 -119.5t77.5 -181.5t0.5 -228.5h-883q-4 -107 37.5 -191.5t118 -133t178.5 -49.5q111 0 209 58.5t165 160.5l105 -25
q-79 -133 -211.5 -217.5t-282.5 -84.5zM149 548h778q8 103 -33.5 189.5t-119.5 138.5t-181 52q-104 0 -196 -51t-157.5 -137.5t-90.5 -191.5zM301 1270h676l-13 -92h-676z" />
    <glyph glyph-name="Edotaccent" unicode="&#x116;" horiz-adv-x="1064" 
d="M22 0l196 1400h844l-15 -108h-736l-68 -488h615l-14 -108h-617l-82 -588h736l-15 -108h-844zM658 1589q-28 0 -45 18.5t-13 46.5t26 46.5t50 18.5q27 0 44 -18.5t13 -46.5q-5 -28 -26 -46.5t-49 -18.5z" />
    <glyph glyph-name="edotaccent" unicode="&#x117;" horiz-adv-x="1117" 
d="M458 -26q-138 0 -241.5 71t-154 190.5t-30.5 264.5q15 110 67.5 205.5t131.5 168t175.5 113.5t199.5 41q109 0 195.5 -42.5t142.5 -119.5t77.5 -181.5t0.5 -228.5h-883q-4 -107 37.5 -191.5t118 -133t178.5 -49.5q111 0 209 58.5t165 160.5l105 -25
q-79 -133 -211.5 -217.5t-282.5 -84.5zM149 548h778q8 103 -33.5 189.5t-119.5 138.5t-181 52q-104 0 -196 -51t-157.5 -137.5t-90.5 -191.5zM629 1189q-28 0 -45 18.5t-13 46.5t26 46.5t50 18.5q27 0 44 -18.5t13 -46.5q-5 -28 -26 -46.5t-49 -18.5z" />
    <glyph glyph-name="Eogonek" unicode="&#x118;" horiz-adv-x="1064" 
d="M22 0l196 1400h844l-15 -108h-736l-68 -488h615l-14 -108h-617l-82 -588h736l-15 -108h-844zM572 -392q-50 1 -83.5 25t-48.5 62.5t-8 80.5q4 32 20 62t45 56l192 168l53 -62q-70 -61 -113 -98t-65 -58.5t-30.5 -37t-10.5 -32.5q-4 -30 12.5 -53.5t52.5 -25.5q38 0 75 28
t44 76h86q-8 -54 -40.5 -97.5t-80 -68.5t-100.5 -25z" />
    <glyph glyph-name="eogonek" unicode="&#x119;" horiz-adv-x="1117" 
d="M458 -26q-138 0 -241.5 71t-154 190.5t-30.5 264.5q15 110 67.5 205.5t131.5 168t175.5 113.5t199.5 41q109 0 195.5 -42.5t142.5 -119.5t77.5 -181.5t0.5 -228.5h-883q-4 -107 37.5 -191.5t118 -133t178.5 -49.5q111 0 209 58.5t165 160.5l105 -25
q-79 -133 -211.5 -217.5t-282.5 -84.5zM149 548h778q8 103 -33.5 189.5t-119.5 138.5t-181 52q-104 0 -196 -51t-157.5 -137.5t-90.5 -191.5zM448 -392q-50 1 -83.5 25t-48.5 62.5t-8 80.5q4 32 20 62t45 56l192 168l53 -62q-70 -61 -113 -98t-65 -58.5t-30.5 -37
t-10.5 -32.5q-4 -30 12.5 -53.5t52.5 -25.5q38 0 75 28t44 76h86q-8 -54 -40.5 -97.5t-80 -68.5t-100.5 -25z" />
    <glyph glyph-name="Ecaron" unicode="&#x11a;" horiz-adv-x="1064" 
d="M22 0l196 1400h844l-15 -108h-736l-68 -488h615l-14 -108h-617l-82 -588h736l-15 -108h-844zM588 1510l-153 288h72l151 -206l204 206h72l-231 -288h-115z" />
    <glyph glyph-name="ecaron" unicode="&#x11b;" horiz-adv-x="1117" 
d="M458 -26q-138 0 -241.5 71t-154 190.5t-30.5 264.5q15 110 67.5 205.5t131.5 168t175.5 113.5t199.5 41q109 0 195.5 -42.5t142.5 -119.5t77.5 -181.5t0.5 -228.5h-883q-4 -107 37.5 -191.5t118 -133t178.5 -49.5q111 0 209 58.5t165 160.5l105 -25
q-79 -133 -211.5 -217.5t-282.5 -84.5zM149 548h778q8 103 -33.5 189.5t-119.5 138.5t-181 52q-104 0 -196 -51t-157.5 -137.5t-90.5 -191.5zM559 1110l-153 288h72l151 -206l204 206h72l-231 -288h-115z" />
    <glyph glyph-name="Gcircumflex" unicode="&#x11c;" horiz-adv-x="1536" 
d="M667 -26q-143 0 -260.5 56.5t-198 157t-115 232t-13.5 281.5q21 151 94 283t182.5 231t242 154.5t274.5 55.5q163 0 296 -76t212 -212l-104 -52q-69 112 -180 172.5t-240 60.5q-120 0 -233 -48.5t-205 -134t-152.5 -197.5t-78.5 -239t11.5 -238.5t97.5 -196.5t167 -133.5
t219 -48.5q104 0 202 36.5t181.5 102.5t147 153t97.5 188h-415l14 100h541q-26 -143 -99.5 -267.5t-180.5 -219t-236.5 -148t-267.5 -53.5zM982 1798l153 -288h-72l-151 206l-205 -206h-71l231 288h115z" />
    <glyph glyph-name="gcircumflex" unicode="&#x11d;" horiz-adv-x="1159" 
d="M973 1000h108l-145 -1042q-13 -93 -65.5 -175.5t-131 -146t-171 -100t-185.5 -36.5q-104 0 -194 48.5t-149 129.5t-72 177l105 46q7 -81 54 -147.5t119 -105.5t152 -39q72 0 144 28t133 76.5t102 111.5t51 133l34 245q-68 -102 -171 -165.5t-228 -63.5q-104 0 -190 41
t-145 113.5t-85 167.5t-11 204t68 204.5t132.5 168t177 113.5t201.5 41q125 0 210 -62.5t125 -166.5zM479 80q111 0 200 58t146.5 154t72.5 208q16 115 -14.5 210.5t-103.5 153.5t-183 58q-111 0 -208.5 -57t-164 -153t-82.5 -212q-16 -117 24 -212t122.5 -151.5
t190.5 -56.5zM736 1398l153 -288h-72l-151 206l-205 -206h-71l231 288h115z" />
    <glyph glyph-name="Gbreve" unicode="&#x11e;" horiz-adv-x="1536" 
d="M667 -26q-143 0 -260.5 56.5t-198 157t-115 232t-13.5 281.5q21 151 94 283t182.5 231t242 154.5t274.5 55.5q163 0 296 -76t212 -212l-104 -52q-69 112 -180 172.5t-240 60.5q-120 0 -233 -48.5t-205 -134t-152.5 -197.5t-78.5 -239t11.5 -238.5t97.5 -196.5t167 -133.5
t219 -48.5q104 0 202 36.5t181.5 102.5t147 153t97.5 188h-415l14 100h541q-26 -143 -99.5 -267.5t-180.5 -219t-236.5 -148t-267.5 -53.5zM881 1488q-91 0 -160 45t-103.5 120.5t-22.5 166.5h84q-9 -70 17.5 -126t79 -89t117.5 -33q67 0 128 33.5t103 90t51 124.5h84
q-13 -93 -69 -168.5t-138 -119.5t-171 -44z" />
    <glyph glyph-name="gbreve" unicode="&#x11f;" horiz-adv-x="1159" 
d="M973 1000h108l-145 -1042q-13 -93 -65.5 -175.5t-131 -146t-171 -100t-185.5 -36.5q-104 0 -194 48.5t-149 129.5t-72 177l105 46q7 -81 54 -147.5t119 -105.5t152 -39q72 0 144 28t133 76.5t102 111.5t51 133l34 245q-68 -102 -171 -165.5t-228 -63.5q-104 0 -190 41
t-145 113.5t-85 167.5t-11 204t68 204.5t132.5 168t177 113.5t201.5 41q125 0 210 -62.5t125 -166.5zM479 80q111 0 200 58t146.5 154t72.5 208q16 115 -14.5 210.5t-103.5 153.5t-183 58q-111 0 -208.5 -57t-164 -153t-82.5 -212q-16 -117 24 -212t122.5 -151.5
t190.5 -56.5zM635 1088q-91 0 -160 45t-103.5 120.5t-22.5 166.5h84q-9 -70 17.5 -126t79 -89t117.5 -33q67 0 128 33.5t103 90t51 124.5h84q-13 -93 -69 -168.5t-138 -119.5t-171 -44z" />
    <glyph glyph-name="Gdotaccent" unicode="&#x120;" horiz-adv-x="1536" 
d="M667 -26q-143 0 -260.5 56.5t-198 157t-115 232t-13.5 281.5q21 151 94 283t182.5 231t242 154.5t274.5 55.5q163 0 296 -76t212 -212l-104 -52q-69 112 -180 172.5t-240 60.5q-120 0 -233 -48.5t-205 -134t-152.5 -197.5t-78.5 -239t11.5 -238.5t97.5 -196.5t167 -133.5
t219 -48.5q104 0 202 36.5t181.5 102.5t147 153t97.5 188h-415l14 100h541q-26 -143 -99.5 -267.5t-180.5 -219t-236.5 -148t-267.5 -53.5zM896 1589q-28 0 -45 18.5t-13 46.5t26 46.5t50 18.5q27 0 44 -18.5t13 -46.5q-5 -28 -26 -46.5t-49 -18.5z" />
    <glyph glyph-name="gdotaccent" unicode="&#x121;" horiz-adv-x="1159" 
d="M973 1000h108l-145 -1042q-13 -93 -65.5 -175.5t-131 -146t-171 -100t-185.5 -36.5q-104 0 -194 48.5t-149 129.5t-72 177l105 46q7 -81 54 -147.5t119 -105.5t152 -39q72 0 144 28t133 76.5t102 111.5t51 133l34 245q-68 -102 -171 -165.5t-228 -63.5q-104 0 -190 41
t-145 113.5t-85 167.5t-11 204t68 204.5t132.5 168t177 113.5t201.5 41q125 0 210 -62.5t125 -166.5zM479 80q111 0 200 58t146.5 154t72.5 208q16 115 -14.5 210.5t-103.5 153.5t-183 58q-111 0 -208.5 -57t-164 -153t-82.5 -212q-16 -117 24 -212t122.5 -151.5
t190.5 -56.5zM650 1189q-28 0 -45 18.5t-13 46.5t26 46.5t50 18.5q27 0 44 -18.5t13 -46.5q-5 -28 -26 -46.5t-49 -18.5z" />
    <glyph glyph-name="uni0122" unicode="&#x122;" horiz-adv-x="1536" 
d="M667 -26q-143 0 -260.5 56.5t-198 157t-115 232t-13.5 281.5q21 151 94 283t182.5 231t242 154.5t274.5 55.5q163 0 296 -76t212 -212l-104 -52q-69 112 -180 172.5t-240 60.5q-120 0 -233 -48.5t-205 -134t-152.5 -197.5t-78.5 -239t11.5 -238.5t97.5 -196.5t167 -133.5
t219 -48.5q104 0 202 36.5t181.5 102.5t147 153t97.5 188h-415l14 100h541q-26 -143 -99.5 -267.5t-180.5 -219t-236.5 -148t-267.5 -53.5zM492 -441l109 338h108l-145 -338h-72z" />
    <glyph glyph-name="Hcircumflex" unicode="&#x124;" horiz-adv-x="1239" 
d="M1109 1400h108l-196 -1400h-108l97 696h-783l-97 -696h-108l196 1400h108l-83 -596h782zM831 1798l153 -288h-72l-151 206l-205 -206h-71l231 288h115z" />
    <glyph glyph-name="hcircumflex" unicode="&#x125;" horiz-adv-x="1059" 
d="M967 615l-86 -615h-108l84 598q12 89 -21 162t-99.5 116t-155.5 43t-168 -43t-132 -116t-66 -162l-84 -598h-108l210 1500h108l-91 -653q66 83 161.5 132t200.5 49q115 0 200.5 -55.5t128 -149.5t26.5 -208zM774 1823l153 -288h-72l-151 206l-205 -206h-71l231 288h115z
" />
    <glyph glyph-name="Itilde" unicode="&#x128;" horiz-adv-x="408" 
d="M52 0l196 1400h108l-196 -1400h-108zM476 1539q-37 0 -77.5 23t-80 53t-76 51t-65.5 18q-31 -4 -53.5 -33t-18.5 -68l-83 -22q-10 50 11 98t65 79t99 31q38 0 79.5 -22t82.5 -50.5t78 -50.5t65 -22q23 0 39.5 18.5t25 42t4.5 40.5l82 25q11 -53 -11.5 -101.5t-66.5 -79
t-99 -30.5z" />
    <glyph glyph-name="itilde" unicode="&#x129;" 
d="M341 1111q-26 0 -55.5 18.5t-58 42t-54.5 41t-47 14.5q-22 -3 -38.5 -26t-13.5 -55l-60 -17q-7 40 8.5 78t47 63.5t70.5 25.5q27 0 57 -18t60 -41t56.5 -40.5t46.5 -17.5q24 0 39 30.5t11 50.5l59 20q11 -64 -28.5 -116.5t-99.5 -52.5zM162 1000h108l-140 -1000h-108z
" />
    <glyph glyph-name="Imacron" unicode="&#x12a;" horiz-adv-x="408" 
d="M52 0l196 1400h108l-196 -1400h-108zM2 1670h676l-13 -92h-676z" />
    <glyph glyph-name="imacron" unicode="&#x12b;" 
d="M61 1270h348l-7 -92h-347zM162 1000h108l-140 -1000h-108z" />
    <glyph glyph-name="Iogonek" unicode="&#x12e;" horiz-adv-x="408" 
d="M52 0l196 1400h108l-196 -1400h-108zM-10 -392q-50 1 -83.5 25t-48.5 62.5t-8 80.5q4 32 20 62t45 56l192 168l53 -62q-70 -61 -113 -98t-65 -58.5t-30.5 -37t-10.5 -32.5q-4 -30 12.5 -53.5t52.5 -25.5q38 0 75 28t44 76h86q-8 -54 -40.5 -97.5t-80 -68.5t-100.5 -25z
" />
    <glyph glyph-name="iogonek" unicode="&#x12f;" 
d="M162 1000h108l-140 -1000h-108zM244 1189q-28 0 -45 18.5t-13 46.5t26 46.5t50 18.5q27 0 44 -18.5t13 -46.5q-5 -28 -26 -46.5t-49 -18.5zM-40 -392q-50 1 -83.5 25t-48.5 62.5t-8 80.5q4 32 20 62t45 56l192 168l53 -62q-70 -61 -113 -98t-65 -58.5t-30.5 -37
t-10.5 -32.5q-4 -30 12.5 -53.5t52.5 -25.5q38 0 75 28t44 76h86q-8 -54 -40.5 -97.5t-80 -68.5t-100.5 -25z" />
    <glyph glyph-name="Idotaccent" unicode="&#x130;" horiz-adv-x="408" 
d="M52 0l196 1400h108l-196 -1400h-108zM330 1589q-28 0 -45 18.5t-13 46.5t26 46.5t50 18.5q27 0 44 -18.5t13 -46.5q-5 -28 -26 -46.5t-49 -18.5z" />
    <glyph glyph-name="dotlessi" unicode="&#x131;" 
d="M162 1000h108l-140 -1000h-108z" />
    <glyph glyph-name="IJ" unicode="&#x132;" horiz-adv-x="1185" 
d="M52 0l196 1400h108l-196 -1400h-108zM586 -26q-66 0 -124.5 21.5t-103.5 65.5l81 84q30 -30 71.5 -46.5t89.5 -16.5q75 0 142 40.5t112.5 105t55.5 138.5l145 1034h108l-145 -1034q-14 -104 -77.5 -193t-157 -144t-197.5 -55z" />
    <glyph glyph-name="ij" unicode="&#x133;" horiz-adv-x="715" 
d="M162 1000h108l-140 -1000h-108zM244 1189q-28 0 -45 18.5t-13 46.5t26 46.5t50 18.5q27 0 44 -18.5t13 -46.5q-5 -28 -26 -46.5t-49 -18.5zM39 -500l16 108q80 0 148 35t113 96t56 137l157 1124h108l-157 -1124q-15 -104 -77.5 -189.5t-157.5 -136t-206 -50.5zM611 1189
q-28 0 -45 18.5t-13 46.5t26 46.5t50 18.5q27 0 44 -18.5t13 -46.5q-5 -28 -26 -46.5t-49 -18.5z" />
    <glyph glyph-name="Jcircumflex" unicode="&#x134;" horiz-adv-x="777" 
d="M178 -26q-66 0 -124.5 21.5t-103.5 65.5l81 84q30 -30 71.5 -46.5t89.5 -16.5q75 0 142 40.5t112.5 105t55.5 138.5l145 1034h108l-145 -1034q-14 -104 -77.5 -193t-157 -144t-197.5 -55zM815 1798l153 -288h-72l-151 206l-205 -206h-71l231 288h115z" />
    <glyph glyph-name="jcircumflex" unicode="&#x135;" horiz-adv-x="427" 
d="M-249 -500l16 108q80 0 148 35t113 96t56 137l157 1124h108l-157 -1124q-15 -104 -77.5 -189.5t-157.5 -136t-206 -50.5zM409 1398l153 -288h-72l-151 206l-205 -206h-71l231 288h115z" />
    <glyph glyph-name="uni0136" unicode="&#x136;" horiz-adv-x="1033" 
d="M883 0h-139l-388 653l-157 -161l-69 -492h-108l196 1400h108l-104 -740l724 740h141l-648 -661zM241 -441l109 338h108l-145 -338h-72z" />
    <glyph glyph-name="uni0137" unicode="&#x137;" horiz-adv-x="956" 
d="M769 0h-124l-225 511l-254 -261l-35 -250h-108l210 1500h108l-152 -1082l570 582h141l-394 -401zM190 -441l109 338h108l-145 -338h-72z" />
    <glyph glyph-name="Lacute" unicode="&#x139;" horiz-adv-x="990" 
d="M22 0l196 1400h108l-181 -1292h662l-15 -108h-770zM264 1510l120 288h108l-156 -288h-72z" />
    <glyph glyph-name="lacute" unicode="&#x13a;" 
d="M23 0l210 1500h108l-210 -1500h-108zM279 1610l120 288h108l-156 -288h-72z" />
    <glyph glyph-name="uni013B" unicode="&#x13b;" horiz-adv-x="990" 
d="M22 0l196 1400h108l-181 -1292h662l-15 -108h-770zM229 -441l109 338h108l-145 -338h-72z" />
    <glyph glyph-name="uni013C" unicode="&#x13c;" 
d="M23 0l210 1500h108l-210 -1500h-108zM-101 -441l109 338h108l-145 -338h-72z" />
    <glyph glyph-name="Lcaron" unicode="&#x13d;" horiz-adv-x="990" 
d="M22 0l196 1400h108l-181 -1292h662l-15 -108h-770zM626 1212l120 288h108l-156 -288h-72z" />
    <glyph glyph-name="lcaron" unicode="&#x13e;" 
d="M23 0l210 1500h108l-210 -1500h-108zM390 1212l120 288h108l-156 -288h-72z" />
    <glyph glyph-name="Nacute" unicode="&#x143;" horiz-adv-x="1250" 
d="M22 0l196 1400h118l615 -1205l169 1205h108l-196 -1400h-116l-617 1205l-169 -1205h-108zM714 1510l120 288h108l-156 -288h-72z" />
    <glyph glyph-name="nacute" unicode="&#x144;" horiz-adv-x="1058" 
d="M966 615l-86 -615h-108l84 598q12 89 -21 162t-99.5 116t-155.5 43t-168 -43t-132 -116t-66 -162l-84 -598h-108l140 1000h108l-21 -153q66 83 161.5 132t200.5 49q115 0 200.5 -55.5t128 -149.5t26.5 -208zM587 1110l120 288h108l-156 -288h-72z" />
    <glyph glyph-name="uni0145" unicode="&#x145;" horiz-adv-x="1250" 
d="M22 0l196 1400h118l615 -1205l169 1205h108l-196 -1400h-116l-617 1205l-169 -1205h-108zM349 -441l109 338h108l-145 -338h-72z" />
    <glyph glyph-name="uni0146" unicode="&#x146;" horiz-adv-x="1058" 
d="M966 615l-86 -615h-108l84 598q12 89 -21 162t-99.5 116t-155.5 43t-168 -43t-132 -116t-66 -162l-84 -598h-108l140 1000h108l-21 -153q66 83 161.5 132t200.5 49q115 0 200.5 -55.5t128 -149.5t26.5 -208zM273 -441l109 338h108l-145 -338h-72z" />
    <glyph glyph-name="Ncaron" unicode="&#x147;" horiz-adv-x="1250" 
d="M22 0l196 1400h118l615 -1205l169 1205h108l-196 -1400h-116l-617 1205l-169 -1205h-108zM680 1510l-153 288h72l151 -206l204 206h72l-231 -288h-115z" />
    <glyph glyph-name="ncaron" unicode="&#x148;" horiz-adv-x="1058" 
d="M966 615l-86 -615h-108l84 598q12 89 -21 162t-99.5 116t-155.5 43t-168 -43t-132 -116t-66 -162l-84 -598h-108l140 1000h108l-21 -153q66 83 161.5 132t200.5 49q115 0 200.5 -55.5t128 -149.5t26.5 -208zM553 1110l-153 288h72l151 -206l204 206h72l-231 -288h-115z
" />
    <glyph glyph-name="Omacron" unicode="&#x14c;" horiz-adv-x="1540" 
d="M668 -26q-142 0 -259.5 56.5t-198 156.5t-116 231.5t-14.5 281.5t93 281.5t181.5 231.5t242.5 156.5t275 56.5q143 0 260 -56.5t197.5 -156.5t116 -231.5t14.5 -281.5t-93 -281.5t-181.5 -231.5t-242 -156.5t-275.5 -56.5zM683 82q121 0 233.5 49t204.5 134.5
t152.5 197.5t78.5 237q18 127 -11.5 239t-97.5 197t-166.5 133.5t-219.5 48.5t-233.5 -49t-204.5 -134.5t-152.5 -197.5t-78.5 -237q-18 -127 11.5 -239t97.5 -197.5t166.5 -133.5t219.5 -48zM568 1670h676l-13 -92h-676z" />
    <glyph glyph-name="omacron" unicode="&#x14d;" horiz-adv-x="1120" 
d="M458 -26q-138 0 -241.5 71t-154 190.5t-30.5 264.5q15 110 67.5 205.5t131.5 168t175.5 113.5t199.5 41q138 0 241.5 -71t154.5 -191t30 -266q-15 -109 -67.5 -204t-131.5 -167.5t-175 -113.5t-200 -41zM473 82q110 0 207 58t163 153t81 207q16 113 -23 209t-119 153.5
t-191 57.5t-208 -58t-162 -153.5t-81 -208.5q-16 -117 24 -211.5t121 -150.5t188 -56zM302 1270h676l-13 -92h-676z" />
    <glyph glyph-name="Ohungarumlaut" unicode="&#x150;" horiz-adv-x="1540" 
d="M668 -26q-142 0 -259.5 56.5t-198 156.5t-116 231.5t-14.5 281.5t93 281.5t181.5 231.5t242.5 156.5t275 56.5q143 0 260 -56.5t197.5 -156.5t116 -231.5t14.5 -281.5t-93 -281.5t-181.5 -231.5t-242 -156.5t-275.5 -56.5zM683 82q121 0 233.5 49t204.5 134.5
t152.5 197.5t78.5 237q18 127 -11.5 239t-97.5 197t-166.5 133.5t-219.5 48.5t-233.5 -49t-204.5 -134.5t-152.5 -197.5t-78.5 -237q-18 -127 11.5 -239t97.5 -197.5t166.5 -133.5t219.5 -48zM996 1510l120 288h108l-156 -288h-72zM741 1510l120 288h108l-156 -288h-72z" />
    <glyph glyph-name="ohungarumlaut" unicode="&#x151;" horiz-adv-x="1120" 
d="M458 -26q-138 0 -241.5 71t-154 190.5t-30.5 264.5q15 110 67.5 205.5t131.5 168t175.5 113.5t199.5 41q138 0 241.5 -71t154.5 -191t30 -266q-15 -109 -67.5 -204t-131.5 -167.5t-175 -113.5t-200 -41zM473 82q110 0 207 58t163 153t81 207q16 113 -23 209t-119 153.5
t-191 57.5t-208 -58t-162 -153.5t-81 -208.5q-16 -117 24 -211.5t121 -150.5t188 -56zM730 1110l120 288h108l-156 -288h-72zM475 1110l120 288h108l-156 -288h-72z" />
    <glyph glyph-name="OE" unicode="&#x152;" horiz-adv-x="2184" 
d="M668 -26q-142 0 -259.5 56.5t-198 156.5t-116 231.5t-14.5 281.5t93 281.5t181.5 231.5t242.5 156.5t275 56.5q127 0 232.5 -47t182.5 -130.5t116 -192.5l48 344h731l-15 -108h-623l-76 -538h527l-14 -108h-527l-76 -538h623l-15 -108h-731l47 344q-69 -109 -169 -192.5
t-219 -130.5t-246 -47zM683 82q121 0 233.5 49t204.5 134.5t152.5 197.5t78.5 237q18 127 -11.5 239t-97.5 197t-166.5 133.5t-219.5 48.5t-233.5 -49t-204.5 -134.5t-152.5 -197.5t-78.5 -237q-18 -127 11.5 -239t97.5 -197.5t166.5 -133.5t219.5 -48z" />
    <glyph glyph-name="oe" unicode="&#x153;" horiz-adv-x="2009" 
d="M458 -26q-138 0 -241.5 71t-154 190.5t-30.5 264.5q15 110 67.5 205.5t131.5 168t175.5 113.5t199.5 41q100 0 182 -39t139.5 -108.5t80.5 -160.5q51 91 127.5 160.5t169.5 108.5t193 39q109 0 195 -42.5t142.5 -119.5t77.5 -181t1 -229h-883q-4 -107 37.5 -191.5
t118 -133t178.5 -49.5q111 0 209 58.5t165 160.5l105 -25q-79 -133 -211.5 -217.5t-282.5 -84.5q-100 0 -182 39t-139 108.5t-81 159.5q-50 -90 -127 -159.5t-170 -108.5t-193 -39zM473 82q110 0 207 58t163 153t81 207q16 113 -23 209t-119 153.5t-191 57.5t-208 -58
t-162 -153.5t-81 -208.5q-16 -117 24 -211.5t121 -150.5t188 -56zM1041 549h777q9 102 -32.5 188.5t-119.5 138.5t-181 52q-104 0 -196.5 -51t-158 -137t-89.5 -191z" />
    <glyph glyph-name="Racute" unicode="&#x154;" horiz-adv-x="1085" 
d="M22 0l196 1400h456q111 0 193.5 -53.5t122 -145.5t23.5 -206q-14 -106 -70.5 -191t-140.5 -139.5t-181 -68.5l262 -596h-125l-259 589h-287l-82 -589h-108zM227 697h341q81 0 154 39.5t122.5 107.5t61.5 155q13 86 -17.5 154.5t-92.5 108t-142 39.5h-341zM510 1510
l120 288h108l-156 -288h-72z" />
    <glyph glyph-name="racute" unicode="&#x155;" horiz-adv-x="698" 
d="M22 0l140 1000h108l-21 -153q66 83 161.5 132t200.5 49q59 0 111 -15l-60 -106q-40 12 -82 12q-89 0 -168 -43t-132 -116t-66 -162l-84 -598h-108zM415 1110l120 288h108l-156 -288h-72z" />
    <glyph glyph-name="uni0156" unicode="&#x156;" horiz-adv-x="1085" 
d="M22 0l196 1400h456q111 0 193.5 -53.5t122 -145.5t23.5 -206q-14 -106 -70.5 -191t-140.5 -139.5t-181 -68.5l262 -596h-125l-259 589h-287l-82 -589h-108zM227 697h341q81 0 154 39.5t122.5 107.5t61.5 155q13 86 -17.5 154.5t-92.5 108t-142 39.5h-341zM255 -441
l109 338h108l-145 -338h-72z" />
    <glyph glyph-name="uni0157" unicode="&#x157;" horiz-adv-x="698" 
d="M22 0l140 1000h108l-21 -153q66 83 161.5 132t200.5 49q59 0 111 -15l-60 -106q-40 12 -82 12q-89 0 -168 -43t-132 -116t-66 -162l-84 -598h-108zM-102 -441l109 338h108l-145 -338h-72z" />
    <glyph glyph-name="Rcaron" unicode="&#x158;" horiz-adv-x="1085" 
d="M22 0l196 1400h456q111 0 193.5 -53.5t122 -145.5t23.5 -206q-14 -106 -70.5 -191t-140.5 -139.5t-181 -68.5l262 -596h-125l-259 589h-287l-82 -589h-108zM227 697h341q81 0 154 39.5t122.5 107.5t61.5 155q13 86 -17.5 154.5t-92.5 108t-142 39.5h-341zM476 1510
l-153 288h72l151 -206l204 206h72l-231 -288h-115z" />
    <glyph glyph-name="rcaron" unicode="&#x159;" horiz-adv-x="698" 
d="M22 0l140 1000h108l-21 -153q66 83 161.5 132t200.5 49q59 0 111 -15l-60 -106q-40 12 -82 12q-89 0 -168 -43t-132 -116t-66 -162l-84 -598h-108zM381 1110l-153 288h72l151 -206l204 206h72l-231 -288h-115z" />
    <glyph glyph-name="Sacute" unicode="&#x15a;" horiz-adv-x="1211" 
d="M503 -26q-111 0 -210 34.5t-167.5 98t-87.5 152.5l107 38q15 -68 71 -116.5t136 -73.5t166 -25q102 0 196 35t158 97.5t76 148.5t-37 141.5t-134 88t-180 50.5q-138 25 -244.5 66.5t-161 117.5t-37.5 204q17 119 99 206t202 135t251 48q107 0 205.5 -33.5t169 -97.5
t92.5 -156l-109 -37q-14 69 -71 117t-137 73t-165 25q-103 1 -196.5 -34.5t-156.5 -98.5t-76 -147q-13 -97 30.5 -150t128 -79.5t191.5 -47.5q129 -23 236 -70.5t165.5 -126t42.5 -194.5q-17 -118 -98.5 -205.5t-201.5 -135.5t-253 -48zM695 1510l120 288h108l-156 -288h-72
z" />
    <glyph glyph-name="sacute" unicode="&#x15b;" horiz-adv-x="856" 
d="M332 -19q-83 1 -158.5 29.5t-127.5 76.5t-67 109l101 41q11 -45 54 -81t102 -56.5t117 -20.5q68 0 130.5 23t105.5 65t50 99q9 60 -25.5 94.5t-92 56t-118.5 40.5q-105 32 -181 65.5t-113 85.5t-25 137q12 88 72.5 153t148.5 100.5t183 35.5q123 0 215.5 -54t122.5 -142
l-96 -52q-13 46 -51.5 79t-91 51t-107.5 19q-70 1 -134 -21.5t-106.5 -65t-51.5 -102.5t21 -92t88 -51.5t134 -45.5q89 -29 164.5 -64.5t117.5 -88.5t30 -137q-13 -88 -74.5 -153t-151 -100t-185.5 -33zM462 1110l120 288h108l-156 -288h-72z" />
    <glyph glyph-name="Scircumflex" unicode="&#x15c;" horiz-adv-x="1211" 
d="M503 -26q-111 0 -210 34.5t-167.5 98t-87.5 152.5l107 38q15 -68 71 -116.5t136 -73.5t166 -25q102 0 196 35t158 97.5t76 148.5t-37 141.5t-134 88t-180 50.5q-138 25 -244.5 66.5t-161 117.5t-37.5 204q17 119 99 206t202 135t251 48q107 0 205.5 -33.5t169 -97.5
t92.5 -156l-109 -37q-14 69 -71 117t-137 73t-165 25q-103 1 -196.5 -34.5t-156.5 -98.5t-76 -147q-13 -97 30.5 -150t128 -79.5t191.5 -47.5q129 -23 236 -70.5t165.5 -126t42.5 -194.5q-17 -118 -98.5 -205.5t-201.5 -135.5t-253 -48zM818 1798l153 -288h-72l-151 206
l-205 -206h-71l231 288h115z" />
    <glyph glyph-name="scircumflex" unicode="&#x15d;" horiz-adv-x="856" 
d="M332 -19q-83 1 -158.5 29.5t-127.5 76.5t-67 109l101 41q11 -45 54 -81t102 -56.5t117 -20.5q68 0 130.5 23t105.5 65t50 99q9 60 -25.5 94.5t-92 56t-118.5 40.5q-105 32 -181 65.5t-113 85.5t-25 137q12 88 72.5 153t148.5 100.5t183 35.5q123 0 215.5 -54t122.5 -142
l-96 -52q-13 46 -51.5 79t-91 51t-107.5 19q-70 1 -134 -21.5t-106.5 -65t-51.5 -102.5t21 -92t88 -51.5t134 -45.5q89 -29 164.5 -64.5t117.5 -88.5t30 -137q-13 -88 -74.5 -153t-151 -100t-185.5 -33zM585 1398l153 -288h-72l-151 206l-205 -206h-71l231 288h115z" />
    <glyph glyph-name="Scedilla" unicode="&#x15e;" horiz-adv-x="1211" 
d="M503 -26q-111 0 -210 34.5t-167.5 98t-87.5 152.5l107 38q15 -68 71 -116.5t136 -73.5t166 -25q102 0 196 35t158 97.5t76 148.5t-37 141.5t-134 88t-180 50.5q-138 25 -244.5 66.5t-161 117.5t-37.5 204q17 119 99 206t202 135t251 48q107 0 205.5 -33.5t169 -97.5
t92.5 -156l-109 -37q-14 69 -71 117t-137 73t-165 25q-103 1 -196.5 -34.5t-156.5 -98.5t-76 -147q-13 -97 30.5 -150t128 -79.5t191.5 -47.5q129 -23 236 -70.5t165.5 -126t42.5 -194.5q-17 -118 -98.5 -205.5t-201.5 -135.5t-253 -48zM524 -364q-63 -17 -113.5 15
t-58.5 93l78 20q4 -30 29 -45.5t55 -7.5q32 9 51.5 35.5t15.5 56.5q-4 31 -29 46t-56 8l-88 -16l147 204l62 -39l-54 -75q38 -9 64.5 -37.5t31.5 -69.5q8 -62 -31.5 -117t-103.5 -71z" />
    <glyph glyph-name="scedilla" unicode="&#x15f;" horiz-adv-x="856" 
d="M332 -19q-83 1 -158.5 29.5t-127.5 76.5t-67 109l101 41q11 -45 54 -81t102 -56.5t117 -20.5q68 0 130.5 23t105.5 65t50 99q9 60 -25.5 94.5t-92 56t-118.5 40.5q-105 32 -181 65.5t-113 85.5t-25 137q12 88 72.5 153t148.5 100.5t183 35.5q123 0 215.5 -54t122.5 -142
l-96 -52q-13 46 -51.5 79t-91 51t-107.5 19q-70 1 -134 -21.5t-106.5 -65t-51.5 -102.5t21 -92t88 -51.5t134 -45.5q89 -29 164.5 -64.5t117.5 -88.5t30 -137q-13 -88 -74.5 -153t-151 -100t-185.5 -33zM340 -364q-63 -17 -113.5 15t-58.5 93l78 20q4 -30 29 -45.5t55 -7.5
q32 9 51.5 35.5t15.5 56.5q-4 31 -29 46t-56 8l-88 -16l147 204l62 -39l-54 -75q38 -9 64.5 -37.5t31.5 -69.5q8 -62 -31.5 -117t-103.5 -71z" />
    <glyph glyph-name="Scaron" unicode="&#x160;" horiz-adv-x="1211" 
d="M503 -26q-111 0 -210 34.5t-167.5 98t-87.5 152.5l107 38q15 -68 71 -116.5t136 -73.5t166 -25q102 0 196 35t158 97.5t76 148.5t-37 141.5t-134 88t-180 50.5q-138 25 -244.5 66.5t-161 117.5t-37.5 204q17 119 99 206t202 135t251 48q107 0 205.5 -33.5t169 -97.5
t92.5 -156l-109 -37q-14 69 -71 117t-137 73t-165 25q-103 1 -196.5 -34.5t-156.5 -98.5t-76 -147q-13 -97 30.5 -150t128 -79.5t191.5 -47.5q129 -23 236 -70.5t165.5 -126t42.5 -194.5q-17 -118 -98.5 -205.5t-201.5 -135.5t-253 -48zM661 1510l-153 288h72l151 -206
l204 206h72l-231 -288h-115z" />
    <glyph glyph-name="scaron" unicode="&#x161;" horiz-adv-x="856" 
d="M332 -19q-83 1 -158.5 29.5t-127.5 76.5t-67 109l101 41q11 -45 54 -81t102 -56.5t117 -20.5q68 0 130.5 23t105.5 65t50 99q9 60 -25.5 94.5t-92 56t-118.5 40.5q-105 32 -181 65.5t-113 85.5t-25 137q12 88 72.5 153t148.5 100.5t183 35.5q123 0 215.5 -54t122.5 -142
l-96 -52q-13 46 -51.5 79t-91 51t-107.5 19q-70 1 -134 -21.5t-106.5 -65t-51.5 -102.5t21 -92t88 -51.5t134 -45.5q89 -29 164.5 -64.5t117.5 -88.5t30 -137q-13 -88 -74.5 -153t-151 -100t-185.5 -33zM428 1110l-153 288h72l151 -206l204 206h72l-231 -288h-115z" />
    <glyph glyph-name="uni0162" unicode="&#x162;" horiz-adv-x="1259" 
d="M1277 1400l-16 -108h-496l-180 -1292h-108l180 1292h-494l15 108h1099zM480 -364q-63 -17 -113.5 15t-58.5 93l78 20q4 -30 29 -45.5t55 -7.5q32 9 51.5 35.5t15.5 56.5q-4 31 -29 46t-56 8l-88 -16l147 204l62 -39l-54 -75q38 -9 64.5 -37.5t31.5 -69.5
q8 -62 -31.5 -117t-103.5 -71z" />
    <glyph glyph-name="uni0163" unicode="&#x163;" horiz-adv-x="682" 
d="M651 892h-253l-127 -892h-108l127 892h-191l14 108h191l43 314h108l-43 -314h253zM166 -364q-63 -17 -113.5 15t-58.5 93l78 20q4 -30 29 -45.5t55 -7.5q32 9 51.5 35.5t15.5 56.5q-4 31 -29 46t-56 8l-88 -16l147 204l62 -39l-54 -75q38 -9 64.5 -37.5t31.5 -69.5
q8 -62 -31.5 -117t-103.5 -71z" />
    <glyph glyph-name="Tcaron" unicode="&#x164;" horiz-adv-x="1259" 
d="M1277 1400l-16 -108h-496l-180 -1292h-108l180 1292h-494l15 108h1099zM685 1510l-153 288h72l151 -206l204 206h72l-231 -288h-115z" />
    <glyph glyph-name="tcaron" unicode="&#x165;" horiz-adv-x="682" 
d="M651 892h-253l-127 -892h-108l127 892h-191l14 108h191l43 314h108l-43 -314h253zM586 1212l120 288h108l-156 -288h-72z" />
    <glyph glyph-name="Utilde" unicode="&#x168;" horiz-adv-x="1316" 
d="M556 -26q-168 0 -277 82t-154 220.5t-21 307.5l114 816h108l-114 -816q-19 -137 14.5 -251t119.5 -182.5t225 -68.5q140 0 245.5 69t170.5 183.5t85 249.5l114 816h108l-114 -816q-18 -127 -70.5 -237.5t-134 -194.5t-187.5 -131t-232 -47zM930 1539q-37 0 -77.5 23
t-80 53t-76 51t-65.5 18q-31 -4 -53.5 -33t-18.5 -68l-83 -22q-10 50 11 98t65 79t99 31q38 0 79.5 -22t82.5 -50.5t78 -50.5t65 -22q23 0 39.5 18.5t25 42t4.5 40.5l82 25q11 -53 -11.5 -101.5t-66.5 -79t-99 -30.5z" />
    <glyph glyph-name="utilde" unicode="&#x169;" horiz-adv-x="1018" 
d="M36 387l86 613h108l-84 -596q-12 -89 21 -162t100 -116t155 -43q89 0 168 43t132.5 116t66.5 162l83 596h108l-140 -1000h-108l21 155q-65 -82 -160.5 -131.5t-201.5 -49.5q-114 0 -200 55.5t-128.5 149.5t-26.5 208zM733 1140q-37 0 -77.5 23t-80 53t-76 51t-65.5 18
q-31 -4 -53.5 -33t-18.5 -68l-83 -22q-10 50 11 98t65 79t99 31q38 0 79.5 -22t82.5 -50.5t78 -50.5t65 -22q23 0 39.5 18.5t25 42t4.5 40.5l82 25q11 -53 -11.5 -101.5t-66.5 -79t-99 -30.5z" />
    <glyph glyph-name="Umacron" unicode="&#x16a;" horiz-adv-x="1316" 
d="M556 -26q-168 0 -277 82t-154 220.5t-21 307.5l114 816h108l-114 -816q-19 -137 14.5 -251t119.5 -182.5t225 -68.5q140 0 245.5 69t170.5 183.5t85 249.5l114 816h108l-114 -816q-18 -127 -70.5 -237.5t-134 -194.5t-187.5 -131t-232 -47zM456 1670h676l-13 -92h-676z
" />
    <glyph glyph-name="umacron" unicode="&#x16b;" horiz-adv-x="1018" 
d="M36 387l86 613h108l-84 -596q-12 -89 21 -162t100 -116t155 -43q89 0 168 43t132.5 116t66.5 162l83 596h108l-140 -1000h-108l21 155q-65 -82 -160.5 -131.5t-201.5 -49.5q-114 0 -200 55.5t-128.5 149.5t-26.5 208zM259 1271h676l-13 -92h-676z" />
    <glyph glyph-name="Ubreve" unicode="&#x16c;" horiz-adv-x="1316" 
d="M556 -26q-168 0 -277 82t-154 220.5t-21 307.5l114 816h108l-114 -816q-19 -137 14.5 -251t119.5 -182.5t225 -68.5q140 0 245.5 69t170.5 183.5t85 249.5l114 816h108l-114 -816q-18 -127 -70.5 -237.5t-134 -194.5t-187.5 -131t-232 -47zM769 1488q-91 0 -160 45
t-103.5 120.5t-22.5 166.5h84q-9 -70 17.5 -126t79 -89t117.5 -33q67 0 128 33.5t103 90t51 124.5h84q-13 -93 -69 -168.5t-138 -119.5t-171 -44z" />
    <glyph glyph-name="ubreve" unicode="&#x16d;" horiz-adv-x="1018" 
d="M36 387l86 613h108l-84 -596q-12 -89 21 -162t100 -116t155 -43q89 0 168 43t132.5 116t66.5 162l83 596h108l-140 -1000h-108l21 155q-65 -82 -160.5 -131.5t-201.5 -49.5q-114 0 -200 55.5t-128.5 149.5t-26.5 208zM572 1089q-91 0 -160 45t-103.5 120.5t-22.5 166.5
h84q-9 -70 17.5 -126t79 -89t117.5 -33q67 0 128 33.5t103 90t51 124.5h84q-13 -93 -69 -168.5t-138 -119.5t-171 -44z" />
    <glyph glyph-name="Uring" unicode="&#x16e;" horiz-adv-x="1316" 
d="M556 -26q-168 0 -277 82t-154 220.5t-21 307.5l114 816h108l-114 -816q-19 -137 14.5 -251t119.5 -182.5t225 -68.5q140 0 245.5 69t170.5 183.5t85 249.5l114 816h108l-114 -816q-18 -127 -70.5 -237.5t-134 -194.5t-187.5 -131t-232 -47zM770 1503q-62 0 -100 45
t-29 107q6 41 31 75t62 54.5t78 20.5q62 0 100 -44.5t30 -105.5q-9 -63 -59.5 -107.5t-112.5 -44.5zM779 1569q35 0 63.5 25t33.5 61q5 34 -16.5 58t-57.5 24q-34 0 -61.5 -24t-32.5 -58q-5 -36 16 -61t55 -25z" />
    <glyph glyph-name="uring" unicode="&#x16f;" horiz-adv-x="1018" 
d="M36 387l86 613h108l-84 -596q-12 -89 21 -162t100 -116t155 -43q89 0 168 43t132.5 116t66.5 162l83 596h108l-140 -1000h-108l21 155q-65 -82 -160.5 -131.5t-201.5 -49.5q-114 0 -200 55.5t-128.5 149.5t-26.5 208zM573 1104q-62 0 -100 45t-29 107q6 41 31 75t62 54.5
t78 20.5q62 0 100 -44.5t30 -105.5q-9 -63 -59.5 -107.5t-112.5 -44.5zM582 1170q35 0 63.5 25t33.5 61q5 34 -16.5 58t-57.5 24q-34 0 -61.5 -24t-32.5 -58q-5 -36 16 -61t55 -25z" />
    <glyph glyph-name="Uhungarumlaut" unicode="&#x170;" horiz-adv-x="1316" 
d="M556 -26q-168 0 -277 82t-154 220.5t-21 307.5l114 816h108l-114 -816q-19 -137 14.5 -251t119.5 -182.5t225 -68.5q140 0 245.5 69t170.5 183.5t85 249.5l114 816h108l-114 -816q-18 -127 -70.5 -237.5t-134 -194.5t-187.5 -131t-232 -47zM884 1510l120 288h108
l-156 -288h-72zM628 1510l120 288h108l-156 -288h-72z" />
    <glyph glyph-name="uhungarumlaut" unicode="&#x171;" horiz-adv-x="1018" 
d="M36 387l86 613h108l-84 -596q-12 -89 21 -162t100 -116t155 -43q89 0 168 43t132.5 116t66.5 162l83 596h108l-140 -1000h-108l21 155q-65 -82 -160.5 -131.5t-201.5 -49.5q-114 0 -200 55.5t-128.5 149.5t-26.5 208zM687 1111l120 288h108l-156 -288h-72zM432 1111
l120 288h108l-156 -288h-72z" />
    <glyph glyph-name="Uogonek" unicode="&#x172;" horiz-adv-x="1316" 
d="M556 -26q-168 0 -277 82t-154 220.5t-21 307.5l114 816h108l-114 -816q-19 -137 14.5 -251t119.5 -182.5t225 -68.5q140 0 245.5 69t170.5 183.5t85 249.5l114 816h108l-114 -816q-18 -127 -70.5 -237.5t-134 -194.5t-187.5 -131t-232 -47zM493 -405q-50 1 -83.5 25
t-48.5 62.5t-8 80.5q4 32 20 62t45 56l192 168l53 -62q-70 -61 -113 -98t-65 -58.5t-30.5 -37t-10.5 -32.5q-4 -30 12.5 -53.5t52.5 -25.5q38 0 75 28t44 76h86q-8 -54 -40.5 -97.5t-80 -68.5t-100.5 -25z" />
    <glyph glyph-name="uogonek" unicode="&#x173;" horiz-adv-x="1018" 
d="M36 387l86 613h108l-84 -596q-12 -89 21 -162t100 -116t155 -43q89 0 168 43t132.5 116t66.5 162l83 596h108l-140 -1000h-108l21 155q-65 -82 -160.5 -131.5t-201.5 -49.5q-114 0 -200 55.5t-128.5 149.5t-26.5 208zM670 -391q-50 1 -83.5 25t-48.5 62.5t-8 80.5
q4 32 20 62t45 56l192 168l53 -62q-70 -61 -113 -98t-65 -58.5t-30.5 -37t-10.5 -32.5q-4 -30 12.5 -53.5t52.5 -25.5q38 0 75 28t44 76h86q-8 -54 -40.5 -97.5t-80 -68.5t-100.5 -25z" />
    <glyph glyph-name="Wcircumflex" unicode="&#x174;" horiz-adv-x="1634" 
d="M296 0l-162 1400h111l142 -1221l481 1221h94l141 -1221l481 1221h111l-552 -1400h-131l-133 1145l-453 -1145h-130zM1029 1798l153 -288h-72l-151 206l-205 -206h-71l231 288h115z" />
    <glyph glyph-name="wcircumflex" unicode="&#x175;" horiz-adv-x="1601" 
d="M411 0h-114l-195 1000h105l169 -855l407 855h119l167 -855l407 855h107l-476 -1000h-115l-170 864zM957 1398l153 -288h-72l-151 206l-205 -206h-71l231 288h115z" />
    <glyph glyph-name="Ycircumflex" unicode="&#x176;" horiz-adv-x="1165" 
d="M1076 1400h127l-576 -765l-89 -635h-108l89 635l-361 765h127l304 -647zM794 1798l153 -288h-72l-151 206l-205 -206h-71l231 288h115z" />
    <glyph glyph-name="ycircumflex" unicode="&#x177;" horiz-adv-x="998" 
d="M847 1000h113l-757 -1500h-115l253 500l-219 1000h118l175 -851zM655 1398l153 -288h-72l-151 206l-205 -206h-71l231 288h115z" />
    <glyph glyph-name="Ydieresis" unicode="&#x178;" horiz-adv-x="1165" 
d="M1076 1400h127l-576 -765l-89 -635h-108l89 635l-361 765h127l304 -647zM549 1484q-28 0 -46 18.5t-14 46.5q4 27 27 47t51 20q27 0 44.5 -20t13.5 -47q-4 -28 -26.5 -46.5t-49.5 -18.5zM839 1484q-28 0 -46 18.5t-14 46.5q3 27 26.5 47t51.5 20q27 0 44 -20t14 -47
q-5 -28 -27 -46.5t-49 -18.5z" />
    <glyph glyph-name="Zacute" unicode="&#x179;" horiz-adv-x="1292" 
d="M-18 0l15 108l1154 1184h-988l15 108h1132l-15 -108l-1154 -1184h988l-15 -108h-1132zM736 1510l120 288h108l-156 -288h-72z" />
    <glyph glyph-name="zacute" unicode="&#x17a;" horiz-adv-x="1014" 
d="M961 892l-814 -784h704l-15 -108h-854l15 108l814 784h-704l15 108h854zM541 1110l120 288h108l-156 -288h-72z" />
    <glyph glyph-name="Zdotaccent" unicode="&#x17b;" horiz-adv-x="1292" 
d="M-18 0l15 108l1154 1184h-988l15 108h1132l-15 -108l-1154 -1184h988l-15 -108h-1132zM772 1589q-28 0 -45 18.5t-13 46.5t26 46.5t50 18.5q27 0 44 -18.5t13 -46.5q-5 -28 -26 -46.5t-49 -18.5z" />
    <glyph glyph-name="zdotaccent" unicode="&#x17c;" horiz-adv-x="1014" 
d="M961 892l-814 -784h704l-15 -108h-854l15 108l814 784h-704l15 108h854zM577 1189q-28 0 -45 18.5t-13 46.5t26 46.5t50 18.5q27 0 44 -18.5t13 -46.5q-5 -28 -26 -46.5t-49 -18.5z" />
    <glyph glyph-name="Zcaron" unicode="&#x17d;" horiz-adv-x="1292" 
d="M-18 0l15 108l1154 1184h-988l15 108h1132l-15 -108l-1154 -1184h988l-15 -108h-1132zM702 1510l-153 288h72l151 -206l204 206h72l-231 -288h-115z" />
    <glyph glyph-name="zcaron" unicode="&#x17e;" horiz-adv-x="1014" 
d="M961 892l-814 -784h704l-15 -108h-854l15 108l814 784h-704l15 108h854zM507 1110l-153 288h72l151 -206l204 206h72l-231 -288h-115z" />
    <glyph glyph-name="uni01CD" unicode="&#x1cd;" horiz-adv-x="1321" 
d="M687 1400h142l314 -1400h-115l-72 316h-700l-159 -316h-115zM311 424h621l-191 853zM716 1510l-153 288h72l151 -206l204 206h72l-231 -288h-115z" />
    <glyph glyph-name="uni01CE" unicode="&#x1ce;" horiz-adv-x="1150" 
d="M1005 1000h108l-140 -1000h-108l26 205q-66 -104 -169.5 -167.5t-235.5 -63.5q-109 0 -199 41.5t-152.5 114t-90 168t-11.5 205.5q15 109 68.5 204t136 167.5t183 113t208.5 40.5q133 0 222 -64.5t128 -168.5zM499 80q116 0 206.5 56.5t147.5 152.5t74 211
q17 118 -14.5 213.5t-106 152t-188.5 56.5q-115 0 -218 -57t-172.5 -153t-85.5 -212q-16 -118 27.5 -213t130.5 -151t199 -56zM590 1110l-153 288h72l151 -206l204 206h72l-231 -288h-115z" />
    <glyph glyph-name="uni01CF" unicode="&#x1cf;" horiz-adv-x="408" 
d="M52 0l196 1400h108l-196 -1400h-108zM260 1510l-153 288h72l151 -206l204 206h72l-231 -288h-115z" />
    <glyph glyph-name="uni01D0" unicode="&#x1d0;" 
d="M162 1000h108l-140 -1000h-108zM174 1110l-153 288h72l151 -206l204 206h72l-231 -288h-115z" />
    <glyph glyph-name="uni01D1" unicode="&#x1d1;" horiz-adv-x="1540" 
d="M668 -26q-142 0 -259.5 56.5t-198 156.5t-116 231.5t-14.5 281.5t93 281.5t181.5 231.5t242.5 156.5t275 56.5q143 0 260 -56.5t197.5 -156.5t116 -231.5t14.5 -281.5t-93 -281.5t-181.5 -231.5t-242 -156.5t-275.5 -56.5zM683 82q121 0 233.5 49t204.5 134.5
t152.5 197.5t78.5 237q18 127 -11.5 239t-97.5 197t-166.5 133.5t-219.5 48.5t-233.5 -49t-204.5 -134.5t-152.5 -197.5t-78.5 -237q-18 -127 11.5 -239t97.5 -197.5t166.5 -133.5t219.5 -48zM826 1510l-153 288h72l151 -206l204 206h72l-231 -288h-115z" />
    <glyph glyph-name="uni01D2" unicode="&#x1d2;" horiz-adv-x="1120" 
d="M458 -26q-138 0 -241.5 71t-154 190.5t-30.5 264.5q15 110 67.5 205.5t131.5 168t175.5 113.5t199.5 41q138 0 241.5 -71t154.5 -191t30 -266q-15 -109 -67.5 -204t-131.5 -167.5t-175 -113.5t-200 -41zM473 82q110 0 207 58t163 153t81 207q16 113 -23 209t-119 153.5
t-191 57.5t-208 -58t-162 -153.5t-81 -208.5q-16 -117 24 -211.5t121 -150.5t188 -56zM560 1110l-153 288h72l151 -206l204 206h72l-231 -288h-115z" />
    <glyph glyph-name="uni01D3" unicode="&#x1d3;" horiz-adv-x="1316" 
d="M556 -26q-168 0 -277 82t-154 220.5t-21 307.5l114 816h108l-114 -816q-19 -137 14.5 -251t119.5 -182.5t225 -68.5q140 0 245.5 69t170.5 183.5t85 249.5l114 816h108l-114 -816q-18 -127 -70.5 -237.5t-134 -194.5t-187.5 -131t-232 -47zM714 1510l-153 288h72
l151 -206l204 206h72l-231 -288h-115z" />
    <glyph glyph-name="uni01D4" unicode="&#x1d4;" horiz-adv-x="1018" 
d="M36 387l86 613h108l-84 -596q-12 -89 21 -162t100 -116t155 -43q89 0 168 43t132.5 116t66.5 162l83 596h108l-140 -1000h-108l21 155q-65 -82 -160.5 -131.5t-201.5 -49.5q-114 0 -200 55.5t-128.5 149.5t-26.5 208zM517 1111l-153 288h72l151 -206l204 206h72
l-231 -288h-115z" />
    <glyph glyph-name="uni01D5" unicode="&#x1d5;" horiz-adv-x="1316" 
d="M556 -26q-168 0 -277 82t-154 220.5t-21 307.5l114 816h108l-114 -816q-19 -137 14.5 -251t119.5 -182.5t225 -68.5q140 0 245.5 69t170.5 183.5t85 249.5l114 816h108l-114 -816q-18 -127 -70.5 -237.5t-134 -194.5t-187.5 -131t-232 -47zM624 1484q-28 0 -46 18.5
t-14 46.5q4 27 27 47t51 20q27 0 44.5 -20t13.5 -47q-4 -28 -26.5 -46.5t-49.5 -18.5zM914 1484q-28 0 -46 18.5t-14 46.5q3 27 26.5 47t51.5 20q27 0 44 -20t14 -47q-5 -28 -27 -46.5t-49 -18.5zM483 1862h676l-13 -92h-676z" />
    <glyph glyph-name="uni01D6" unicode="&#x1d6;" horiz-adv-x="1018" 
d="M36 387l86 613h108l-84 -596q-12 -89 21 -162t100 -116t155 -43q89 0 168 43t132.5 116t66.5 162l83 596h108l-140 -1000h-108l21 155q-65 -82 -160.5 -131.5t-201.5 -49.5q-114 0 -200 55.5t-128.5 149.5t-26.5 208zM427 1085q-28 0 -46 18.5t-14 46.5q4 27 27 47t51 20
q27 0 44.5 -20t13.5 -47q-4 -28 -26.5 -46.5t-49.5 -18.5zM717 1085q-28 0 -46 18.5t-14 46.5q3 27 26.5 47t51.5 20q27 0 44 -20t14 -47q-5 -28 -27 -46.5t-49 -18.5zM286 1462h676l-13 -92h-676z" />
    <glyph glyph-name="uni01D7" unicode="&#x1d7;" horiz-adv-x="1316" 
d="M556 -26q-168 0 -277 82t-154 220.5t-21 307.5l114 816h108l-114 -816q-19 -137 14.5 -251t119.5 -182.5t225 -68.5q140 0 245.5 69t170.5 183.5t85 249.5l114 816h108l-114 -816q-18 -127 -70.5 -237.5t-134 -194.5t-187.5 -131t-232 -47zM624 1484q-28 0 -46 18.5
t-14 46.5q4 27 27 47t51 20q27 0 44.5 -20t13.5 -47q-4 -28 -26.5 -46.5t-49.5 -18.5zM914 1484q-28 0 -46 18.5t-14 46.5q3 27 26.5 47t51.5 20q27 0 44 -20t14 -47q-5 -28 -27 -46.5t-49 -18.5zM775 1702l120 288h108l-156 -288h-72z" />
    <glyph glyph-name="uni01D8" unicode="&#x1d8;" horiz-adv-x="1018" 
d="M36 387l86 613h108l-84 -596q-12 -89 21 -162t100 -116t155 -43q89 0 168 43t132.5 116t66.5 162l83 596h108l-140 -1000h-108l21 155q-65 -82 -160.5 -131.5t-201.5 -49.5q-114 0 -200 55.5t-128.5 149.5t-26.5 208zM427 1085q-28 0 -46 18.5t-14 46.5q4 27 27 47t51 20
q27 0 44.5 -20t13.5 -47q-4 -28 -26.5 -46.5t-49.5 -18.5zM717 1085q-28 0 -46 18.5t-14 46.5q3 27 26.5 47t51.5 20q27 0 44 -20t14 -47q-5 -28 -27 -46.5t-49 -18.5zM578 1302l120 288h108l-156 -288h-72z" />
    <glyph glyph-name="uni01D9" unicode="&#x1d9;" horiz-adv-x="1316" 
d="M556 -26q-168 0 -277 82t-154 220.5t-21 307.5l114 816h108l-114 -816q-19 -137 14.5 -251t119.5 -182.5t225 -68.5q140 0 245.5 69t170.5 183.5t85 249.5l114 816h108l-114 -816q-18 -127 -70.5 -237.5t-134 -194.5t-187.5 -131t-232 -47zM624 1484q-28 0 -46 18.5
t-14 46.5q4 27 27 47t51 20q27 0 44.5 -20t13.5 -47q-4 -28 -26.5 -46.5t-49.5 -18.5zM914 1484q-28 0 -46 18.5t-14 46.5q3 27 26.5 47t51.5 20q27 0 44 -20t14 -47q-5 -28 -27 -46.5t-49 -18.5zM741 1702l-153 288h72l151 -206l204 206h72l-231 -288h-115z" />
    <glyph glyph-name="uni01DA" unicode="&#x1da;" horiz-adv-x="1018" 
d="M36 387l86 613h108l-84 -596q-12 -89 21 -162t100 -116t155 -43q89 0 168 43t132.5 116t66.5 162l83 596h108l-140 -1000h-108l21 155q-65 -82 -160.5 -131.5t-201.5 -49.5q-114 0 -200 55.5t-128.5 149.5t-26.5 208zM427 1085q-28 0 -46 18.5t-14 46.5q4 27 27 47t51 20
q27 0 44.5 -20t13.5 -47q-4 -28 -26.5 -46.5t-49.5 -18.5zM717 1085q-28 0 -46 18.5t-14 46.5q3 27 26.5 47t51.5 20q27 0 44 -20t14 -47q-5 -28 -27 -46.5t-49 -18.5zM544 1302l-153 288h72l151 -206l204 206h72l-231 -288h-115z" />
    <glyph glyph-name="uni01DB" unicode="&#x1db;" horiz-adv-x="1316" 
d="M556 -26q-168 0 -277 82t-154 220.5t-21 307.5l114 816h108l-114 -816q-19 -137 14.5 -251t119.5 -182.5t225 -68.5q140 0 245.5 69t170.5 183.5t85 249.5l114 816h108l-114 -816q-18 -127 -70.5 -237.5t-134 -194.5t-187.5 -131t-232 -47zM624 1484q-28 0 -46 18.5
t-14 46.5q4 27 27 47t51 20q27 0 44.5 -20t13.5 -47q-4 -28 -26.5 -46.5t-49.5 -18.5zM914 1484q-28 0 -46 18.5t-14 46.5q3 27 26.5 47t51.5 20q27 0 44 -20t14 -47q-5 -28 -27 -46.5t-49 -18.5zM667 1990h108l40 -288h-72z" />
    <glyph glyph-name="uni01DC" unicode="&#x1dc;" horiz-adv-x="1018" 
d="M36 387l86 613h108l-84 -596q-12 -89 21 -162t100 -116t155 -43q89 0 168 43t132.5 116t66.5 162l83 596h108l-140 -1000h-108l21 155q-65 -82 -160.5 -131.5t-201.5 -49.5q-114 0 -200 55.5t-128.5 149.5t-26.5 208zM427 1085q-28 0 -46 18.5t-14 46.5q4 27 27 47t51 20
q27 0 44.5 -20t13.5 -47q-4 -28 -26.5 -46.5t-49.5 -18.5zM717 1085q-28 0 -46 18.5t-14 46.5q3 27 26.5 47t51.5 20q27 0 44 -20t14 -47q-5 -28 -27 -46.5t-49 -18.5zM470 1590h108l40 -288h-72z" />
    <glyph glyph-name="uni01DE" unicode="&#x1de;" horiz-adv-x="1321" 
d="M687 1400h142l314 -1400h-115l-72 316h-700l-159 -316h-115zM311 424h621l-191 853zM626 1484q-28 0 -46 18.5t-14 46.5q4 27 27 47t51 20q27 0 44.5 -20t13.5 -47q-4 -28 -26.5 -46.5t-49.5 -18.5zM916 1484q-28 0 -46 18.5t-14 46.5q3 27 26.5 47t51.5 20q27 0 44 -20
t14 -47q-5 -28 -27 -46.5t-49 -18.5zM485 1862h676l-13 -92h-676z" />
    <glyph glyph-name="uni01DF" unicode="&#x1df;" horiz-adv-x="1150" 
d="M1005 1000h108l-140 -1000h-108l26 205q-66 -104 -169.5 -167.5t-235.5 -63.5q-109 0 -199 41.5t-152.5 114t-90 168t-11.5 205.5q15 109 68.5 204t136 167.5t183 113t208.5 40.5q133 0 222 -64.5t128 -168.5zM499 80q116 0 206.5 56.5t147.5 152.5t74 211
q17 118 -14.5 213.5t-106 152t-188.5 56.5q-115 0 -218 -57t-172.5 -153t-85.5 -212q-16 -118 27.5 -213t130.5 -151t199 -56zM501 1084q-28 0 -46 18.5t-14 46.5q4 27 27 47t51 20q27 0 44.5 -20t13.5 -47q-4 -28 -26.5 -46.5t-49.5 -18.5zM791 1084q-28 0 -46 18.5
t-14 46.5q3 27 26.5 47t51.5 20q27 0 44 -20t14 -47q-5 -28 -27 -46.5t-49 -18.5zM360 1462h676l-13 -92h-676z" />
    <glyph glyph-name="uni01E2" unicode="&#x1e2;" horiz-adv-x="1601" 
d="M-18 0l705 1400h912l-15 -108h-596l-75 -538h500l-15 -108h-500l-76 -538h596l-15 -108h-704l44 316h-487l-159 -316h-115zM311 424h448l121 868h-130zM843 1670h676l-13 -92h-676z" />
    <glyph glyph-name="uni01E3" unicode="&#x1e3;" horiz-adv-x="1792" 
d="M224 -25q-85 0 -146.5 36t-91.5 100.5t-18 148.5q11 77 55 143t115 106t160 40h414q16 101 -15.5 185.5t-104.5 135t-183 50.5q-75 0 -148 -30l-46 92q52 23 104.5 34.5t103.5 11.5q140 0 242.5 -76.5t143.5 -202.5q52 83 126 146t163 98t183 35q110 0 196 -42.5
t142.5 -119.5t77 -181.5t1.5 -228.5h-884q-4 -107 37.5 -191.5t118.5 -133.5t178 -49q111 0 209 58.5t165 160.5l105 -25q-79 -133 -211.5 -217.5t-282.5 -84.5q-101 0 -184.5 39.5t-140.5 110t-81 162.5q-53 -91 -132.5 -161.5t-174.5 -110t-196 -39.5zM239 76
q124 0 228.5 67.5t166.5 168.5q43 66 63 145h-411q-87 0 -146.5 -55.5t-70.5 -137.5q-11 -73 31 -130.5t139 -57.5zM824 548h778q9 103 -32.5 189.5t-120.5 138.5t-182 52t-195 -51t-158 -137.5t-90 -191.5zM544 1271h676l-13 -92h-676z" />
    <glyph glyph-name="Gcaron" unicode="&#x1e6;" horiz-adv-x="1536" 
d="M667 -26q-143 0 -260.5 56.5t-198 157t-115 232t-13.5 281.5q21 151 94 283t182.5 231t242 154.5t274.5 55.5q163 0 296 -76t212 -212l-104 -52q-69 112 -180 172.5t-240 60.5q-120 0 -233 -48.5t-205 -134t-152.5 -197.5t-78.5 -239t11.5 -238.5t97.5 -196.5t167 -133.5
t219 -48.5q104 0 202 36.5t181.5 102.5t147 153t97.5 188h-415l14 100h541q-26 -143 -99.5 -267.5t-180.5 -219t-236.5 -148t-267.5 -53.5zM826 1510l-153 288h72l151 -206l204 206h72l-231 -288h-115z" />
    <glyph glyph-name="gcaron" unicode="&#x1e7;" horiz-adv-x="1159" 
d="M973 1000h108l-145 -1042q-13 -93 -65.5 -175.5t-131 -146t-171 -100t-185.5 -36.5q-104 0 -194 48.5t-149 129.5t-72 177l105 46q7 -81 54 -147.5t119 -105.5t152 -39q72 0 144 28t133 76.5t102 111.5t51 133l34 245q-68 -102 -171 -165.5t-228 -63.5q-104 0 -190 41
t-145 113.5t-85 167.5t-11 204t68 204.5t132.5 168t177 113.5t201.5 41q125 0 210 -62.5t125 -166.5zM479 80q111 0 200 58t146.5 154t72.5 208q16 115 -14.5 210.5t-103.5 153.5t-183 58q-111 0 -208.5 -57t-164 -153t-82.5 -212q-16 -117 24 -212t122.5 -151.5
t190.5 -56.5zM580 1110l-153 288h72l151 -206l204 206h72l-231 -288h-115z" />
    <glyph glyph-name="uni01E8" unicode="&#x1e8;" horiz-adv-x="1033" 
d="M883 0h-139l-388 653l-157 -161l-69 -492h-108l196 1400h108l-104 -740l724 740h141l-648 -661zM572 1510l-153 288h72l151 -206l204 206h72l-231 -288h-115z" />
    <glyph glyph-name="uni01E9" unicode="&#x1e9;" horiz-adv-x="956" 
d="M769 0h-124l-225 511l-254 -261l-35 -250h-108l210 1500h108l-152 -1082l570 582h141l-394 -401zM568 1510l-153 288h72l151 -206l204 206h72l-231 -288h-115z" />
    <glyph glyph-name="uni0218" unicode="&#x218;" horiz-adv-x="1211" 
d="M503 -26q-111 0 -210 34.5t-167.5 98t-87.5 152.5l107 38q15 -68 71 -116.5t136 -73.5t166 -25q102 0 196 35t158 97.5t76 148.5t-37 141.5t-134 88t-180 50.5q-138 25 -244.5 66.5t-161 117.5t-37.5 204q17 119 99 206t202 135t251 48q107 0 205.5 -33.5t169 -97.5
t92.5 -156l-109 -37q-14 69 -71 117t-137 73t-165 25q-103 1 -196.5 -34.5t-156.5 -98.5t-76 -147q-13 -97 30.5 -150t128 -79.5t191.5 -47.5q129 -23 236 -70.5t165.5 -126t42.5 -194.5q-17 -118 -98.5 -205.5t-201.5 -135.5t-253 -48zM397 -441l109 338h108l-145 -338h-72
z" />
    <glyph glyph-name="uni0219" unicode="&#x219;" horiz-adv-x="856" 
d="M332 -19q-83 1 -158.5 29.5t-127.5 76.5t-67 109l101 41q11 -45 54 -81t102 -56.5t117 -20.5q68 0 130.5 23t105.5 65t50 99q9 60 -25.5 94.5t-92 56t-118.5 40.5q-105 32 -181 65.5t-113 85.5t-25 137q12 88 72.5 153t148.5 100.5t183 35.5q123 0 215.5 -54t122.5 -142
l-96 -52q-13 46 -51.5 79t-91 51t-107.5 19q-70 1 -134 -21.5t-106.5 -65t-51.5 -102.5t21 -92t88 -51.5t134 -45.5q89 -29 164.5 -64.5t117.5 -88.5t30 -137q-13 -88 -74.5 -153t-151 -100t-185.5 -33zM213 -441l109 338h108l-145 -338h-72z" />
    <glyph glyph-name="uni021A" unicode="&#x21a;" horiz-adv-x="1259" 
d="M1277 1400l-16 -108h-496l-180 -1292h-108l180 1292h-494l15 108h1099zM353 -441l109 338h108l-145 -338h-72z" />
    <glyph glyph-name="uni021B" unicode="&#x21b;" horiz-adv-x="682" 
d="M651 892h-253l-127 -892h-108l127 892h-191l14 108h191l43 314h108l-43 -314h253zM39 -441l109 338h108l-145 -338h-72z" />
    <glyph glyph-name="uni022A" unicode="&#x22a;" horiz-adv-x="1540" 
d="M668 -26q-142 0 -259.5 56.5t-198 156.5t-116 231.5t-14.5 281.5t93 281.5t181.5 231.5t242.5 156.5t275 56.5q143 0 260 -56.5t197.5 -156.5t116 -231.5t14.5 -281.5t-93 -281.5t-181.5 -231.5t-242 -156.5t-275.5 -56.5zM683 82q121 0 233.5 49t204.5 134.5
t152.5 197.5t78.5 237q18 127 -11.5 239t-97.5 197t-166.5 133.5t-219.5 48.5t-233.5 -49t-204.5 -134.5t-152.5 -197.5t-78.5 -237q-18 -127 11.5 -239t97.5 -197.5t166.5 -133.5t219.5 -48zM736 1484q-28 0 -46 18.5t-14 46.5q4 27 27 47t51 20q27 0 44.5 -20t13.5 -47
q-4 -28 -26.5 -46.5t-49.5 -18.5zM1026 1484q-28 0 -46 18.5t-14 46.5q3 27 26.5 47t51.5 20q27 0 44 -20t14 -47q-5 -28 -27 -46.5t-49 -18.5zM595 1862h676l-13 -92h-676z" />
    <glyph glyph-name="uni022B" unicode="&#x22b;" horiz-adv-x="1120" 
d="M458 -26q-138 0 -241.5 71t-154 190.5t-30.5 264.5q15 110 67.5 205.5t131.5 168t175.5 113.5t199.5 41q138 0 241.5 -71t154.5 -191t30 -266q-15 -109 -67.5 -204t-131.5 -167.5t-175 -113.5t-200 -41zM473 82q110 0 207 58t163 153t81 207q16 113 -23 209t-119 153.5
t-191 57.5t-208 -58t-162 -153.5t-81 -208.5q-16 -117 24 -211.5t121 -150.5t188 -56zM470 1084q-28 0 -46 18.5t-14 46.5q4 27 27 47t51 20q27 0 44.5 -20t13.5 -47q-4 -28 -26.5 -46.5t-49.5 -18.5zM760 1084q-28 0 -46 18.5t-14 46.5q3 27 26.5 47t51.5 20q27 0 44 -20
t14 -47q-5 -28 -27 -46.5t-49 -18.5zM329 1462h676l-13 -92h-676z" />
    <glyph glyph-name="uni0232" unicode="&#x232;" horiz-adv-x="1165" 
d="M1076 1400h127l-576 -765l-89 -635h-108l89 635l-361 765h127l304 -647zM380 1670h676l-13 -92h-676z" />
    <glyph glyph-name="uni0233" unicode="&#x233;" horiz-adv-x="998" 
d="M847 1000h113l-757 -1500h-115l253 500l-219 1000h118l175 -851zM241 1270h676l-13 -92h-676z" />
    <glyph glyph-name="uni0237" unicode="&#x237;" horiz-adv-x="427" 
d="M-249 -500l16 108q80 0 148 35t113 96t56 137l157 1124h108l-157 -1124q-15 -104 -77.5 -189.5t-157.5 -136t-206 -50.5z" />
    <glyph glyph-name="quoteleft" unicode="&#x2bb;" horiz-adv-x="270" 
d="M85 878l171 522h72l-135 -522h-108z" />
    <glyph glyph-name="quoteleft" unicode="&#x2018;" horiz-adv-x="270" 
d="M85 878l171 522h72l-135 -522h-108z" />
    <glyph glyph-name="uni02BC" unicode="&#x2bc;" horiz-adv-x="362" 
d="M65 878l135 522h108l-171 -522h-72z" />
    <glyph glyph-name="circumflex" unicode="&#x2c6;" horiz-adv-x="527" 
d="M418 1398l153 -288h-72l-151 206l-205 -206h-71l231 288h115z" />
    <glyph glyph-name="caron" unicode="&#x2c7;" horiz-adv-x="491" 
d="M247 1110l-153 288h72l151 -206l204 206h72l-231 -288h-115z" />
    <glyph glyph-name="breve" unicode="&#x2d8;" horiz-adv-x="1144" 
d="M627 1088q-91 0 -160 45t-103.5 120.5t-22.5 166.5h84q-9 -70 17.5 -126t79 -89t117.5 -33q67 0 128 33.5t103 90t51 124.5h84q-13 -93 -69 -168.5t-138 -119.5t-171 -44z" />
    <glyph glyph-name="dotaccent" unicode="&#x2d9;" horiz-adv-x="933" 
d="M536 1189q-28 0 -45 18.5t-13 46.5t26 46.5t50 18.5q27 0 44 -18.5t13 -46.5q-5 -28 -26 -46.5t-49 -18.5z" />
    <glyph glyph-name="ring" unicode="&#x2da;" horiz-adv-x="1101" 
d="M607 1103q-62 0 -100 45t-29 107q6 41 31 75t62 54.5t78 20.5q62 0 100 -44.5t30 -105.5q-9 -63 -59.5 -107.5t-112.5 -44.5zM616 1169q35 0 63.5 25t33.5 61q5 34 -16.5 58t-57.5 24q-34 0 -61.5 -24t-32.5 -58q-5 -36 16 -61t55 -25z" />
    <glyph glyph-name="ogonek" unicode="&#x2db;" horiz-adv-x="958" 
d="M311 -392q-50 1 -83.5 25t-48.5 62.5t-8 80.5q4 32 20 62t45 56l192 168l53 -62q-70 -61 -113 -98t-65 -58.5t-30.5 -37t-10.5 -32.5q-4 -30 12.5 -53.5t52.5 -25.5q38 0 75 28t44 76h86q-8 -54 -40.5 -97.5t-80 -68.5t-100.5 -25z" />
    <glyph glyph-name="tilde" unicode="&#x2dc;" horiz-adv-x="1179" 
d="M812 1153q-37 0 -77.5 23t-80 53t-76 51t-65.5 18q-31 -4 -53.5 -33t-18.5 -68l-83 -22q-10 50 11 98t65 79t99 31q38 0 79.5 -22t82.5 -50.5t78 -50.5t65 -22q23 0 39.5 18.5t25 42t4.5 40.5l82 25q11 -53 -11.5 -101.5t-66.5 -79t-99 -30.5z" />
    <glyph glyph-name="hungarumlaut" unicode="&#x2dd;" horiz-adv-x="843" 
d="M513 1110l120 288h108l-156 -288h-72zM258 1110l120 288h108l-156 -288h-72z" />
    <glyph glyph-name="gravecomb" unicode="&#x300;" horiz-adv-x="0" 
d="M322 1398h108l40 -288h-72z" />
    <glyph glyph-name="acutecomb" unicode="&#x301;" horiz-adv-x="0" 
d="M314 1110l120 288h108l-156 -288h-72z" />
    <glyph glyph-name="uni0302" unicode="&#x302;" horiz-adv-x="0" 
d="M418 1398l153 -288h-72l-151 206l-205 -206h-71l231 288h115z" />
    <glyph glyph-name="tildecomb" unicode="&#x303;" horiz-adv-x="0" 
d="M828 1139q-37 0 -77.5 23t-80 53t-76 51t-65.5 18q-31 -4 -53.5 -33t-18.5 -68l-83 -22q-10 50 11 98t65 79t99 31q38 0 79.5 -22t82.5 -50.5t78 -50.5t65 -22q23 0 39.5 18.5t25 42t4.5 40.5l82 25q11 -53 -11.5 -101.5t-66.5 -79t-99 -30.5z" />
    <glyph glyph-name="uni0304" unicode="&#x304;" horiz-adv-x="0" 
d="M342 1270h676l-13 -92h-676z" />
    <glyph glyph-name="uni0306" unicode="&#x306;" horiz-adv-x="0" 
d="M627 1088q-91 0 -160 45t-103.5 120.5t-22.5 166.5h84q-9 -70 17.5 -126t79 -89t117.5 -33q67 0 128 33.5t103 90t51 124.5h84q-13 -93 -69 -168.5t-138 -119.5t-171 -44z" />
    <glyph glyph-name="uni0307" unicode="&#x307;" horiz-adv-x="0" 
d="M536 1189q-28 0 -45 18.5t-13 46.5t26 46.5t50 18.5q27 0 44 -18.5t13 -46.5q-5 -28 -26 -46.5t-49 -18.5z" />
    <glyph glyph-name="uni0308" unicode="&#x308;" horiz-adv-x="0" 
d="M523 1084q-28 0 -46 18.5t-14 46.5q4 27 27 47t51 20q27 0 44.5 -20t13.5 -47q-4 -28 -26.5 -46.5t-49.5 -18.5zM813 1084q-28 0 -46 18.5t-14 46.5q3 27 26.5 47t51.5 20q27 0 44 -20t14 -47q-5 -28 -27 -46.5t-49 -18.5z" />
    <glyph glyph-name="uni030A" unicode="&#x30a;" horiz-adv-x="0" 
d="M607 1103q-62 0 -100 45t-29 107q6 41 31 75t62 54.5t78 20.5q62 0 100 -44.5t30 -105.5q-9 -63 -59.5 -107.5t-112.5 -44.5zM616 1169q35 0 63.5 25t33.5 61q5 34 -16.5 58t-57.5 24q-34 0 -61.5 -24t-32.5 -58q-5 -36 16 -61t55 -25z" />
    <glyph glyph-name="uni030B" unicode="&#x30b;" horiz-adv-x="0" 
d="M513 1110l120 288h108l-156 -288h-72zM258 1110l120 288h108l-156 -288h-72z" />
    <glyph glyph-name="uni030C" unicode="&#x30c;" horiz-adv-x="0" 
d="M247 1110l-153 288h72l151 -206l204 206h72l-231 -288h-115z" />
    <glyph glyph-name="dotbelowcomb" unicode="&#x323;" horiz-adv-x="0" 
d="M536 -380q-28 0 -45 18.5t-13 46.5t26 46.5t50 18.5q27 0 44 -18.5t13 -46.5q-5 -28 -26 -46.5t-49 -18.5z" />
    <glyph glyph-name="uni0326" unicode="&#x326;" horiz-adv-x="0" 
d="M240 -441l109 338h108l-145 -338h-72z" />
    <glyph glyph-name="uni0327" unicode="&#x327;" horiz-adv-x="0" 
d="M438 -364q-63 -17 -113.5 15t-58.5 93l78 20q4 -30 29 -45.5t55 -7.5q32 9 51.5 35.5t15.5 56.5q-4 31 -29 46t-56 8l-88 -16l147 204l62 -39l-54 -75q38 -9 64.5 -37.5t31.5 -69.5q8 -62 -31.5 -117t-103.5 -71z" />
    <glyph glyph-name="uni0328" unicode="&#x328;" horiz-adv-x="0" 
d="M311 -392q-50 1 -83.5 25t-48.5 62.5t-8 80.5q4 32 20 62t45 56l192 168l53 -62q-70 -61 -113 -98t-65 -58.5t-30.5 -37t-10.5 -32.5q-4 -30 12.5 -53.5t52.5 -25.5q38 0 75 28t44 76h86q-8 -54 -40.5 -97.5t-80 -68.5t-100.5 -25z" />
    <glyph glyph-name="uni03BC" unicode="&#x3bc;" horiz-adv-x="1033" 
d="M-79 -432l201 1432h108l-76 -538q-14 -105 18 -192t99.5 -138.5t160.5 -51.5q91 0 172.5 51.5t137 138.5t70.5 192l75 538h108l-140 -1000h-108l26 183q-72 -98 -166.5 -154t-199.5 -56q-104 0 -180 54.5t-114 139.5l-84 -599h-108z" />
    <glyph glyph-name="uni1E04" unicode="&#x1e04;" horiz-adv-x="1097" 
d="M22 0l196 1400h461q100 0 176 -40.5t114 -118t22 -190.5q-9 -68 -43 -127.5t-78.5 -100t-87.5 -49.5q59 -17 99.5 -55.5t64 -91t30.5 -111.5t-2 -118q-16 -121 -79 -210.5t-154 -138.5t-194 -49h-525zM143 99h411q77 0 145.5 40.5t116.5 111t59 159.5q12 80 -15.5 150
t-84.5 113.5t-134 43.5h-411zM244 815h346q107 0 192 61.5t101 175.5q18 127 -50 188t-175 61h-345zM408 -380q-28 0 -45 18.5t-13 46.5t26 46.5t50 18.5q27 0 44 -18.5t13 -46.5q-5 -28 -26 -46.5t-49 -18.5z" />
    <glyph glyph-name="uni1E05" unicode="&#x1e05;" horiz-adv-x="1192" 
d="M652 1028q145 0 254.5 -71t164 -190.5t33.5 -265.5q-15 -109 -69.5 -204.5t-137 -168t-183.5 -113.5t-210 -41q-133 0 -219.5 64t-124.5 168l-29 -206h-108l210 1500h108l-98 -704q67 104 171.5 168t237.5 64zM518 80q116 0 218.5 57t172 152.5t86.5 211.5
q17 118 -27 213.5t-131.5 151.5t-199.5 56q-116 0 -206.5 -57t-148 -153t-73.5 -211q-16 -118 15 -213t105.5 -151.5t188.5 -56.5zM455 -380q-28 0 -45 18.5t-13 46.5t26 46.5t50 18.5q27 0 44 -18.5t13 -46.5q-5 -28 -26 -46.5t-49 -18.5z" />
    <glyph glyph-name="uni1E0C" unicode="&#x1e0c;" horiz-adv-x="1343" 
d="M22 0l196 1400h463q145 0 264.5 -54.5t202 -151t119 -223t16.5 -271.5t-92 -271.5t-182 -223t-244.5 -151t-279.5 -54.5h-463zM145 108h354q123 0 237 46t206.5 127.5t153.5 188.5t79 230q17 123 -14 230t-101 188.5t-171 127.5t-224 46h-354zM527 -380q-28 0 -45 18.5
t-13 46.5t26 46.5t50 18.5q27 0 44 -18.5t13 -46.5q-5 -28 -26 -46.5t-49 -18.5z" />
    <glyph glyph-name="uni1E0D" unicode="&#x1e0d;" horiz-adv-x="1191" 
d="M1075 1500h108l-210 -1500h-108l29 206q-67 -105 -172 -168.5t-238 -63.5q-109 0 -198.5 41t-151.5 113.5t-89.5 167.5t-12.5 204t69.5 204.5t137 168t183.5 113.5t210 41q133 0 220 -63.5t125 -167.5zM499 80q116 0 206.5 56.5t147.5 152.5t74 211q17 118 -14.5 213.5
t-106 152t-188.5 56.5q-115 0 -217.5 -57t-172.5 -153t-86 -212q-16 -118 27.5 -213t130.5 -151t199 -56zM465 -380q-28 0 -45 18.5t-13 46.5t26 46.5t50 18.5q27 0 44 -18.5t13 -46.5q-5 -28 -26 -46.5t-49 -18.5z" />
    <glyph glyph-name="uni1E20" unicode="&#x1e20;" horiz-adv-x="1536" 
d="M667 -26q-143 0 -260.5 56.5t-198 157t-115 232t-13.5 281.5q21 151 94 283t182.5 231t242 154.5t274.5 55.5q163 0 296 -76t212 -212l-104 -52q-69 112 -180 172.5t-240 60.5q-120 0 -233 -48.5t-205 -134t-152.5 -197.5t-78.5 -239t11.5 -238.5t97.5 -196.5t167 -133.5
t219 -48.5q104 0 202 36.5t181.5 102.5t147 153t97.5 188h-415l14 100h541q-26 -143 -99.5 -267.5t-180.5 -219t-236.5 -148t-267.5 -53.5zM568 1670h676l-13 -92h-676z" />
    <glyph glyph-name="uni1E21" unicode="&#x1e21;" horiz-adv-x="1159" 
d="M973 1000h108l-145 -1042q-13 -93 -65.5 -175.5t-131 -146t-171 -100t-185.5 -36.5q-104 0 -194 48.5t-149 129.5t-72 177l105 46q7 -81 54 -147.5t119 -105.5t152 -39q72 0 144 28t133 76.5t102 111.5t51 133l34 245q-68 -102 -171 -165.5t-228 -63.5q-104 0 -190 41
t-145 113.5t-85 167.5t-11 204t68 204.5t132.5 168t177 113.5t201.5 41q125 0 210 -62.5t125 -166.5zM479 80q111 0 200 58t146.5 154t72.5 208q16 115 -14.5 210.5t-103.5 153.5t-183 58q-111 0 -208.5 -57t-164 -153t-82.5 -212q-16 -117 24 -212t122.5 -151.5
t190.5 -56.5zM322 1270h676l-13 -92h-676z" />
    <glyph glyph-name="uni1E24" unicode="&#x1e24;" horiz-adv-x="1239" 
d="M1109 1400h108l-196 -1400h-108l97 696h-783l-97 -696h-108l196 1400h108l-83 -596h782zM478 -380q-28 0 -45 18.5t-13 46.5t26 46.5t50 18.5q27 0 44 -18.5t13 -46.5q-5 -28 -26 -46.5t-49 -18.5z" />
    <glyph glyph-name="uni1E25" unicode="&#x1e25;" horiz-adv-x="1059" 
d="M967 615l-86 -615h-108l84 598q12 89 -21 162t-99.5 116t-155.5 43t-168 -43t-132 -116t-66 -162l-84 -598h-108l210 1500h108l-91 -653q66 83 161.5 132t200.5 49q115 0 200.5 -55.5t128 -149.5t26.5 -208zM417 -380q-28 0 -45 18.5t-13 46.5t26 46.5t50 18.5
q27 0 44 -18.5t13 -46.5q-5 -28 -26 -46.5t-49 -18.5z" />
    <glyph glyph-name="uni1E2E" unicode="&#x1e2e;" horiz-adv-x="408" 
d="M52 0l196 1400h108l-196 -1400h-108zM170 1484q-28 0 -46 18.5t-14 46.5q4 27 27 47t51 20q27 0 44.5 -20t13.5 -47q-4 -28 -26.5 -46.5t-49.5 -18.5zM460 1484q-28 0 -46 18.5t-14 46.5q3 27 26.5 47t51.5 20q27 0 44 -20t14 -47q-5 -28 -27 -46.5t-49 -18.5zM321 1702
l120 288h108l-156 -288h-72z" />
    <glyph glyph-name="uni1E2F" unicode="&#x1e2f;" 
d="M162 1000h108l-140 -1000h-108zM84 1084q-28 0 -46 18.5t-14 46.5q4 27 27 47t51 20q27 0 44.5 -20t13.5 -47q-4 -28 -26.5 -46.5t-49.5 -18.5zM374 1084q-28 0 -46 18.5t-14 46.5q3 27 26.5 47t51.5 20q27 0 44 -20t14 -47q-5 -28 -27 -46.5t-49 -18.5zM235 1302
l120 288h108l-156 -288h-72z" />
    <glyph glyph-name="uni1E36" unicode="&#x1e36;" horiz-adv-x="990" 
d="M22 0l196 1400h108l-181 -1292h662l-15 -108h-770zM364 -380q-28 0 -45 18.5t-13 46.5t26 46.5t50 18.5q27 0 44 -18.5t13 -46.5q-5 -28 -26 -46.5t-49 -18.5z" />
    <glyph glyph-name="uni1E37" unicode="&#x1e37;" 
d="M23 0l210 1500h108l-210 -1500h-108zM34 -380q-28 0 -45 18.5t-13 46.5t26 46.5t50 18.5q27 0 44 -18.5t13 -46.5q-5 -28 -26 -46.5t-49 -18.5z" />
    <glyph glyph-name="uni1E3E" unicode="&#x1e3e;" horiz-adv-x="1738" 
d="M22 0l467 1400h71l257 -1071l556 1071h71l76 -1400h-110l-61 1134l-531 -1024h-65l-244 1024l-378 -1134h-109zM959 1510l120 288h108l-156 -288h-72z" />
    <glyph glyph-name="uni1E3F" unicode="&#x1e3f;" horiz-adv-x="1776" 
d="M22 0l140 1000h108l-21 -153q66 83 161 132t201 49q116 0 203.5 -57.5t126.5 -152.5q67 95 170 152.5t219 57.5q114 0 200 -55.5t129 -149.5t26 -208l-86 -615h-108l84 595q12 87 -20 160.5t-96.5 118.5t-151.5 45t-164 -41.5t-129 -114.5t-66 -168l-83 -595h-108l83 595
q14 95 -18.5 168t-97.5 114.5t-152 41.5q-86 0 -163.5 -45t-130 -118.5t-64.5 -160.5l-84 -595h-108zM959 1110l120 288h108l-156 -288h-72z" />
    <glyph glyph-name="uni1E40" unicode="&#x1e40;" horiz-adv-x="1738" 
d="M22 0l467 1400h71l257 -1071l556 1071h71l76 -1400h-110l-61 1134l-531 -1024h-65l-244 1024l-378 -1134h-109zM995 1589q-28 0 -45 18.5t-13 46.5t26 46.5t50 18.5q27 0 44 -18.5t13 -46.5q-5 -28 -26 -46.5t-49 -18.5z" />
    <glyph glyph-name="uni1E41" unicode="&#x1e41;" horiz-adv-x="1776" 
d="M22 0l140 1000h108l-21 -153q66 83 161 132t201 49q116 0 203.5 -57.5t126.5 -152.5q67 95 170 152.5t219 57.5q114 0 200 -55.5t129 -149.5t26 -208l-86 -615h-108l84 595q12 87 -20 160.5t-96.5 118.5t-151.5 45t-164 -41.5t-129 -114.5t-66 -168l-83 -595h-108l83 595
q14 95 -18.5 168t-97.5 114.5t-152 41.5q-86 0 -163.5 -45t-130 -118.5t-64.5 -160.5l-84 -595h-108zM995 1189q-28 0 -45 18.5t-13 46.5t26 46.5t50 18.5q27 0 44 -18.5t13 -46.5q-5 -28 -26 -46.5t-49 -18.5z" />
    <glyph glyph-name="uni1E42" unicode="&#x1e42;" horiz-adv-x="1738" 
d="M22 0l467 1400h71l257 -1071l556 1071h71l76 -1400h-110l-61 1134l-531 -1024h-65l-244 1024l-378 -1134h-109zM728 -380q-28 0 -45 18.5t-13 46.5t26 46.5t50 18.5q27 0 44 -18.5t13 -46.5q-5 -28 -26 -46.5t-49 -18.5z" />
    <glyph glyph-name="uni1E43" unicode="&#x1e43;" horiz-adv-x="1776" 
d="M22 0l140 1000h108l-21 -153q66 83 161 132t201 49q116 0 203.5 -57.5t126.5 -152.5q67 95 170 152.5t219 57.5q114 0 200 -55.5t129 -149.5t26 -208l-86 -615h-108l84 595q12 87 -20 160.5t-96.5 118.5t-151.5 45t-164 -41.5t-129 -114.5t-66 -168l-83 -595h-108l83 595
q14 95 -18.5 168t-97.5 114.5t-152 41.5q-86 0 -163.5 -45t-130 -118.5t-64.5 -160.5l-84 -595h-108zM768 -380q-28 0 -45 18.5t-13 46.5t26 46.5t50 18.5q27 0 44 -18.5t13 -46.5q-5 -28 -26 -46.5t-49 -18.5z" />
    <glyph glyph-name="uni1E44" unicode="&#x1e44;" horiz-adv-x="1250" 
d="M22 0l196 1400h118l615 -1205l169 1205h108l-196 -1400h-116l-617 1205l-169 -1205h-108zM751 1589q-28 0 -45 18.5t-13 46.5t26 46.5t50 18.5q27 0 44 -18.5t13 -46.5q-5 -28 -26 -46.5t-49 -18.5z" />
    <glyph glyph-name="uni1E45" unicode="&#x1e45;" horiz-adv-x="1058" 
d="M966 615l-86 -615h-108l84 598q12 89 -21 162t-99.5 116t-155.5 43t-168 -43t-132 -116t-66 -162l-84 -598h-108l140 1000h108l-21 -153q66 83 161.5 132t200.5 49q115 0 200.5 -55.5t128 -149.5t26.5 -208zM623 1189q-28 0 -45 18.5t-13 46.5t26 46.5t50 18.5
q27 0 44 -18.5t13 -46.5q-5 -28 -26 -46.5t-49 -18.5z" />
    <glyph glyph-name="uni1E46" unicode="&#x1e46;" horiz-adv-x="1250" 
d="M22 0l196 1400h118l615 -1205l169 1205h108l-196 -1400h-116l-617 1205l-169 -1205h-108zM484 -380q-28 0 -45 18.5t-13 46.5t26 46.5t50 18.5q27 0 44 -18.5t13 -46.5q-5 -28 -26 -46.5t-49 -18.5z" />
    <glyph glyph-name="uni1E47" unicode="&#x1e47;" horiz-adv-x="1058" 
d="M966 615l-86 -615h-108l84 598q12 89 -21 162t-99.5 116t-155.5 43t-168 -43t-132 -116t-66 -162l-84 -598h-108l140 1000h108l-21 -153q66 83 161.5 132t200.5 49q115 0 200.5 -55.5t128 -149.5t26.5 -208zM408 -380q-28 0 -45 18.5t-13 46.5t26 46.5t50 18.5
q27 0 44 -18.5t13 -46.5q-5 -28 -26 -46.5t-49 -18.5z" />
    <glyph glyph-name="uni1E62" unicode="&#x1e62;" horiz-adv-x="1211" 
d="M503 -26q-111 0 -210 34.5t-167.5 98t-87.5 152.5l107 38q15 -68 71 -116.5t136 -73.5t166 -25q102 0 196 35t158 97.5t76 148.5t-37 141.5t-134 88t-180 50.5q-138 25 -244.5 66.5t-161 117.5t-37.5 204q17 119 99 206t202 135t251 48q107 0 205.5 -33.5t169 -97.5
t92.5 -156l-109 -37q-14 69 -71 117t-137 73t-165 25q-103 1 -196.5 -34.5t-156.5 -98.5t-76 -147q-13 -97 30.5 -150t128 -79.5t191.5 -47.5q129 -23 236 -70.5t165.5 -126t42.5 -194.5q-17 -118 -98.5 -205.5t-201.5 -135.5t-253 -48zM532 -380q-28 0 -45 18.5t-13 46.5
t26 46.5t50 18.5q27 0 44 -18.5t13 -46.5q-5 -28 -26 -46.5t-49 -18.5z" />
    <glyph glyph-name="uni1E63" unicode="&#x1e63;" horiz-adv-x="856" 
d="M332 -19q-83 1 -158.5 29.5t-127.5 76.5t-67 109l101 41q11 -45 54 -81t102 -56.5t117 -20.5q68 0 130.5 23t105.5 65t50 99q9 60 -25.5 94.5t-92 56t-118.5 40.5q-105 32 -181 65.5t-113 85.5t-25 137q12 88 72.5 153t148.5 100.5t183 35.5q123 0 215.5 -54t122.5 -142
l-96 -52q-13 46 -51.5 79t-91 51t-107.5 19q-70 1 -134 -21.5t-106.5 -65t-51.5 -102.5t21 -92t88 -51.5t134 -45.5q89 -29 164.5 -64.5t117.5 -88.5t30 -137q-13 -88 -74.5 -153t-151 -100t-185.5 -33zM348 -380q-28 0 -45 18.5t-13 46.5t26 46.5t50 18.5q27 0 44 -18.5
t13 -46.5q-5 -28 -26 -46.5t-49 -18.5z" />
    <glyph glyph-name="uni1E6C" unicode="&#x1e6c;" horiz-adv-x="1259" 
d="M1277 1400l-16 -108h-496l-180 -1292h-108l180 1292h-494l15 108h1099zM488 -380q-28 0 -45 18.5t-13 46.5t26 46.5t50 18.5q27 0 44 -18.5t13 -46.5q-5 -28 -26 -46.5t-49 -18.5z" />
    <glyph glyph-name="uni1E6D" unicode="&#x1e6d;" horiz-adv-x="682" 
d="M651 892h-253l-127 -892h-108l127 892h-191l14 108h191l43 314h108l-43 -314h253zM174 -380q-28 0 -45 18.5t-13 46.5t26 46.5t50 18.5q27 0 44 -18.5t13 -46.5q-5 -28 -26 -46.5t-49 -18.5z" />
    <glyph glyph-name="Wgrave" unicode="&#x1e80;" horiz-adv-x="1634" 
d="M296 0l-162 1400h111l142 -1221l481 1221h94l141 -1221l481 1221h111l-552 -1400h-131l-133 1145l-453 -1145h-130zM799 1798h108l40 -288h-72z" />
    <glyph glyph-name="wgrave" unicode="&#x1e81;" horiz-adv-x="1601" 
d="M411 0h-114l-195 1000h105l169 -855l407 855h119l167 -855l407 855h107l-476 -1000h-115l-170 864zM727 1398h108l40 -288h-72z" />
    <glyph glyph-name="Wacute" unicode="&#x1e82;" horiz-adv-x="1634" 
d="M296 0l-162 1400h111l142 -1221l481 1221h94l141 -1221l481 1221h111l-552 -1400h-131l-133 1145l-453 -1145h-130zM907 1510l120 288h108l-156 -288h-72z" />
    <glyph glyph-name="wacute" unicode="&#x1e83;" horiz-adv-x="1601" 
d="M411 0h-114l-195 1000h105l169 -855l407 855h119l167 -855l407 855h107l-476 -1000h-115l-170 864zM834 1110l120 288h108l-156 -288h-72z" />
    <glyph glyph-name="Wdieresis" unicode="&#x1e84;" horiz-adv-x="1634" 
d="M296 0l-162 1400h111l142 -1221l481 1221h94l141 -1221l481 1221h111l-552 -1400h-131l-133 1145l-453 -1145h-130zM783 1484q-28 0 -46 18.5t-14 46.5q4 27 27 47t51 20q27 0 44.5 -20t13.5 -47q-4 -28 -26.5 -46.5t-49.5 -18.5zM1073 1484q-28 0 -46 18.5t-14 46.5
q3 27 26.5 47t51.5 20q27 0 44 -20t14 -47q-5 -28 -27 -46.5t-49 -18.5z" />
    <glyph glyph-name="wdieresis" unicode="&#x1e85;" horiz-adv-x="1601" 
d="M411 0h-114l-195 1000h105l169 -855l407 855h119l167 -855l407 855h107l-476 -1000h-115l-170 864zM711 1084q-28 0 -46 18.5t-14 46.5q4 27 27 47t51 20q27 0 44.5 -20t13.5 -47q-4 -28 -26.5 -46.5t-49.5 -18.5zM1001 1084q-28 0 -46 18.5t-14 46.5q3 27 26.5 47
t51.5 20q27 0 44 -20t14 -47q-5 -28 -27 -46.5t-49 -18.5z" />
    <glyph glyph-name="uni1E92" unicode="&#x1e92;" horiz-adv-x="1292" 
d="M-18 0l15 108l1154 1184h-988l15 108h1132l-15 -108l-1154 -1184h988l-15 -108h-1132zM505 -380q-28 0 -45 18.5t-13 46.5t26 46.5t50 18.5q27 0 44 -18.5t13 -46.5q-5 -28 -26 -46.5t-49 -18.5z" />
    <glyph glyph-name="uni1E93" unicode="&#x1e93;" horiz-adv-x="1014" 
d="M961 892l-814 -784h704l-15 -108h-854l15 108l814 784h-704l15 108h854zM366 -380q-28 0 -45 18.5t-13 46.5t26 46.5t50 18.5q27 0 44 -18.5t13 -46.5q-5 -28 -26 -46.5t-49 -18.5z" />
    <glyph glyph-name="uni1E97" unicode="&#x1e97;" horiz-adv-x="682" 
d="M651 892h-253l-127 -892h-108l127 892h-191l14 108h191l43 314h108l-43 -314h253zM269 1398q-28 0 -46 18.5t-14 46.5q4 27 27 47t51 20q27 0 44.5 -20t13.5 -47q-4 -28 -26.5 -46.5t-49.5 -18.5zM559 1398q-28 0 -46 18.5t-14 46.5q3 27 26.5 47t51.5 20q27 0 44 -20
t14 -47q-5 -28 -27 -46.5t-49 -18.5z" />
    <glyph glyph-name="uni1E9E" unicode="&#x1e9e;" horiz-adv-x="1105" 
d="M22 0l135 967q13 90 57.5 168t112 137t150.5 93t172 34q96 0 174.5 -30.5t120.5 -89.5t30 -144q-6 -42 -40 -89.5t-102.5 -122t-180.5 -200.5q75 9 142.5 -14t118 -71.5t75 -116t12.5 -147.5q-12 -92 -60 -162.5t-118 -117t-150 -70.5t-156 -24h-70l-15 99h92
q77 0 159 29t143 90.5t75 157.5q13 95 -31.5 155t-118.5 88.5t-151 28.5h-70l4 48q1 24 33.5 66t79.5 93.5t94.5 104.5t81.5 99.5t37 76.5q7 60 -24 95.5t-88 51.5t-125 16q-85 0 -161 -42.5t-127.5 -113.5t-64.5 -158l-138 -985h-108z" />
    <glyph glyph-name="uni1EA0" unicode="&#x1ea0;" horiz-adv-x="1321" 
d="M687 1400h142l314 -1400h-115l-72 316h-700l-159 -316h-115zM311 424h621l-191 853zM519 -380q-28 0 -45 18.5t-13 46.5t26 46.5t50 18.5q27 0 44 -18.5t13 -46.5q-5 -28 -26 -46.5t-49 -18.5z" />
    <glyph glyph-name="uni1EA1" unicode="&#x1ea1;" horiz-adv-x="1150" 
d="M1005 1000h108l-140 -1000h-108l26 205q-66 -104 -169.5 -167.5t-235.5 -63.5q-109 0 -199 41.5t-152.5 114t-90 168t-11.5 205.5q15 109 68.5 204t136 167.5t183 113t208.5 40.5q133 0 222 -64.5t128 -168.5zM499 80q116 0 206.5 56.5t147.5 152.5t74 211
q17 118 -14.5 213.5t-106 152t-188.5 56.5q-115 0 -218 -57t-172.5 -153t-85.5 -212q-16 -118 27.5 -213t130.5 -151t199 -56zM449 -380q-28 0 -45 18.5t-13 46.5t26 46.5t50 18.5q27 0 44 -18.5t13 -46.5q-5 -28 -26 -46.5t-49 -18.5z" />
    <glyph glyph-name="uni1EAC" unicode="&#x1eac;" horiz-adv-x="1321" 
d="M687 1400h142l314 -1400h-115l-72 316h-700l-159 -316h-115zM311 424h621l-191 853zM519 -380q-28 0 -45 18.5t-13 46.5t26 46.5t50 18.5q27 0 44 -18.5t13 -46.5q-5 -28 -26 -46.5t-49 -18.5zM872 1798l153 -288h-72l-151 206l-205 -206h-71l231 288h115z" />
    <glyph glyph-name="uni1EAD" unicode="&#x1ead;" horiz-adv-x="1150" 
d="M1005 1000h108l-140 -1000h-108l26 205q-66 -104 -169.5 -167.5t-235.5 -63.5q-109 0 -199 41.5t-152.5 114t-90 168t-11.5 205.5q15 109 68.5 204t136 167.5t183 113t208.5 40.5q133 0 222 -64.5t128 -168.5zM499 80q116 0 206.5 56.5t147.5 152.5t74 211
q17 118 -14.5 213.5t-106 152t-188.5 56.5q-115 0 -218 -57t-172.5 -153t-85.5 -212q-16 -118 27.5 -213t130.5 -151t199 -56zM449 -380q-28 0 -45 18.5t-13 46.5t26 46.5t50 18.5q27 0 44 -18.5t13 -46.5q-5 -28 -26 -46.5t-49 -18.5zM747 1398l153 -288h-72l-151 206
l-205 -206h-71l231 288h115z" />
    <glyph glyph-name="uni1EB6" unicode="&#x1eb6;" horiz-adv-x="1321" 
d="M687 1400h142l314 -1400h-115l-72 316h-700l-159 -316h-115zM311 424h621l-191 853zM519 -380q-28 0 -45 18.5t-13 46.5t26 46.5t50 18.5q27 0 44 -18.5t13 -46.5q-5 -28 -26 -46.5t-49 -18.5zM771 1488q-91 0 -160 45t-103.5 120.5t-22.5 166.5h84q-9 -70 17.5 -126
t79 -89t117.5 -33q67 0 128 33.5t103 90t51 124.5h84q-13 -93 -69 -168.5t-138 -119.5t-171 -44z" />
    <glyph glyph-name="uni1EB7" unicode="&#x1eb7;" horiz-adv-x="1150" 
d="M1005 1000h108l-140 -1000h-108l26 205q-66 -104 -169.5 -167.5t-235.5 -63.5q-109 0 -199 41.5t-152.5 114t-90 168t-11.5 205.5q15 109 68.5 204t136 167.5t183 113t208.5 40.5q133 0 222 -64.5t128 -168.5zM499 80q116 0 206.5 56.5t147.5 152.5t74 211
q17 118 -14.5 213.5t-106 152t-188.5 56.5q-115 0 -218 -57t-172.5 -153t-85.5 -212q-16 -118 27.5 -213t130.5 -151t199 -56zM449 -380q-28 0 -45 18.5t-13 46.5t26 46.5t50 18.5q27 0 44 -18.5t13 -46.5q-5 -28 -26 -46.5t-49 -18.5zM645 1088q-91 0 -160 45t-103.5 120.5
t-22.5 166.5h84q-9 -70 17.5 -126t79 -89t117.5 -33q67 0 128 33.5t103 90t51 124.5h84q-13 -93 -69 -168.5t-138 -119.5t-171 -44z" />
    <glyph glyph-name="uni1EB8" unicode="&#x1eb8;" horiz-adv-x="1064" 
d="M22 0l196 1400h844l-15 -108h-736l-68 -488h615l-14 -108h-617l-82 -588h736l-15 -108h-844zM391 -380q-28 0 -45 18.5t-13 46.5t26 46.5t50 18.5q27 0 44 -18.5t13 -46.5q-5 -28 -26 -46.5t-49 -18.5z" />
    <glyph glyph-name="uni1EB9" unicode="&#x1eb9;" horiz-adv-x="1117" 
d="M458 -26q-138 0 -241.5 71t-154 190.5t-30.5 264.5q15 110 67.5 205.5t131.5 168t175.5 113.5t199.5 41q109 0 195.5 -42.5t142.5 -119.5t77.5 -181.5t0.5 -228.5h-883q-4 -107 37.5 -191.5t118 -133t178.5 -49.5q111 0 209 58.5t165 160.5l105 -25
q-79 -133 -211.5 -217.5t-282.5 -84.5zM149 548h778q8 103 -33.5 189.5t-119.5 138.5t-181 52q-104 0 -196 -51t-157.5 -137.5t-90.5 -191.5zM418 -380q-28 0 -45 18.5t-13 46.5t26 46.5t50 18.5q27 0 44 -18.5t13 -46.5q-5 -28 -26 -46.5t-49 -18.5z" />
    <glyph glyph-name="uni1EBC" unicode="&#x1ebc;" horiz-adv-x="1064" 
d="M22 0l196 1400h844l-15 -108h-736l-68 -488h615l-14 -108h-617l-82 -588h736l-15 -108h-844zM804 1539q-37 0 -77.5 23t-80 53t-76 51t-65.5 18q-31 -4 -53.5 -33t-18.5 -68l-83 -22q-10 50 11 98t65 79t99 31q38 0 79.5 -22t82.5 -50.5t78 -50.5t65 -22q23 0 39.5 18.5
t25 42t4.5 40.5l82 25q11 -53 -11.5 -101.5t-66.5 -79t-99 -30.5z" />
    <glyph glyph-name="uni1EBD" unicode="&#x1ebd;" horiz-adv-x="1117" 
d="M458 -26q-138 0 -241.5 71t-154 190.5t-30.5 264.5q15 110 67.5 205.5t131.5 168t175.5 113.5t199.5 41q109 0 195.5 -42.5t142.5 -119.5t77.5 -181.5t0.5 -228.5h-883q-4 -107 37.5 -191.5t118 -133t178.5 -49.5q111 0 209 58.5t165 160.5l105 -25
q-79 -133 -211.5 -217.5t-282.5 -84.5zM149 548h778q8 103 -33.5 189.5t-119.5 138.5t-181 52q-104 0 -196 -51t-157.5 -137.5t-90.5 -191.5zM775 1139q-37 0 -77.5 23t-80 53t-76 51t-65.5 18q-31 -4 -53.5 -33t-18.5 -68l-83 -22q-10 50 11 98t65 79t99 31q38 0 79.5 -22
t82.5 -50.5t78 -50.5t65 -22q23 0 39.5 18.5t25 42t4.5 40.5l82 25q11 -53 -11.5 -101.5t-66.5 -79t-99 -30.5z" />
    <glyph glyph-name="uni1EC6" unicode="&#x1ec6;" horiz-adv-x="1064" 
d="M22 0l196 1400h844l-15 -108h-736l-68 -488h615l-14 -108h-617l-82 -588h736l-15 -108h-844zM391 -380q-28 0 -45 18.5t-13 46.5t26 46.5t50 18.5q27 0 44 -18.5t13 -46.5q-5 -28 -26 -46.5t-49 -18.5zM744 1798l153 -288h-72l-151 206l-205 -206h-71l231 288h115z" />
    <glyph glyph-name="uni1EC7" unicode="&#x1ec7;" horiz-adv-x="1117" 
d="M458 -26q-138 0 -241.5 71t-154 190.5t-30.5 264.5q15 110 67.5 205.5t131.5 168t175.5 113.5t199.5 41q109 0 195.5 -42.5t142.5 -119.5t77.5 -181.5t0.5 -228.5h-883q-4 -107 37.5 -191.5t118 -133t178.5 -49.5q111 0 209 58.5t165 160.5l105 -25
q-79 -133 -211.5 -217.5t-282.5 -84.5zM149 548h778q8 103 -33.5 189.5t-119.5 138.5t-181 52q-104 0 -196 -51t-157.5 -137.5t-90.5 -191.5zM418 -380q-28 0 -45 18.5t-13 46.5t26 46.5t50 18.5q27 0 44 -18.5t13 -46.5q-5 -28 -26 -46.5t-49 -18.5zM715 1398l153 -288h-72
l-151 206l-205 -206h-71l231 288h115z" />
    <glyph glyph-name="uni1ECA" unicode="&#x1eca;" horiz-adv-x="408" 
d="M52 0l196 1400h108l-196 -1400h-108zM63 -380q-28 0 -45 18.5t-13 46.5t26 46.5t50 18.5q27 0 44 -18.5t13 -46.5q-5 -28 -26 -46.5t-49 -18.5z" />
    <glyph glyph-name="uni1ECB" unicode="&#x1ecb;" 
d="M162 1000h108l-140 -1000h-108zM244 1189q-28 0 -45 18.5t-13 46.5t26 46.5t50 18.5q27 0 44 -18.5t13 -46.5q-5 -28 -26 -46.5t-49 -18.5zM33 -380q-28 0 -45 18.5t-13 46.5t26 46.5t50 18.5q27 0 44 -18.5t13 -46.5q-5 -28 -26 -46.5t-49 -18.5z" />
    <glyph glyph-name="uni1ECC" unicode="&#x1ecc;" horiz-adv-x="1540" 
d="M668 -26q-142 0 -259.5 56.5t-198 156.5t-116 231.5t-14.5 281.5t93 281.5t181.5 231.5t242.5 156.5t275 56.5q143 0 260 -56.5t197.5 -156.5t116 -231.5t14.5 -281.5t-93 -281.5t-181.5 -231.5t-242 -156.5t-275.5 -56.5zM683 82q121 0 233.5 49t204.5 134.5
t152.5 197.5t78.5 237q18 127 -11.5 239t-97.5 197t-166.5 133.5t-219.5 48.5t-233.5 -49t-204.5 -134.5t-152.5 -197.5t-78.5 -237q-18 -127 11.5 -239t97.5 -197.5t166.5 -133.5t219.5 -48zM629 -380q-28 0 -45 18.5t-13 46.5t26 46.5t50 18.5q27 0 44 -18.5t13 -46.5
q-5 -28 -26 -46.5t-49 -18.5z" />
    <glyph glyph-name="uni1ECD" unicode="&#x1ecd;" horiz-adv-x="1120" 
d="M458 -26q-138 0 -241.5 71t-154 190.5t-30.5 264.5q15 110 67.5 205.5t131.5 168t175.5 113.5t199.5 41q138 0 241.5 -71t154.5 -191t30 -266q-15 -109 -67.5 -204t-131.5 -167.5t-175 -113.5t-200 -41zM473 82q110 0 207 58t163 153t81 207q16 113 -23 209t-119 153.5
t-191 57.5t-208 -58t-162 -153.5t-81 -208.5q-16 -117 24 -211.5t121 -150.5t188 -56zM419 -380q-28 0 -45 18.5t-13 46.5t26 46.5t50 18.5q27 0 44 -18.5t13 -46.5q-5 -28 -26 -46.5t-49 -18.5z" />
    <glyph glyph-name="uni1ED8" unicode="&#x1ed8;" horiz-adv-x="1540" 
d="M668 -26q-142 0 -259.5 56.5t-198 156.5t-116 231.5t-14.5 281.5t93 281.5t181.5 231.5t242.5 156.5t275 56.5q143 0 260 -56.5t197.5 -156.5t116 -231.5t14.5 -281.5t-93 -281.5t-181.5 -231.5t-242 -156.5t-275.5 -56.5zM683 82q121 0 233.5 49t204.5 134.5
t152.5 197.5t78.5 237q18 127 -11.5 239t-97.5 197t-166.5 133.5t-219.5 48.5t-233.5 -49t-204.5 -134.5t-152.5 -197.5t-78.5 -237q-18 -127 11.5 -239t97.5 -197.5t166.5 -133.5t219.5 -48zM629 -380q-28 0 -45 18.5t-13 46.5t26 46.5t50 18.5q27 0 44 -18.5t13 -46.5
q-5 -28 -26 -46.5t-49 -18.5zM982 1798l153 -288h-72l-151 206l-205 -206h-71l231 288h115z" />
    <glyph glyph-name="uni1ED9" unicode="&#x1ed9;" horiz-adv-x="1120" 
d="M458 -26q-138 0 -241.5 71t-154 190.5t-30.5 264.5q15 110 67.5 205.5t131.5 168t175.5 113.5t199.5 41q138 0 241.5 -71t154.5 -191t30 -266q-15 -109 -67.5 -204t-131.5 -167.5t-175 -113.5t-200 -41zM473 82q110 0 207 58t163 153t81 207q16 113 -23 209t-119 153.5
t-191 57.5t-208 -58t-162 -153.5t-81 -208.5q-16 -117 24 -211.5t121 -150.5t188 -56zM419 -380q-28 0 -45 18.5t-13 46.5t26 46.5t50 18.5q27 0 44 -18.5t13 -46.5q-5 -28 -26 -46.5t-49 -18.5zM716 1398l153 -288h-72l-151 206l-205 -206h-71l231 288h115z" />
    <glyph glyph-name="uni1EE4" unicode="&#x1ee4;" horiz-adv-x="1316" 
d="M556 -26q-168 0 -277 82t-154 220.5t-21 307.5l114 816h108l-114 -816q-19 -137 14.5 -251t119.5 -182.5t225 -68.5q140 0 245.5 69t170.5 183.5t85 249.5l114 816h108l-114 -816q-18 -127 -70.5 -237.5t-134 -194.5t-187.5 -131t-232 -47zM517 -380q-28 0 -45 18.5
t-13 46.5t26 46.5t50 18.5q27 0 44 -18.5t13 -46.5q-5 -28 -26 -46.5t-49 -18.5z" />
    <glyph glyph-name="uni1EE5" unicode="&#x1ee5;" horiz-adv-x="1018" 
d="M36 387l86 613h108l-84 -596q-12 -89 21 -162t100 -116t155 -43q89 0 168 43t132.5 116t66.5 162l83 596h108l-140 -1000h-108l21 155q-65 -82 -160.5 -131.5t-201.5 -49.5q-114 0 -200 55.5t-128.5 149.5t-26.5 208zM376 -379q-28 0 -45 18.5t-13 46.5t26 46.5t50 18.5
q27 0 44 -18.5t13 -46.5q-5 -28 -26 -46.5t-49 -18.5z" />
    <glyph glyph-name="Ygrave" unicode="&#x1ef2;" horiz-adv-x="1165" 
d="M1076 1400h127l-576 -765l-89 -635h-108l89 635l-361 765h127l304 -647zM564 1798h108l40 -288h-72z" />
    <glyph glyph-name="ygrave" unicode="&#x1ef3;" horiz-adv-x="998" 
d="M847 1000h113l-757 -1500h-115l253 500l-219 1000h118l175 -851zM425 1398h108l40 -288h-72z" />
    <glyph glyph-name="uni1EF4" unicode="&#x1ef4;" horiz-adv-x="1165" 
d="M1076 1400h127l-576 -765l-89 -635h-108l89 635l-361 765h127l304 -647zM441 -380q-28 0 -45 18.5t-13 46.5t26 46.5t50 18.5q27 0 44 -18.5t13 -46.5q-5 -28 -26 -46.5t-49 -18.5z" />
    <glyph glyph-name="uni1EF5" unicode="&#x1ef5;" horiz-adv-x="998" 
d="M847 1000h113l-757 -1500h-115l253 500l-219 1000h118l175 -851zM536 -380q-28 0 -45 18.5t-13 46.5t26 46.5t50 18.5q27 0 44 -18.5t13 -46.5q-5 -28 -26 -46.5t-49 -18.5z" />
    <glyph glyph-name="uni1EF8" unicode="&#x1ef8;" horiz-adv-x="1165" 
d="M1076 1400h127l-576 -765l-89 -635h-108l89 635l-361 765h127l304 -647zM854 1539q-37 0 -77.5 23t-80 53t-76 51t-65.5 18q-31 -4 -53.5 -33t-18.5 -68l-83 -22q-10 50 11 98t65 79t99 31q38 0 79.5 -22t82.5 -50.5t78 -50.5t65 -22q23 0 39.5 18.5t25 42t4.5 40.5
l82 25q11 -53 -11.5 -101.5t-66.5 -79t-99 -30.5z" />
    <glyph glyph-name="uni1EF9" unicode="&#x1ef9;" horiz-adv-x="998" 
d="M847 1000h113l-757 -1500h-115l253 500l-219 1000h118l175 -851zM715 1139q-37 0 -77.5 23t-80 53t-76 51t-65.5 18q-31 -4 -53.5 -33t-18.5 -68l-83 -22q-10 50 11 98t65 79t99 31q38 0 79.5 -22t82.5 -50.5t78 -50.5t65 -22q23 0 39.5 18.5t25 42t4.5 40.5l82 25
q11 -53 -11.5 -101.5t-66.5 -79t-99 -30.5z" />
    <glyph glyph-name="uni2002" unicode="&#x2002;" horiz-adv-x="1000" 
 />
    <glyph glyph-name="uni2009" unicode="&#x2009;" horiz-adv-x="400" 
 />
    <glyph glyph-name="uni200B" unicode="&#x200b;" horiz-adv-x="0" 
 />
    <glyph glyph-name="endash" unicode="&#x2013;" horiz-adv-x="1240" 
d="M114 654h1000l-16 -108h-1000z" />
    <glyph glyph-name="emdash" unicode="&#x2014;" horiz-adv-x="2040" 
d="M114 654h1800l-16 -108h-1800z" />
    <glyph glyph-name="quoteright" unicode="&#x2019;" horiz-adv-x="270" 
d="M65 878l135 522h108l-171 -522h-72z" />
    <glyph glyph-name="quoteright" unicode="&#x2032;" horiz-adv-x="270" 
d="M65 878l135 522h108l-171 -522h-72z" />
    <glyph glyph-name="quotesinglbase" unicode="&#x201a;" horiz-adv-x="298" 
d="M-66 -112l109 338h108l-145 -338h-72z" />
    <glyph glyph-name="quotedblleft" unicode="&#x201c;" horiz-adv-x="600" 
d="M145 878l171 522h72l-135 -522h-108zM415 882l171 522h72l-135 -522h-108z" />
    <glyph glyph-name="quotedblright" unicode="&#x201d;" horiz-adv-x="600" 
d="M65 878l135 522h108l-171 -522h-72zM335 878l135 522h108l-171 -522h-72z" />
    <glyph glyph-name="quotedblright" unicode="&#x2033;" horiz-adv-x="600" 
d="M65 878l135 522h108l-171 -522h-72zM335 878l135 522h108l-171 -522h-72z" />
    <glyph glyph-name="quotedblbase" unicode="&#x201e;" horiz-adv-x="542" 
d="M-66 -112l109 338h108l-145 -338h-72zM178 -112l109 338h108l-145 -338h-72z" />
    <glyph glyph-name="dagger" unicode="&#x2020;" horiz-adv-x="768" 
d="M138 1112l15 108h250l39 280h108l-39 -280h250l-15 -108h-250l-73 -520h-108l73 520h-250z" />
    <glyph glyph-name="daggerdbl" unicode="&#x2021;" horiz-adv-x="768" 
d="M93 798l16 106h249l33 228h-250l14 108h251l36 260h108l-36 -260h250l-15 -108h-250l-33 -228h250l-14 -106h-250l-34 -238h-108l34 238h-251z" />
    <glyph glyph-name="bullet" unicode="&#x2022;" horiz-adv-x="336" 
d="M141 512q-36 0 -58.5 25.5t-16.5 63.5q5 36 33.5 61.5t64.5 25.5q39 0 61.5 -25.5t16.5 -61.5q-5 -38 -34.5 -63.5t-66.5 -25.5z" />
    <glyph glyph-name="ellipsis" unicode="&#x2026;" horiz-adv-x="956" 
d="M43 -26q-27 0 -43 19.5t-13 47.5q4 26 26 45.5t49 19.5q28 0 44.5 -19.5t12.5 -45.5q-3 -28 -25.5 -47.5t-50.5 -19.5zM355 -26q-27 0 -43 19.5t-13 47.5q4 26 26 45.5t49 19.5q28 0 44.5 -19.5t12.5 -45.5q-3 -28 -25.5 -47.5t-50.5 -19.5zM667 -26q-27 0 -43 19.5
t-13 47.5q4 26 26 45.5t49 19.5q28 0 44.5 -19.5t12.5 -45.5q-3 -28 -25.5 -47.5t-50.5 -19.5z" />
    <glyph glyph-name="perthousand" unicode="&#x2030;" horiz-adv-x="1684" 
d="M41 0l1004 1400h125l-1004 -1400h-125zM325 872q-61 0 -107 29.5t-69 79.5t-14 111q9 62 46 112t91 80t114 30q61 0 107 -30.5t69 -80.5t13 -111q-8 -61 -45 -111t-91 -79.5t-114 -29.5zM337 960q56 0 99.5 38.5t50.5 93.5q8 56 -24.5 94.5t-88.5 38.5q-55 0 -99 -38.5
t-52 -94.5q-7 -55 26 -93.5t88 -38.5zM778 86q-61 0 -107 30.5t-69 81t-14 109.5q8 62 45.5 112t92 79.5t114.5 29.5q62 0 107.5 -30t68 -80t13.5 -111q-8 -60 -45 -110.5t-91 -80.5t-115 -30zM790 174q54 0 99 39t52 94q8 55 -26 94t-88 39q-55 0 -99.5 -39t-52.5 -94
q-7 -55 26.5 -94t88.5 -39zM1298 86q-61 0 -107 30.5t-69 81t-15 109.5q10 62 47 112t91.5 79.5t114.5 29.5q62 0 107.5 -30t68 -80t13.5 -111q-8 -60 -45 -110.5t-91 -80.5t-115 -30zM1310 174q55 0 100 39t52 94q8 55 -26 94t-89 39t-99 -39t-52 -94q-7 -55 26 -94t88 -39
z" />
    <glyph glyph-name="uni2035" unicode="&#x2035;" horiz-adv-x="410" 
d="M243 878l-25 522h108l-11 -522h-72z" />
    <glyph glyph-name="guilsinglleft" unicode="&#x2039;" horiz-adv-x="644" 
d="M358 261l-252 340l348 338h124l-348 -338l252 -340h-124z" />
    <glyph glyph-name="guilsinglright" unicode="&#x203a;" horiz-adv-x="644" 
d="M38 261l347 340l-251 338h124l252 -338l-348 -340h-124z" />
    <glyph glyph-name="fraction" unicode="&#x2044;" horiz-adv-x="450" 
d="M-329 0l1004 1400h104l-1004 -1400h-104z" />
    <glyph glyph-name="fraction" unicode="&#x2215;" horiz-adv-x="450" 
d="M-329 0l1004 1400h104l-1004 -1400h-104z" />
    <glyph glyph-name="uni2070" unicode="&#x2070;" horiz-adv-x="648" 
d="M338 798q-69 0 -120.5 43.5t-74.5 119.5t-10 172q14 96 58.5 171.5t108 119.5t132.5 44q70 0 121 -44t74.5 -119.5t9.5 -171.5q-13 -96 -58 -172t-108 -119.5t-133 -43.5zM350 887q50 0 91.5 37.5t69 94.5t35.5 114q9 62 -3.5 118.5t-44 92t-78.5 35.5q-50 0 -91.5 -37
t-68.5 -93.5t-36 -115.5q-8 -62 4 -118.5t43.5 -92t78.5 -35.5z" />
    <glyph glyph-name="uni2074" unicode="&#x2074;" horiz-adv-x="678" 
d="M386 818l18 128h-273l15 110l304 393h116l-58 -412h73l-12 -91h-74l-17 -128h-92zM238 1037h182l41 288z" />
    <glyph glyph-name="uni2075" unicode="&#x2075;" horiz-adv-x="677" 
d="M323 798q-94 0 -151 60t-44 153h91q-8 -55 26.5 -89.5t89.5 -34.5q54 0 98.5 34.5t52.5 89.5q8 54 -26.5 92t-88.5 39q-32 1 -59.5 -2t-57.5 -9t-72 -18l78 336h346l-12 -86h-264l-28 -136q134 17 213 -40.5t62 -175.5q-13 -93 -87 -153t-167 -60z" />
    <glyph glyph-name="uni2076" unicode="&#x2076;" horiz-adv-x="706" 
d="M343 798q-102 0 -158.5 64t-43.5 157q4 29 16.5 58t40.5 72t79.5 113.5t133.5 183.5h106l-144 -201q74 11 130 -18.5t84.5 -85t19.5 -123.5q-9 -67 -48.5 -116.5t-96.5 -76.5t-119 -27zM355 887q60 0 106.5 37.5t54.5 97.5q8 63 -31.5 100.5t-90.5 37.5q-62 0 -108.5 -43
t-53.5 -103q-7 -58 30 -92.5t93 -34.5z" />
    <glyph glyph-name="uni2077" unicode="&#x2077;" horiz-adv-x="627" 
d="M157 818l384 539h-329l13 91h435l-13 -90l-384 -540h-106z" />
    <glyph glyph-name="uni2078" unicode="&#x2078;" horiz-adv-x="601" 
d="M313 798q-83 0 -135.5 53.5t-40.5 138.5q7 50 35 91.5t68 68.5q-25 26 -37.5 62.5t-7.5 77.5q11 79 72.5 129t139.5 50q79 0 128 -50t38 -129q-6 -41 -29 -77.5t-57 -62.5q33 -27 50 -68.5t9 -91.5q-11 -85 -79 -138.5t-154 -53.5zM326 886q48 0 85 29t44 75t-22 79
t-77 33q-46 0 -83.5 -33t-44.5 -79t22.5 -75t75.5 -29zM368 1193q42 0 75 29t39 68q5 41 -20.5 65t-66.5 24q-39 0 -71 -24t-38 -65q-5 -39 19 -68t63 -29z" />
    <glyph glyph-name="uni2079" unicode="&#x2079;" horiz-adv-x="659" 
d="M237 818l146 204q-70 -13 -123.5 11.5t-83.5 73.5t-29 110.5t40 121.5q36 65 98 97t129 32q63 0 109 -28t70.5 -73.5t21.5 -101t-37 -110.5q-6 -16 -15 -31l-221 -306h-105zM362 1105q46 0 84 24.5t60.5 64.5t18.5 86q-6 52 -43 75.5t-80 23.5q-45 0 -83.5 -22.5t-60 -60
t-18.5 -82.5q5 -53 42.5 -81t79.5 -28z" />
    <glyph glyph-name="uni2080" unicode="&#x2080;" horiz-adv-x="648" 
d="M221 -31q-69 0 -120 43.5t-74 119.5t-10 172q14 96 58.5 172.5t108 120.5t132.5 44q70 0 121 -44t74.5 -120.5t9.5 -172.5q-13 -96 -58 -172t-108.5 -119.5t-133.5 -43.5zM234 60q50 0 91 37t69 93.5t35 113.5q9 62 -3.5 118.5t-43.5 92t-79 35.5q-50 0 -91 -37
t-68.5 -93.5t-35.5 -115.5q-9 -61 3 -117t43.5 -91.5t79.5 -35.5z" />
    <glyph glyph-name="uni2081" unicode="&#x2081;" horiz-adv-x="414" 
d="M81 0l75 540h-82l25 91h161l-88 -631h-91z" />
    <glyph glyph-name="uni2082" unicode="&#x2082;" horiz-adv-x="681" 
d="M-2 0l12 88q42 26 104 67t126 90t111 100t59 96q8 54 -25 87t-86 33q-54 0 -97 -33t-51 -87h-92q9 60 45.5 108t90.5 75.5t116 27.5q61 0 107 -27.5t69 -75.5t14 -108q-6 -44 -40 -92.5t-83.5 -95.5t-104.5 -88.5t-103 -73.5h279l-12 -91h-439z" />
    <glyph glyph-name="uni2083" unicode="&#x2083;" horiz-adv-x="550" 
d="M173 -31q-56 0 -99 25t-64 69t-13 100h91q-7 -46 21.5 -74.5t76.5 -28.5q46 0 82.5 28.5t43.5 74.5q7 53 -28.5 86t-108.5 33l12 78q66 0 103.5 28t43.5 76q6 39 -19.5 62.5t-64.5 23.5t-71 -23.5t-37 -62.5h-92q11 77 73 127t139 50q79 0 127 -50t37 -127
q-7 -45 -31 -84t-54 -56q37 -33 53 -68.5t9 -92.5q-8 -56 -42 -100t-83.5 -69t-104.5 -25z" />
    <glyph glyph-name="uni2084" unicode="&#x2084;" horiz-adv-x="678" 
d="M271 0l18 128h-273l15 111l304 392h116l-58 -412h73l-12 -91h-74l-17 -128h-92zM123 219h182l41 288z" />
    <glyph glyph-name="uni2085" unicode="&#x2085;" horiz-adv-x="677" 
d="M206 -31q-63 0 -110 27.5t-70 76t-14 110.5h91q-8 -54 26.5 -88.5t88.5 -34.5q55 0 99.5 34.5t52.5 88.5q7 55 -27 93t-89 38l-188 -27l77 333h347l-12 -87h-265l-28 -133l82 6q98 0 152.5 -65t41.5 -158q-9 -62 -46 -110.5t-92 -76t-117 -27.5z" />
    <glyph glyph-name="uni2086" unicode="&#x2086;" horiz-adv-x="682" 
d="M226 -31q-102 0 -158 65t-43 158q4 30 16 58.5t41 72t80 114.5t134 184h106l-146 -204q74 13 130.5 -17t85 -85.5t19.5 -122.5q-9 -68 -49 -118t-97 -77.5t-119 -27.5zM239 60q60 0 107 38t53 97q8 64 -31 101t-90 37q-61 0 -108 -43.5t-54 -103.5q-7 -56 29.5 -91
t93.5 -35z" />
    <glyph glyph-name="uni2087" unicode="&#x2087;" horiz-adv-x="627" 
d="M40 0l386 540h-328l12 91h435l-13 -90l-387 -541h-105z" />
    <glyph glyph-name="uni2088" unicode="&#x2088;" horiz-adv-x="601" 
d="M196 -31q-83 0 -135 54.5t-40 138.5q7 51 35.5 92.5t67.5 69.5q-25 25 -38 61.5t-7 77.5q11 79 73 129.5t139 50.5q79 0 128 -50.5t37 -129.5q-5 -41 -28 -77.5t-56 -61.5q32 -28 48.5 -69.5t10.5 -92.5q-13 -84 -81 -138.5t-154 -54.5zM209 60q48 0 86 28t44 74
q6 47 -22.5 80t-76.5 33q-46 0 -84 -33t-44 -80q-7 -46 22 -74t75 -28zM253 366q42 0 74.5 29t37.5 68q6 41 -19.5 65t-67.5 24q-39 0 -70.5 -24t-37.5 -65q-5 -39 19 -68t64 -29z" />
    <glyph glyph-name="uni2089" unicode="&#x2089;" horiz-adv-x="659" 
d="M122 0l146 204q-70 -13 -123.5 11.5t-83.5 74t-29 111t40 121.5q24 44 60 72.5t79.5 43t87.5 14.5q66 0 114 -30.5t71.5 -80.5t17 -109.5t-48.5 -117.5l-226 -314h-105zM247 288q46 0 84 24.5t60.5 64.5t18.5 85q-6 52 -43 75.5t-80 23.5q-46 0 -84 -22.5t-59.5 -59.5
t-18.5 -82q5 -54 42.5 -81.5t79.5 -27.5z" />
    <glyph glyph-name="Euro" unicode="&#x20ac;" horiz-adv-x="1181" 
d="M1000 -15q-139 -26 -263 3.5t-221 104t-156.5 185t-73.5 246.5h-231l13 88h216l24 176h-216l13 88h231q52 138 144.5 249t210.5 185t249.5 103t261.5 3l-16 -110q-113 25 -224 3t-209.5 -82t-176.5 -150t-125 -201h350l-13 -88h-371l-23 -176h370l-13 -88h-350
q16 -114 70 -203.5t136.5 -148.5t187 -80t221.5 4z" />
    <glyph glyph-name="trademark" unicode="&#x2122;" horiz-adv-x="2897" 
d="M1277 1400l-16 -108h-496l-180 -1292h-108l180 1292h-494l15 108h1099zM1181 0l467 1400h71l257 -1071l556 1071h71l76 -1400h-110l-61 1134l-531 -1024h-65l-244 1024l-378 -1134h-109z" />
    <glyph glyph-name="oneeighth" unicode="&#x215b;" horiz-adv-x="1466" 
d="M196 818l75 540h-82l25 91h161l-88 -631h-91zM85 0l1004 1400h104l-1004 -1400h-104zM1060 -31q-83 0 -135 54.5t-40 138.5q7 51 35.5 92.5t67.5 69.5q-25 25 -38 61.5t-7 77.5q11 79 73 129.5t139 50.5q79 0 128 -50.5t37 -129.5q-5 -41 -28 -77.5t-56 -61.5
q32 -28 48.5 -69.5t10.5 -92.5q-13 -84 -81 -138.5t-154 -54.5zM1073 60q48 0 86 28t44 74q6 47 -22.5 80t-76.5 33q-46 0 -84 -33t-44 -80q-7 -46 22 -74t75 -28zM1117 366q42 0 74.5 29t37.5 68q6 41 -19.5 65t-67.5 24q-39 0 -70.5 -24t-37.5 -65q-5 -39 19 -68t64 -29z
" />
    <glyph glyph-name="threeeighths" unicode="&#x215c;" horiz-adv-x="1601" 
d="M290 798q-84 0 -136.5 54t-40.5 139h91q-7 -47 22 -75.5t76 -28.5t83 28.5t42 75.5q7 53 -28 85.5t-107 32.5l10 79q66 0 104 27.5t45 74.5q5 39 -20.5 63.5t-64.5 24.5t-71 -24.5t-37 -63.5h-91q11 79 72.5 128t139.5 49t126 -49t37 -128q-6 -43 -30.5 -82.5
t-54.5 -56.5q38 -33 54 -68.5t7 -91.5q-11 -85 -78 -139t-150 -54zM221 0l1004 1400h104l-1004 -1400h-104zM1196 -31q-83 0 -135 54.5t-40 138.5q7 51 35.5 92.5t67.5 69.5q-25 25 -38 61.5t-7 77.5q11 79 73 129.5t139 50.5q79 0 128 -50.5t37 -129.5q-5 -41 -28 -77.5
t-56 -61.5q32 -28 48.5 -69.5t10.5 -92.5q-13 -84 -81 -138.5t-154 -54.5zM1209 60q48 0 86 28t44 74q6 47 -22.5 80t-76.5 33q-46 0 -84 -33t-44 -80q-7 -46 22 -74t75 -28zM1253 366q42 0 74.5 29t37.5 68q6 41 -19.5 65t-67.5 24q-39 0 -70.5 -24t-37.5 -65
q-5 -39 19 -68t64 -29z" />
    <glyph glyph-name="fiveeighths" unicode="&#x215d;" horiz-adv-x="1729" 
d="M323 798q-94 0 -151 60t-44 153h91q-8 -55 26.5 -89.5t89.5 -34.5q54 0 98.5 34.5t52.5 89.5q8 54 -26.5 92t-88.5 39q-32 1 -59.5 -2t-57.5 -9t-72 -18l78 336h346l-12 -86h-264l-28 -136q134 17 213 -40.5t62 -175.5q-13 -93 -87 -153t-167 -60zM348 0l1004 1400h104
l-1004 -1400h-104zM1323 -31q-83 0 -135 54.5t-40 138.5q7 51 35.5 92.5t67.5 69.5q-25 25 -38 61.5t-7 77.5q11 79 73 129.5t139 50.5q79 0 128 -50.5t37 -129.5q-5 -41 -28 -77.5t-56 -61.5q32 -28 48.5 -69.5t10.5 -92.5q-13 -84 -81 -138.5t-154 -54.5zM1336 60
q48 0 86 28t44 74q6 47 -22.5 80t-76.5 33q-46 0 -84 -33t-44 -80q-7 -46 22 -74t75 -28zM1380 366q42 0 74.5 29t37.5 68q6 41 -19.5 65t-67.5 24q-39 0 -70.5 -24t-37.5 -65q-5 -39 19 -68t64 -29z" />
    <glyph glyph-name="seveneighths" unicode="&#x215e;" horiz-adv-x="1678" 
d="M157 818l384 539h-329l13 91h435l-13 -90l-384 -540h-106zM298 0l1004 1400h104l-1004 -1400h-104zM1273 -31q-83 0 -135 54.5t-40 138.5q7 51 35.5 92.5t67.5 69.5q-25 25 -38 61.5t-7 77.5q11 79 73 129.5t139 50.5q79 0 128 -50.5t37 -129.5q-5 -41 -28 -77.5
t-56 -61.5q32 -28 48.5 -69.5t10.5 -92.5q-13 -84 -81 -138.5t-154 -54.5zM1286 60q48 0 86 28t44 74q6 47 -22.5 80t-76.5 33q-46 0 -84 -33t-44 -80q-7 -46 22 -74t75 -28zM1330 366q42 0 74.5 29t37.5 68q6 41 -19.5 65t-67.5 24q-39 0 -70.5 -24t-37.5 -65
q-5 -39 19 -68t64 -29z" />
    <glyph glyph-name="arrowleft" unicode="&#x2190;" horiz-adv-x="1359" 
d="M502 267l-415 483l552 483l65 -76l-404 -353h993l-15 -108h-992l302 -353z" />
    <glyph glyph-name="arrowup" unicode="&#x2191;" horiz-adv-x="1128" 
d="M434 150l139 994l-402 -355l-67 78l552 483l416 -483l-87 -78l-304 355l-139 -994h-108z" />
    <glyph glyph-name="arrowright" unicode="&#x2192;" horiz-adv-x="1359" 
d="M734 267l-66 76l403 353h-992l16 108h991l-303 353l87 76l416 -483z" />
    <glyph glyph-name="arrowdown" unicode="&#x2193;" horiz-adv-x="1128" 
d="M486 151l-415 483l87 77l303 -354l139 992h108l-139 -992l404 354l66 -77z" />
    <glyph glyph-name="arrowboth" unicode="&#x2194;" horiz-adv-x="1635" 
d="M502 267l-415 483l552 483l65 -76l-404 -353h1061l-302 353l87 76l416 -483l-552 -483l-66 76l403 353h-1061l302 -353z" />
    <glyph glyph-name="arrowupdn" unicode="&#x2195;" horiz-adv-x="1128" 
d="M466 11l-415 485l87 78l303 -356l150 1064l-403 -354l-65 77l551 484l417 -484l-89 -77l-303 354l-150 -1064l403 356l67 -78z" />
    <glyph glyph-name="uni2196" unicode="&#x2196;" horiz-adv-x="1047" 
d="M836 308l-605 701l-70 -501h-108l96 684h684l-15 -108h-498l602 -701z" />
    <glyph glyph-name="uni2197" unicode="&#x2197;" horiz-adv-x="1045" 
d="M101 308l-65 76l799 700h-500l15 108h684l-96 -684h-108l71 500z" />
    <glyph glyph-name="uni2198" unicode="&#x2198;" horiz-adv-x="1045" 
d="M226 308l15 108h500l-602 700l86 76l603 -700l71 500h108l-97 -684h-684z" />
    <glyph glyph-name="uni2199" unicode="&#x2199;" horiz-adv-x="1045" 
d="M25 308l96 684h108l-70 -500l799 700l65 -76l-799 -700h500l-15 -108h-684z" />
    <glyph glyph-name="partialdiff" unicode="&#x2202;" horiz-adv-x="1165" 
d="M481 -26q-138 0 -243 68t-157 182t-32 252q15 104 66.5 195.5t130.5 160.5t175.5 108t200.5 39q110 0 195.5 -50t131.5 -135q-8 111 -43 216.5t-97 189.5t-151.5 133.5t-205.5 49.5l15 108q154 0 275.5 -76.5t201.5 -210.5t111 -309.5t4 -374.5q-22 -161 -103 -284
t-204 -192.5t-271 -69.5zM495 82q112 0 209 54.5t162.5 144.5t80.5 195q15 108 -25.5 197.5t-122.5 143.5t-193 54t-207.5 -54.5t-161.5 -144.5t-80 -196q-15 -107 25 -196.5t122 -143.5t191 -54z" />
    <glyph glyph-name="emptyset" unicode="&#x2205;" horiz-adv-x="1160" 
d="M212 -49l-76 48l59 81q-81 72 -121 182t-22 238q15 110 67.5 205.5t131.5 168t175.5 113.5t199.5 41q60 0 113 -13.5t97 -39.5l58 78l76 -48l-59 -82q81 -72 120 -181.5t21 -241.5q-15 -109 -67.5 -204t-131.5 -167.5t-175 -113.5t-200 -41q-58 0 -111 15t-99 39z
M262 174l510 712q-91 49 -191.5 38t-191.5 -69t-154.5 -151t-79.5 -208q-14 -99 16 -183t91 -139zM332 117q94 -49 195.5 -38t191.5 69t152 150.5t78 205.5q14 99 -15 184.5t-89 141.5z" />
    <glyph glyph-name="product" unicode="&#x220f;" horiz-adv-x="1280" 
d="M178 1400h1120l-15 -108h-1120zM374 1330h108l-186 -1330h-108zM974 1330h108l-186 -1330h-108z" />
    <glyph glyph-name="summation" unicode="&#x2211;" horiz-adv-x="965" 
d="M-18 0l15 108l384 590l-219 590l16 108h825l-16 -108h-703l219 -590l-384 -590h703l-15 -108h-825z" />
    <glyph glyph-name="minus" unicode="&#x2212;" horiz-adv-x="1160" 
d="M58 546l16 108h1000l-16 -108h-1000z" />
    <glyph glyph-name="radical" unicode="&#x221a;" horiz-adv-x="1268" 
d="M957 1400h329l-15 -108h-254l-653 -1292h-124l-159 708h115l127 -562z" />
    <glyph glyph-name="infinity" unicode="&#x221e;" horiz-adv-x="1457" 
d="M316 318q-85 10 -144.5 54t-86 111t-16.5 145q13 83 60 151.5t119 111.5t155 48q80 0 133 -24.5t97 -75t98 -128.5q72 76 130 126.5t115 76t124 25.5q99 -5 162 -48t89.5 -111t14.5 -152q-11 -81 -58 -149t-117.5 -111t-155.5 -50q-78 0 -129.5 22t-96 72t-102.5 133
q-77 -80 -136 -130.5t-118 -74t-137 -22.5zM333 420q64 0 109 21t93 67t119 120q-53 78 -88.5 123.5t-73.5 65.5t-100 19q-84 -8 -146.5 -68t-74.5 -140q-11 -85 37 -142t125 -66zM1046 420q83 9 145.5 68.5t73.5 139.5q12 84 -34.5 142.5t-141.5 66.5q-55 0 -97.5 -22
t-90.5 -68.5t-118 -118.5q44 -63 75 -104t57.5 -63.5t57 -31.5t73.5 -9z" />
    <glyph glyph-name="integral" unicode="&#x222b;" horiz-adv-x="818" 
d="M138 -26q-47 1 -81.5 25t-49 65t-3.5 90l84 -7q-6 -30 6.5 -51.5t43.5 -26.5q30 -2 54 16t32 48l264 1153q12 44 42.5 76t71 49t80.5 15q47 -2 80 -27.5t47.5 -65.5t4.5 -87l-78 7q4 35 -14 56t-46 21q-31 3 -55 -18t-29 -47l-263 -1149q-21 -72 -71.5 -106.5
t-119.5 -35.5z" />
    <glyph glyph-name="approxequal" unicode="&#x2248;" horiz-adv-x="1199" 
d="M799 734q-62 0 -130.5 35t-136.5 81.5t-130.5 81.5t-113.5 34q-48 1 -87.5 -25.5t-61.5 -70t-18 -92.5l-107 -10q-8 75 30 144.5t106 114.5t149 45q60 0 124 -35.5t129 -81.5t127.5 -81.5t118.5 -35.5q49 0 89.5 26.5t63 69t17.5 89.5l106 12q10 -78 -27.5 -146.5
t-103.5 -111.5t-144 -43zM799 186q-62 0 -130.5 35t-136.5 81.5t-130.5 81.5t-113.5 34q-48 1 -87.5 -25.5t-61.5 -70t-18 -92.5l-107 -10q-8 75 30 144.5t106 114.5t149 45q60 0 124 -35.5t129 -81.5t127.5 -81.5t118.5 -35.5q49 0 89.5 26.5t63 69t17.5 89.5l106 12
q10 -78 -27.5 -146.5t-103.5 -111.5t-144 -43z" />
    <glyph glyph-name="notequal" unicode="&#x2260;" horiz-adv-x="1160" 
d="M873 1182l-142 -330h370l-14 -108h-403l-125 -288h486l-14 -108h-518l-144 -330h-112l144 330h-370l14 108h401l126 288h-485l14 108h518l142 330h112z" />
    <glyph glyph-name="lessequal" unicode="&#x2264;" horiz-adv-x="1160" 
d="M1030 344l-961 284l26 175l1040 286l-16 -113l-951 -259l878 -261zM-18 0l15 108h1000l-15 -108h-1000z" />
    <glyph glyph-name="greaterequal" unicode="&#x2265;" horiz-adv-x="1160" 
d="M31 349l15 112l951 258l-878 257l16 113l960 -283l-25 -176zM-18 0l15 108h1000l-15 -108h-1000z" />
    <glyph glyph-name="lozenge" unicode="&#x25ca;" horiz-adv-x="797" 
d="M230 0l-170 702l364 698h145l168 -698l-366 -702h-141zM318 134l306 568l-146 568l-304 -568z" />
    <glyph glyph-name="uniFFFD" unicode="&#xfffd;" horiz-adv-x="1630" 
d="M714 -26q-54 0 -103 20t-86 62l-355 414q-36 42 -48.5 94t-5.5 106q8 54 36 106t74 92l472 414q48 42 102.5 62t108.5 20t102.5 -20t84.5 -62l356 -414q36 -42 49 -93t5 -105q-7 -54 -34.5 -106t-75.5 -94l-473 -414q-46 -40 -100.5 -61t-108.5 -21zM771 326
q19 0 33.5 13t16.5 31q3 18 -8 31t-30 13q-18 0 -33 -13t-17 -31t9 -31t29 -13zM751 518h88v2q9 57 65 86q54 28 90.5 78t44.5 110q9 58 -13 106t-66.5 76.5t-102.5 28.5q-59 0 -111 -28.5t-87.5 -76.5t-43.5 -106h88q7 52 49 87.5t93 35.5t82 -35.5t24 -87.5
q-5 -36 -26 -65.5t-52 -45.5q-49 -23 -81.5 -67.5t-40.5 -95.5v-2z" />
    </font>
</defs>
</svg>
