<?xml version="1.0" standalone="no"?>
<!DOCTYPE svg PUBLIC "-//W3C//DTD SVG 1.1//EN" "http://www.w3.org/Graphics/SVG/1.1/DTD/svg11.dtd" >
<svg xmlns="http://www.w3.org/2000/svg" xmlns:xlink="http://www.w3.org/1999/xlink" version="1.1">
<metadata>
Created by FontForge 20201107 at Wed Oct 27 17:11:08 2021
 By 
Copyright 2021 The Urbanist Project Authors (https://github.com/coreyhu/Urbanist)
</metadata>
<defs>
<font id="Urbanist-MediumItalic" horiz-adv-x="408" >
  <font-face 
    font-family="Urbanist Medium"
    font-weight="500"
    font-style="italic"
    font-stretch="normal"
    units-per-em="2000"
    panose-1="2 11 10 4 4 2 0 0 2 3"
    ascent="1600"
    descent="-400"
    x-height="1000"
    cap-height="1400"
    bbox="-351 -500 2737 2030"
    underline-thickness="50"
    underline-position="-125"
    unicode-range="U+000D-FFFD"
  />
<missing-glyph horiz-adv-x="1000" 
d="M100 -500v2400h800v-2400h-800zM200 -400h600v2200h-600v-2200z" />
    <glyph glyph-name=".notdef" horiz-adv-x="1000" 
d="M100 -500v2400h800v-2400h-800zM200 -400h600v2200h-600v-2200z" />
    <glyph glyph-name=".null" horiz-adv-x="1200" 
 />
    <glyph glyph-name=".null" horiz-adv-x="1200" 
 />
    <glyph glyph-name="nonmarkingreturn" unicode="&#xd;" horiz-adv-x="1200" 
 />
    <glyph glyph-name="nonmarkingreturn" unicode="&#xfeff;" horiz-adv-x="1200" 
 />
    <glyph glyph-name="space" unicode=" " horiz-adv-x="480" 
 />
    <glyph glyph-name="exclam" unicode="!" horiz-adv-x="383" 
d="M61 420l137 980h145l-137 -980h-145zM71 -26q-39 0 -62 27t-18 66q5 38 35.5 64.5t70.5 26.5q38 0 60.5 -26.5t16.5 -64.5q-5 -39 -35.5 -66t-67.5 -27z" />
    <glyph glyph-name="quotedbl" unicode="&#x22;" horiz-adv-x="538" 
d="M96 878l73 522h123l-73 -522h-123zM369 878l73 522h123l-73 -522h-123z" />
    <glyph glyph-name="numbersign" unicode="#" horiz-adv-x="1528" 
d="M1434 915h-191l-177 -429h194l-67 -162h-192l-133 -324h-168l133 324h-445l-132 -324h-168l132 324h-193l67 162h192l177 429h-195l67 162h193l131 323h168l-131 -323h445l130 323h168l-130 -323h192zM898 486l177 429h-444l-177 -429h444z" />
    <glyph glyph-name="dollar" unicode="$" horiz-adv-x="1188" 
d="M671 1253q-88 1 -170 -29t-137.5 -83t-65.5 -123q-11 -84 27.5 -128.5t112.5 -66.5t167 -39q133 -23 242 -72.5t168 -131.5t42 -202q-15 -112 -88.5 -198t-182 -138.5t-232.5 -63.5l-28 -202h-123l29 202q-101 8 -188 45t-146.5 99.5t-77.5 145.5l165 59q13 -56 61 -97.5
t119 -64.5t150 -23q89 0 171 29.5t137.5 82.5t65.5 124q10 73 -33.5 119.5t-117.5 74t-157 42.5q-141 24 -249.5 68.5t-164 124.5t-37.5 211q16 112 89 198.5t182.5 138.5t232.5 63l29 206h123l-29 -206q98 -9 184.5 -45.5t147 -98.5t79.5 -148l-167 -58q-12 57 -60.5 98.5
t-119.5 64t-150 22.5z" />
    <glyph glyph-name="percent" unicode="%" horiz-adv-x="1343" 
d="M72 0l1004 1400h194l-1004 -1400h-194zM355 837q-70 0 -123.5 34t-80.5 92t-16 129q11 73 54 130.5t106 91.5t132 34q70 0 123 -34.5t79.5 -92t16.5 -129.5t-53.5 -129.5t-106 -91.5t-131.5 -34zM373 960q55 0 99 38.5t51 93.5q8 56 -25 94.5t-88 38.5t-99.5 -38.5
t-52.5 -94.5q-7 -55 26.5 -93.5t88.5 -38.5zM916 51q-71 0 -124 35.5t-79 94t-17 126.5q10 72 53.5 130t107 92t131.5 34q73 0 125.5 -35.5t78 -93.5t16.5 -127q-10 -71 -52.5 -129t-105.5 -92.5t-134 -34.5zM933 174q55 0 100 39t52 94q8 55 -26 94t-89 39t-99 -39t-52 -94
q-7 -55 26 -94t88 -39z" />
    <glyph glyph-name="ampersand" unicode="&#x26;" horiz-adv-x="1421" 
d="M390 -26q-120 0 -204.5 58t-124 152.5t-25.5 202.5q9 65 28.5 113t59 94.5t105 106.5t166.5 149q-44 52 -72.5 88.5t-43 67.5t-18 63t2.5 74q12 82 61 148.5t120.5 105t149.5 38.5q81 0 142 -39t91.5 -105t18.5 -148q-6 -43 -19.5 -76t-37.5 -64t-62.5 -67.5t-94.5 -85.5
l295 -345l261 229l-32 -237l-128 -112l229 -266l-134 -119l-229 265q-103 -89 -171 -146t-119 -89t-100.5 -44t-114.5 -12zM414 142q46 0 79.5 10.5t71 37t91 74t137.5 122.5l-297 345q-86 -77 -141 -124.5t-85.5 -80.5t-44.5 -65t-20 -76q-10 -69 15.5 -124t76 -87
t117.5 -32zM527 947q67 59 102 89t49 52t19 57q8 62 -29 102t-93 40q-59 0 -106 -42t-54 -100q-5 -35 3.5 -58.5t35 -53.5t73.5 -86z" />
    <glyph glyph-name="quotesingle" unicode="'" horiz-adv-x="265" 
d="M96 878l73 522h123l-73 -522h-123z" />
    <glyph glyph-name="parenleft" unicode="(" horiz-adv-x="674" 
d="M292 -112q-88 97 -134.5 216t-56 255.5t10.5 284.5q11 78 35.5 166.5t61 177t82.5 168.5t100 143.5t113 100.5h168q-54 -44 -105.5 -107.5t-97 -141t-83.5 -163.5t-65 -173.5t-41 -170.5q-19 -157 -1 -296t65.5 -255t115.5 -205h-168z" />
    <glyph glyph-name="parenright" unicode=")" horiz-adv-x="674" 
d="M-14 -112q94 89 173.5 205t136.5 255t82 296q10 83 7.5 170.5t-16.5 173.5t-37.5 163.5t-57.5 141t-76 107.5h168q49 -37 85 -100.5t59.5 -143.5t35.5 -168.5t11.5 -177t-11.5 -166.5q-20 -148 -69 -284.5t-128.5 -255.5t-194.5 -216h-168z" />
    <glyph glyph-name="asterisk" unicode="*" horiz-adv-x="710" 
d="M242 848l-89 73l140 162l-180 61l52 117l184 -61l27 200h124l-29 -200l199 61l22 -117l-200 -61l96 -162l-111 -73l-93 163z" />
    <glyph glyph-name="plus" unicode="+" horiz-adv-x="1160" 
d="M412 100l58 416h-416l24 168h416l58 416h168l-58 -416h416l-24 -168h-416l-58 -416h-168z" />
    <glyph glyph-name="comma" unicode="," horiz-adv-x="430" 
d="M-34 -112l109 338h168l-165 -338h-112z" />
    <glyph glyph-name="hyphen" unicode="-" horiz-adv-x="880" 
d="M118 684h640l-24 -168h-640z" />
    <glyph glyph-name="period" unicode="." horiz-adv-x="384" 
d="M69 -26q-38 0 -60.5 27t-17.5 66q5 37 35.5 64t69.5 27t62 -27t17 -64q-5 -39 -36 -66t-70 -27z" />
    <glyph glyph-name="slash" unicode="/" horiz-adv-x="733" 
d="M751 1400l-617 -1512h-168l617 1512h168z" />
    <glyph glyph-name="zero" unicode="0" horiz-adv-x="1196" 
d="M497 -26q-125 0 -216.5 56.5t-148 156.5t-75 231.5t2.5 281.5t76.5 282t140.5 231.5t192 156t232 56.5q124 0 215.5 -56.5t147 -156t74.5 -231.5t-2 -282t-77 -281.5t-139.5 -231.5t-191 -156.5t-231.5 -56.5zM520 142q126 0 221 77.5t155 204.5t81 276q23 157 -3 283.5
t-100.5 200.5t-196.5 74q-96 0 -173.5 -45t-136 -123t-95.5 -178.5t-53 -211.5q-21 -149 4 -276.5t98.5 -204.5t198.5 -77z" />
    <glyph glyph-name="one" unicode="1" horiz-adv-x="565" 
d="M139 0l173 1232h-157l70 168h278l-196 -1400h-168z" />
    <glyph glyph-name="two" unicode="2" horiz-adv-x="1104" 
d="M-18 0l20 149q88 69 196 154.5t216.5 179t201.5 185.5t153.5 174.5t69.5 144.5q10 74 -17.5 135.5t-83 98.5t-129.5 37t-140.5 -37t-111.5 -98.5t-56 -135.5h-168q18 123 91.5 222.5t181 158t227.5 58.5t210.5 -59t135.5 -158.5t28 -221.5q-10 -70 -55.5 -150.5
t-116 -165.5t-158.5 -171.5t-182 -170.5t-187 -161h601l-23 -168h-904z" />
    <glyph glyph-name="three" unicode="3" horiz-adv-x="994" 
d="M394 -26q-127 0 -217.5 57.5t-132.5 154t-26 214.5h168q-10 -71 15 -129.5t80 -93.5t137 -35q71 0 137 35t112.5 93.5t56.5 129.5q12 89 -25.5 148.5t-113 89t-179.5 29.5l19 135q142 0 236.5 59t109.5 174q9 61 -17 112t-75 81.5t-110 30.5q-63 0 -124 -30.5t-104 -81.5
t-52 -112h-168q11 81 55 152t109.5 125t144 84.5t160.5 30.5q107 0 192 -53t129 -142t28 -197q-14 -97 -74 -179t-150 -115q70 -25 112.5 -77.5t58.5 -120.5t6 -143q-17 -117 -91 -214t-181.5 -154.5t-225.5 -57.5z" />
    <glyph glyph-name="four" unicode="4" horiz-adv-x="1109" 
d="M584 0l53 378h-602l24 170l679 852h210l-120 -854h140l-24 -168h-139l-53 -378h-168zM256 548l404 -2l85 618z" />
    <glyph glyph-name="five" unicode="5" horiz-adv-x="1118" 
d="M433 -26q-130 0 -226.5 63t-143.5 168.5t-30 232.5h168q-11 -81 19 -148.5t92 -107.5t144 -40q81 0 154 40t122.5 107.5t60.5 148.5q12 81 -16.5 149t-94.5 108.5t-168 40.5h-346l229 664h664l-23 -168h-528l-112 -328l146 -1q143 -3 242.5 -63.5t146.5 -164t28 -237.5
q-13 -95 -61 -179.5t-121 -148.5t-161.5 -100t-184.5 -36z" />
    <glyph glyph-name="six" unicode="6" horiz-adv-x="1083" 
d="M433 -26q-133 0 -234 66t-151.5 176.5t-31.5 244.5q11 75 36.5 131t69.5 121l492 687h195l-352 -491q90 27 174 19t154.5 -46t121 -100t73.5 -143.5t9 -177.5q-14 -101 -64.5 -189t-127 -155t-170.5 -105t-194 -38zM456 142q92 0 171 45t130.5 118t63.5 156
q12 87 -20 159t-98.5 115.5t-154.5 43.5q-92 0 -170 -45t-130 -117t-64 -156q-12 -91 21.5 -163t100 -114t150.5 -42z" />
    <glyph glyph-name="seven" unicode="7" horiz-adv-x="1077" 
d="M35 0l882 1232h-802l23 168h997l-23 -168l-885 -1232h-192z" />
    <glyph glyph-name="eight" unicode="8" horiz-adv-x="1063" 
d="M429 -26q-125 0 -219.5 57t-141.5 152.5t-31 211.5q15 108 85 198.5t169 143.5q-69 48 -106 127.5t-24 172.5q15 108 83.5 196t171 140.5t217.5 52.5t202 -52.5t131 -140.5t29 -196q-13 -93 -72.5 -172.5t-142.5 -127.5q87 -53 131 -143.5t29 -198.5q-16 -115 -90.5 -211
t-185 -153t-235.5 -57zM452 142q76 0 143 34t112 91.5t55 127.5q10 71 -19 128t-86 91t-133 34q-75 0 -142 -34t-112 -91t-55 -128q-10 -70 19 -127.5t86 -91.5t132 -34zM547 816q66 0 124.5 30t98 80t47.5 111q9 62 -16 111.5t-75 79.5t-116 30q-67 0 -125 -30t-97.5 -79.5
t-48.5 -111.5q-8 -61 17 -111t75 -80t116 -30z" />
    <glyph glyph-name="nine" unicode="9" horiz-adv-x="1065" 
d="M237 0l371 516q-108 -31 -207.5 -10.5t-174 82t-110.5 155.5t-20 209q13 98 62 184t123 151t165 102t189 37q130 0 228 -64t147 -171.5t31 -238.5q-10 -71 -35.5 -125.5t-68.5 -118.5l-506 -708h-194zM524 647q88 0 163.5 42.5t125.5 112.5t61 150q12 87 -21 156.5
t-96.5 110t-144.5 40.5q-89 0 -164.5 -43t-125 -113.5t-61.5 -150.5q-11 -84 20 -153.5t94.5 -110.5t148.5 -41z" />
    <glyph glyph-name="colon" unicode=":" horiz-adv-x="384" 
d="M188 816q-38 0 -61 27t-18 66q6 37 36 64t68 27q39 0 62.5 -27t18.5 -64q-6 -39 -36.5 -66t-69.5 -27zM69 -26q-38 0 -60.5 27t-17.5 66q5 37 35.5 64t69.5 27t62 -27t17 -64q-5 -39 -36 -66t-70 -27z" />
    <glyph glyph-name="semicolon" unicode=";" horiz-adv-x="437" 
d="M-34 -112l109 338h168l-165 -338h-112zM242 816q-39 0 -62.5 26.5t-18.5 64.5q6 39 36.5 66t69.5 27q37 0 61 -27t18 -66q-6 -38 -36.5 -64.5t-67.5 -26.5z" />
    <glyph glyph-name="less" unicode="&#x3c;" horiz-adv-x="1160" 
d="M1007 176l-960 284l38 278l1040 286l-24 -176l-909 -248l839 -250z" />
    <glyph glyph-name="equal" unicode="=" horiz-adv-x="1160" 
d="M26 311l23 167h1000l-23 -167h-1000zM83 722l23 167h1000l-23 -167h-1000z" />
    <glyph glyph-name="greater" unicode="&#x3e;" horiz-adv-x="1160" 
d="M7 182l25 174l908 244l-840 243l25 175l960 -280l-38 -278z" />
    <glyph glyph-name="question" unicode="?" horiz-adv-x="1031" 
d="M392 467q15 103 78.5 189t161.5 136q62 30 103.5 89.5t50.5 130.5q11 69 -15 125t-78 89t-120 33t-128.5 -33t-101.5 -89t-51 -125h-168q17 115 85.5 209t171 150t216.5 56q115 0 201.5 -56t129.5 -150t26 -209q-16 -117 -86.5 -216t-177.5 -153q-53 -26 -87.5 -72.5
t-42.5 -103.5h-168zM407 -26q-39 0 -62 27.5t-18 65.5q6 38 36.5 64.5t68.5 26.5q39 0 62 -26.5t17 -64.5q-5 -38 -35.5 -65.5t-68.5 -27.5z" />
    <glyph glyph-name="at" unicode="@" horiz-adv-x="1759" 
d="M752 -203q-165 0 -302 55t-233 156.5t-138.5 239.5t-19.5 303t105.5 310t208 255t279 172t319.5 62q167 0 303 -62.5t230.5 -172.5t135.5 -254.5t18 -309.5q-13 -86 -45.5 -170.5t-83 -153.5t-115.5 -110.5t-142 -41.5q-58 0 -112 26.5t-87.5 72.5t-31.5 102
q-49 -56 -117 -89.5t-150 -33.5q-109 0 -192 53.5t-123.5 144t-25.5 200.5q16 110 82 200t164 143.5t207 53.5q79 0 144 -32t96 -85l14 97l128 -23l-78 -558q-7 -45 23 -74.5t74 -29.5q56 0 97.5 49.5t69 121t36.5 137.5q18 131 -15 245.5t-108 201t-182.5 135.5t-237.5 49
t-251.5 -49t-220 -135.5t-164 -201t-84.5 -245.5q-18 -131 16 -238.5t109.5 -185.5t184 -120.5t239.5 -42.5zM805 284q73 0 133.5 40t99 103.5t47.5 133.5q10 67 -10 125.5t-69.5 94t-126.5 35.5q-74 0 -139.5 -35.5t-109.5 -95.5t-54 -134q-11 -75 17 -135t84 -96t128 -36z
" />
    <glyph glyph-name="A" unicode="A" horiz-adv-x="1381" 
d="M687 1400h203l313 -1400h-178l-65 286h-655l-144 -286h-179zM390 454h532l-164 731z" />
    <glyph glyph-name="B" unicode="B" horiz-adv-x="1131" 
d="M22 0l196 1400h483q104 0 183.5 -42.5t119 -123.5t22.5 -194q-8 -61 -36.5 -117.5t-70 -97t-88.5 -54.5q61 -16 99.5 -56.5t58 -94.5t23 -113t-3.5 -114q-16 -116 -81 -204.5t-160 -138.5t-201 -50h-544zM210 148h361q69 0 131 35.5t104.5 97.5t52.5 140
q11 69 -14.5 130.5t-77 99.5t-120.5 38h-361zM307 834h298q92 0 166 54.5t87 152.5q15 106 -43.5 158.5t-150.5 52.5h-298z" />
    <glyph glyph-name="C" unicode="C" horiz-adv-x="1418" 
d="M666 -26q-142 0 -259 56.5t-197.5 156t-115.5 231.5t-14 282t93 282t180.5 231.5t241.5 156t275 56.5q170 0 301.5 -79t207.5 -210l-160 -80q-57 92 -155.5 146.5t-216.5 54.5q-109 0 -209.5 -44t-182.5 -121t-136.5 -178t-70.5 -215q-16 -115 10 -216t86.5 -178
t149 -120.5t195.5 -43.5q123 0 235.5 55.5t194.5 145.5l137 -81q-112 -131 -266 -209.5t-324 -78.5z" />
    <glyph glyph-name="D" unicode="D" horiz-adv-x="1343" 
d="M22 0l196 1400h463q145 0 264.5 -54.5t202 -151t119 -223t16.5 -271.5t-92 -271.5t-182 -223t-244.5 -151t-279.5 -54.5h-463zM213 168h295q110 0 212 41.5t186 114.5t139 169.5t70 206.5t-13 206.5t-90.5 169.5t-153.5 114.5t-201 41.5h-294z" />
    <glyph glyph-name="E" unicode="E" horiz-adv-x="1079" 
d="M22 0l196 1400h859l-23 -168h-691l-56 -398h566l-23 -168h-567l-70 -498h691l-23 -168h-859z" />
    <glyph glyph-name="F" unicode="F" horiz-adv-x="961" 
d="M22 0l196 1400h821l-24 -168h-652l-56 -398h556l-23 -168h-557l-93 -666h-168z" />
    <glyph glyph-name="G" unicode="G" horiz-adv-x="1536" 
d="M667 -26q-145 0 -262.5 56.5t-197 157t-114 232t-13.5 281.5q21 155 95 287t184.5 230t243 152.5t271.5 54.5q158 0 290.5 -74t216.5 -214l-162 -81q-64 98 -161.5 150t-208.5 52q-106 0 -207 -43t-184 -120t-138.5 -178t-71.5 -219q-16 -115 10.5 -216t87 -177.5
t149.5 -119.5t197 -43q86 0 168 29t154 82t129 125t93 158h-344l21 150h542q-23 -147 -95.5 -276t-180.5 -227t-239.5 -153.5t-272.5 -55.5z" />
    <glyph glyph-name="H" unicode="H" horiz-adv-x="1269" 
d="M1079 1400h168l-196 -1400h-168l93 666h-693l-93 -666h-168l196 1400h168l-79 -566h692z" />
    <glyph glyph-name="I" unicode="I" horiz-adv-x="468" 
d="M52 0l196 1400h168l-196 -1400h-168z" />
    <glyph glyph-name="J" unicode="J" horiz-adv-x="826" 
d="M197 -26q-70 0 -134 23.5t-112 70.5l126 130q25 -25 61.5 -40.5t81.5 -15.5q66 0 125.5 35t99.5 92t50 122l141 1009h168l-142 -1009q-15 -112 -83.5 -206.5t-168.5 -152.5t-213 -58z" />
    <glyph glyph-name="K" unicode="K" horiz-adv-x="1095" 
d="M954 0h-217l-357 607l-123 -126l-67 -481h-168l196 1400h168l-93 -658l644 658h219l-647 -661z" />
    <glyph glyph-name="L" unicode="L" horiz-adv-x="1015" 
d="M22 0l196 1400h168l-173 -1232h628l-24 -168h-795z" />
    <glyph glyph-name="M" unicode="M" horiz-adv-x="1796" 
d="M22 0l467 1400h129l239 -994l516 994h129l76 -1400h-171l-54 1016l-488 -940h-110l-224 940l-338 -1016h-171z" />
    <glyph glyph-name="N" unicode="N" horiz-adv-x="1289" 
d="M22 0l196 1400h182l546 -1096l153 1096h168l-196 -1400h-181l-546 1096l-154 -1096h-168z" />
    <glyph glyph-name="O" unicode="O" horiz-adv-x="1540" 
d="M668 -26q-142 0 -259.5 56.5t-198 156.5t-116 231.5t-14.5 281.5t93 281.5t181.5 231.5t242.5 156.5t275 56.5q143 0 260 -56.5t197.5 -156.5t116 -231.5t14.5 -281.5t-93 -281.5t-181.5 -231.5t-242 -156.5t-275.5 -56.5zM691 142q109 0 209.5 44t183 121.5t137.5 178
t71 214.5t-10.5 215.5t-87 178t-149 120.5t-196.5 44q-109 0 -209.5 -44t-183 -121.5t-137.5 -178t-71 -214.5q-16 -115 10.5 -216t87 -178t149 -120.5t196.5 -43.5z" />
    <glyph glyph-name="P" unicode="P" horiz-adv-x="1063" 
d="M22 0l196 1400h462q113 0 196 -55t123.5 -148.5t23.5 -208.5q-16 -117 -84 -210.5t-167 -148t-208 -54.5h-294l-80 -575h-168zM294 743h278q68 0 129.5 33.5t103.5 91t51 129.5q11 73 -14.5 130.5t-77.5 91t-120 33.5h-278z" />
    <glyph glyph-name="Q" unicode="Q" horiz-adv-x="1558" 
d="M1255 -29l-141 164q-97 -74 -211 -115.5t-235 -41.5q-143 0 -260 56.5t-198 156t-116 231.5t-14 282t93 281.5t181 231.5t242 156.5t276 56.5t259.5 -56.5t197.5 -156.5t116 -231.5t14 -281.5q-18 -128 -73.5 -242t-138.5 -207l144 -165zM692 146q81 0 164.5 28.5
t152.5 82.5l-159 185l136 120l154 -182q61 69 100.5 152.5t50.5 171.5q16 115 -10.5 216t-87 178t-149 120.5t-195.5 43.5q-109 0 -209.5 -44.5t-183 -122t-137.5 -178t-71 -213.5q-16 -115 10.5 -216t87.5 -178.5t150 -120.5t196 -43z" />
    <glyph glyph-name="R" unicode="R" horiz-adv-x="1141" 
d="M22 0l196 1400h492q112 0 195 -55t123 -148.5t24 -208.5q-13 -101 -65 -184t-129.5 -138.5t-169.5 -76.5l259 -589h-194l-253 575h-230l-80 -575h-168zM294 743h307q68 0 129.5 33.5t103.5 91t52 129.5q11 73 -15 130.5t-78 91t-120 33.5h-307z" />
    <glyph glyph-name="S" unicode="S" horiz-adv-x="1228" 
d="M511 -26q-113 0 -213 35.5t-169 101.5t-89 157l165 59q13 -56 61 -97.5t119 -64.5t150 -23q89 0 171 29.5t137.5 82.5t65.5 124q10 73 -33.5 119.5t-117.5 74t-157 42.5q-141 24 -249.5 68.5t-164 124.5t-37.5 211q17 122 101 213t207 141t257 50q111 0 210.5 -34.5
t170 -100.5t92.5 -161l-167 -58q-12 57 -60.5 98.5t-119.5 64t-150 22.5q-88 1 -170 -29t-137.5 -83t-65.5 -123q-11 -84 27.5 -128.5t112.5 -66.5t167 -39q133 -23 242 -72.5t168 -131.5t42 -202q-17 -122 -100.5 -213t-206.5 -141t-259 -50z" />
    <glyph glyph-name="T" unicode="T" horiz-adv-x="1259" 
d="M1277 1400l-24 -168h-466l-172 -1232h-168l172 1232h-464l23 168h1099z" />
    <glyph glyph-name="U" unicode="U" horiz-adv-x="1335" 
d="M566 -26q-168 0 -279.5 82t-159 220.5t-23.5 307.5l114 816h168l-114 -816q-17 -120 13 -221t106 -161t199 -60t216 60.5t150.5 161t74.5 220.5l114 816h168l-114 -816q-18 -127 -71.5 -237.5t-137 -194.5t-191 -131t-233.5 -47z" />
    <glyph glyph-name="V" unicode="V" horiz-adv-x="1337" 
d="M466 0l-312 1400h178l267 -1195l602 1195h177l-704 -1400h-208z" />
    <glyph glyph-name="W" unicode="W" horiz-adv-x="1736" 
d="M316 0l-162 1400h173l128 -1105l435 1105h151l128 -1105l435 1105h173l-552 -1400h-196l-117 1014l-401 -1014h-195z" />
    <glyph glyph-name="X" unicode="X" horiz-adv-x="1353" 
d="M-38 0l612 704l-410 696h207l326 -554l481 554h207l-603 -696l413 -704h-208l-330 560l-486 -560h-209z" />
    <glyph glyph-name="Y" unicode="Y" horiz-adv-x="1236" 
d="M1076 1400h198l-582 -767l-88 -633h-168l88 633l-366 767h198l278 -583z" />
    <glyph glyph-name="Z" unicode="Z" horiz-adv-x="1292" 
d="M-18 0l23 168l1056 1064h-906l23 168h1132l-23 -168l-1056 -1064h906l-23 -168h-1132z" />
    <glyph glyph-name="bracketleft" unicode="[" horiz-adv-x="566" 
d="M375 56l-23 -168h-346l212 1512h346l-23 -168h-178l-166 -1176h178z" />
    <glyph glyph-name="backslash" unicode="\" horiz-adv-x="733" 
d="M371 -112l-193 1512h168l193 -1512h-168z" />
    <glyph glyph-name="bracketright" unicode="]" horiz-adv-x="567" 
d="M-14 -112l23 168h180l165 1176h-179l23 168h347l-212 -1512h-347z" />
    <glyph glyph-name="asciicircum" unicode="^" horiz-adv-x="832" 
d="M122 1000l328 650h200l144 -650h-179l-96 433l-219 -433h-178z" />
    <glyph glyph-name="underscore" unicode="_" horiz-adv-x="1240" 
d="M29 56h1000l-23 -168h-1000z" />
    <glyph glyph-name="grave" unicode="`" horiz-adv-x="828" 
d="M352 1398h168l40 -288h-112z" />
    <glyph glyph-name="a" unicode="a" horiz-adv-x="1171" 
d="M966 1000h168l-140 -1000h-168l17 169q-59 -87 -149.5 -141t-204.5 -54q-110 0 -200.5 41.5t-153.5 115t-90.5 169.5t-11.5 207q15 107 68.5 202t135 166.5t181 112t207.5 40.5q118 0 199.5 -55.5t124.5 -143.5zM508 137q99 0 178.5 48.5t131 131.5t65.5 183
q14 102 -14.5 184.5t-94 131t-163.5 48.5q-99 0 -187 -49t-147 -131.5t-73 -183.5t23 -183.5t111.5 -131t169.5 -48.5z" />
    <glyph glyph-name="b" unicode="b" horiz-adv-x="1214" 
d="M673 1028q146 0 255.5 -71t164 -190.5t33.5 -265.5q-15 -109 -69.5 -204.5t-137 -168t-184 -113.5t-210.5 -41q-116 0 -194 54.5t-116 142.5l-24 -171h-168l210 1500h168l-94 -669q63 88 156.5 142.5t209.5 54.5zM546 138q99 0 187 49t147.5 131.5t73.5 182.5
q15 102 -22.5 184.5t-112 131t-170.5 48.5q-99 0 -178.5 -49t-130.5 -132t-65 -183q-14 -101 14.5 -183.5t94 -131t162.5 -48.5z" />
    <glyph glyph-name="c" unicode="c" horiz-adv-x="1019" 
d="M748 264l138 -81q-82 -95 -194 -152t-234 -57q-138 0 -241.5 71t-154 190.5t-30.5 264.5q15 110 67.5 205.5t131.5 168t175.5 113.5t199.5 41q122 0 218.5 -57t151.5 -153l-162 -81q-40 59 -101 91t-130 32q-94 0 -176 -49.5t-137.5 -131.5t-69.5 -179t19 -178.5
t101.5 -130.5t160.5 -49q75 0 145 34t122 88z" />
    <glyph glyph-name="d" unicode="d" horiz-adv-x="1213" 
d="M1037 1500h168l-210 -1500h-168l24 170q-63 -88 -157 -142t-210 -54q-109 0 -198.5 41t-151.5 113.5t-89.5 167.5t-12.5 204t69.5 204.5t137 168t183.5 113.5t210 41q116 0 194.5 -54t116.5 -142zM508 137q99 0 178.5 48.5t131 131.5t65.5 183q14 102 -14.5 184.5
t-94 131t-163.5 48.5q-99 0 -186.5 -49t-147 -131.5t-73.5 -183.5t23 -183.5t111.5 -131t169.5 -48.5z" />
    <glyph glyph-name="e" unicode="e" horiz-adv-x="1117" 
d="M458 -26q-138 0 -241.5 71t-154 190.5t-30.5 264.5q15 110 67.5 205.5t131.5 168t175.5 113.5t199.5 41q113 0 201 -45.5t144 -126.5t75 -188t-8 -229h-815q-1 -85 34 -151.5t97.5 -105.5t146.5 -40q90 0 170 46.5t136 127.5l165 -40q-79 -133 -211.5 -217.5
t-282.5 -84.5zM216 571h651q4 84 -32 153.5t-100.5 111.5t-148.5 42q-85 0 -160.5 -41t-131 -110.5t-78.5 -155.5z" />
    <glyph glyph-name="f" unicode="f" horiz-adv-x="684" 
d="M424 1247l-35 -247h293l-23 -168h-293l-117 -832h-168l117 832h-129l23 168h129l35 247q11 77 57.5 139.5t115 100t144.5 37.5q56 0 105.5 -22.5t84.5 -66.5l-137 -119q-11 19 -32 29.5t-44 10.5q-46 0 -82.5 -32t-43.5 -77z" />
    <glyph glyph-name="g" unicode="g" horiz-adv-x="1189" 
d="M943 1000h168l-145 -1032q-13 -99 -67.5 -184.5t-136 -149t-178.5 -99t-197 -35.5q-104 0 -194.5 46.5t-151.5 124t-80 173.5l164 70q9 -69 50.5 -124.5t103.5 -88t132 -32.5q66 0 131 23t120 63.5t91.5 95t44.5 117.5l28 199q-62 -86 -153.5 -139.5t-202.5 -53.5
q-106 0 -193 41t-147 113.5t-86.5 167.5t-11.5 204t68.5 204.5t134 168t179 113.5t204.5 41q111 0 187 -53t115 -140zM494 137q96 0 174.5 50t130 133t64.5 180q14 100 -14 182.5t-92.5 132t-159.5 49.5q-96 0 -180.5 -49t-141.5 -131.5t-71 -183.5t20.5 -183.5t105.5 -131
t164 -48.5z" />
    <glyph glyph-name="h" unicode="h" horiz-adv-x="1085" 
d="M993 622l-86 -622h-168l81 585q11 76 -17 138t-85 98.5t-133 36.5t-143 -36.5t-112.5 -98.5t-56.5 -138l-82 -585h-168l210 1500h168l-87 -625q63 70 149.5 111.5t181.5 41.5q112 0 196.5 -54.5t126 -146.5t25.5 -205z" />
    <glyph glyph-name="i" unicode="i" 
d="M162 1000h168l-140 -1000h-168zM271 1163q-40 0 -63.5 26t-17.5 65t36.5 65t69.5 26q38 0 61.5 -26t18.5 -65q-6 -39 -36 -65t-69 -26z" />
    <glyph glyph-name="j" unicode="j" horiz-adv-x="453" 
d="M-249 -500l24 168q70 0 130 31t100 85.5t49 121.5l153 1094h168l-153 -1094q-15 -112 -83 -204t-169 -147t-219 -55zM316 1163q-40 0 -63.5 26t-17.5 65t36.5 65t69.5 26q38 0 61.5 -26t18.5 -65q-6 -39 -36 -65t-69 -26z" />
    <glyph glyph-name="k" unicode="k" horiz-adv-x="1007" 
d="M834 0h-193l-202 459l-215 -220l-33 -239h-168l210 1500h168l-141 -1000l490 500h219l-396 -405z" />
    <glyph glyph-name="l" unicode="l" 
d="M23 0l210 1500h168l-210 -1500h-168z" />
    <glyph glyph-name="m" unicode="m" horiz-adv-x="1776" 
d="M22 0l140 1000h168l-17 -125q63 70 149 111.5t181 41.5q111 0 195.5 -54t124.5 -143q66 89 165 143t209 54q113 0 197 -54.5t126 -146.5t26 -205l-87 -622h-168l82 582q10 74 -17.5 137t-83 101t-129.5 38t-140 -35.5t-110.5 -98t-56.5 -142.5l-81 -582h-168l81 582
q12 80 -16 142.5t-84 98t-130 35.5q-73 0 -139.5 -38t-111.5 -101t-55 -137l-82 -582h-168z" />
    <glyph glyph-name="n" unicode="n" horiz-adv-x="1084" 
d="M992 622l-86 -622h-168l81 585q11 76 -17 138t-85 98.5t-133 36.5t-143 -36.5t-112.5 -98.5t-56.5 -138l-82 -585h-168l140 1000h168l-17 -125q63 70 149.5 111.5t181.5 41.5q112 0 196.5 -54.5t126 -146.5t25.5 -205z" />
    <glyph glyph-name="o" unicode="o" horiz-adv-x="1120" 
d="M458 -26q-138 0 -241.5 71t-154 190.5t-30.5 264.5q15 110 67.5 205.5t131.5 168t175.5 113.5t199.5 41q138 0 241.5 -71t154.5 -191t30 -266q-15 -109 -67.5 -204t-131.5 -167.5t-175 -113.5t-200 -41zM481 142q94 0 176 49.5t138 131t69 177.5q14 98 -19 180t-101 131
t-161 49q-94 0 -176 -49.5t-137.5 -131.5t-69.5 -179q-14 -100 19.5 -181.5t102.5 -129t159 -47.5z" />
    <glyph glyph-name="p" unicode="p" horiz-adv-x="1212" 
d="M119 -500h-168l211 1500h168l-24 -171q63 88 156 142.5t210 54.5q109 0 198.5 -41t152 -113.5t89.5 -167.5t12 -204t-69.5 -205t-137 -168.5t-183.5 -113.5t-210 -41q-117 0 -194.5 54.5t-115.5 142.5zM647 863q-98 0 -177 -49t-130.5 -131t-65.5 -183
q-14 -100 13.5 -183t93 -132t163.5 -49q97 0 185 48.5t149 131t75 184.5q14 100 -22.5 182.5t-110.5 131.5t-173 49z" />
    <glyph glyph-name="q" unicode="q" horiz-adv-x="1212" 
d="M484 -28q-145 0 -254.5 71t-163.5 191t-34 266q15 109 69.5 204t137 167.5t183.5 113.5t210 41q116 0 194 -54.5t116 -142.5l24 171h168l-211 -1500h-168l95 669q-64 -88 -157 -142.5t-209 -54.5zM611 863q-99 0 -187 -49t-147 -131.5t-73 -182.5q-14 -102 22.5 -184.5
t111 -131t170.5 -48.5q99 0 178 49t130.5 132t65.5 183q14 101 -14.5 183t-94 131t-162.5 49z" />
    <glyph glyph-name="r" unicode="r" horiz-adv-x="730" 
d="M22 0l140 1000h168l-17 -125q63 70 149.5 111.5t181.5 41.5q58 0 110 -15l-92 -168q-38 13 -78 13q-76 0 -143 -36.5t-112.5 -98.5t-56.5 -138l-82 -585h-168z" />
    <glyph glyph-name="s" unicode="s" horiz-adv-x="862" 
d="M324 -19q-80 3 -153 30.5t-124 75t-68 109.5l153 62q10 -34 44.5 -64t83 -48t100.5 -18q55 0 106 17t86 50.5t41 80.5q8 50 -22 78.5t-78 45t-98 31.5q-99 26 -175 62.5t-114.5 93t-26.5 144.5q13 93 74.5 161t150.5 105t185 37q121 0 213.5 -52t129.5 -141l-146 -79
q-12 36 -43 63.5t-73.5 43.5t-89.5 17q-59 2 -111.5 -15t-87.5 -51.5t-43 -85.5q-7 -50 21.5 -76t79 -41.5t109.5 -35.5q87 -29 160.5 -67t114.5 -95t28 -141q-14 -92 -78 -160.5t-157 -104.5t-192 -32z" />
    <glyph glyph-name="t" unicode="t" horiz-adv-x="697" 
d="M657 832h-227l-118 -832h-168l118 832h-172l23 168h172l43 314h168l-43 -314h227z" />
    <glyph glyph-name="u" unicode="u" horiz-adv-x="1044" 
d="M35 380l87 620h168l-82 -583q-10 -76 18 -138t85 -98.5t132 -36.5q76 0 143.5 36.5t113 98.5t55.5 138l82 583h168l-139 -1000h-168l16 127q-63 -70 -149.5 -111.5t-180.5 -41.5q-112 0 -196.5 54.5t-126 146.5t-26.5 205z" />
    <glyph glyph-name="v" unicode="v" horiz-adv-x="1065" 
d="M542 0h-215l-224 1002h179l180 -807l405 807h180z" />
    <glyph glyph-name="w" unicode="w" horiz-adv-x="1647" 
d="M467 0h-170l-195 1000h164l151 -763l362 763h173l149 -763l362 763h166l-475 -1000h-171l-150 770z" />
    <glyph glyph-name="x" unicode="x" horiz-adv-x="1099" 
d="M-18 0l436 502l-294 500h208l209 -356l311 356h208l-435 -500l296 -502h-207l-212 360l-313 -360h-207z" />
    <glyph glyph-name="y" unicode="y" horiz-adv-x="1063" 
d="M847 1000h178l-758 -1500h-178l252 500l-219 1000h184l151 -769z" />
    <glyph glyph-name="z" unicode="z" horiz-adv-x="1014" 
d="M953 832l-709 -664h615l-23 -168h-854l23 168l709 664h-615l23 168h854z" />
    <glyph glyph-name="braceleft" unicode="{" horiz-adv-x="808" 
d="M511 -113q-97 0 -170 47.5t-108.5 127t-22.5 175.5l34 245q3 31 -18 49t-49 31.5t-48.5 31.5t-16.5 49q5 32 30.5 50.5t57.5 32t58 31t32 47.5l34 246q14 96 72 175.5t144 127t183 47.5h83l-23 -168h-83q-50 0 -95 -24.5t-75.5 -66t-37.5 -91.5l-36 -252
q-6 -37 -25 -60.5t-46.5 -44t-63.5 -50.5q28 -32 50 -52.5t34 -42t9 -60.5l-36 -251q-7 -50 11.5 -91.5t56.5 -66t88 -24.5h84l-24 -168h-83z" />
    <glyph glyph-name="bar" unicode="|" horiz-adv-x="448" 
d="M238 1400h168l-239 -1702h-168z" />
    <glyph glyph-name="braceright" unicode="}" horiz-adv-x="808" 
d="M-14 -113l23 168h83q50 0 95 24.5t75.5 66t37.5 91.5l35 251q8 39 26 60.5t46 42t64 52.5q-26 30 -48.5 50.5t-34.5 44t-9 60.5l35 252q8 50 -11 91.5t-57 66t-88 24.5h-83l23 168h83q97 0 170 -47.5t109 -127t22 -175.5l-34 -246q-3 -30 18.5 -47.5t49.5 -31t48.5 -32
t15.5 -50.5q-4 -31 -30 -49t-58 -31.5t-58 -31.5t-32 -49l-34 -245q-13 -96 -71.5 -175.5t-144.5 -127t-183 -47.5h-83z" />
    <glyph glyph-name="asciitilde" unicode="~" horiz-adv-x="1246" 
d="M874 416q-63 0 -133 31.5t-139.5 72.5t-133 72t-114.5 31q-41 1 -72.5 -21.5t-49 -58.5t-15.5 -76l-165 -4q-5 81 37.5 154t115.5 120t159 47q62 0 126 -32t128 -74t125 -73.5t116 -31.5q41 0 73.5 21.5t50.5 57.5t16 76l164 6q6 -83 -31.5 -155.5t-105.5 -117.5
t-152 -45z" />
    <glyph glyph-name="uni00A0" unicode="&#xa0;" horiz-adv-x="480" 
 />
    <glyph glyph-name="exclamdown" unicode="&#xa1;" horiz-adv-x="362" 
d="M217 1026q39 0 61.5 -26.5t17.5 -66.5q-5 -38 -35.5 -64.5t-69.5 -26.5q-37 0 -60 26.5t-19 64.5q6 40 36.5 66.5t68.5 26.5zM227 580l-138 -980h-146l138 980h146z" />
    <glyph glyph-name="cent" unicode="&#xa2;" horiz-adv-x="1092" 
d="M420 0l28 204q-120 16 -210 85.5t-133 177t-25 235.5q19 128 92 235t182 176.5t234 84.5l28 202h124l-29 -202q116 -12 204.5 -76t133.5 -160l-157 -84q-35 72 -106.5 115t-156.5 43q-91 0 -173.5 -45t-138 -121t-69.5 -168q-13 -94 22.5 -170t105 -121t159.5 -45
q85 0 168.5 43t138.5 115l133 -84q-72 -96 -178 -159.5t-225 -76.5l-28 -204h-124z" />
    <glyph glyph-name="sterling" unicode="&#xa3;" horiz-adv-x="1170" 
d="M6 0l23 168q56 0 112 15t102 42t72.5 66t22.5 86q1 57 -17.5 99.5t-48 78t-61.5 71t-58.5 76t-39 94.5t-2.5 126q14 104 67 195t131.5 160.5t175.5 109t201 39.5q105 0 191 -39.5t145.5 -108.5t86.5 -160.5t13 -195.5h-168q13 93 -22 169t-105.5 121.5t-163.5 45.5
q-92 0 -174.5 -45.5t-139.5 -121.5t-70 -169q-10 -76 5 -128t44.5 -90t64.5 -71.5t65 -72.5t44.5 -92.5t3.5 -133.5q-6 -37 -26.5 -70t-47.5 -58t-54 -38h625l-23 -168h-974zM69 448l17 123h756l-18 -123h-755z" />
    <glyph glyph-name="currency" unicode="&#xa4;" horiz-adv-x="995" 
d="M108 282l-75 87l143 126q-34 61 -38.5 132.5t20.5 143.5t78 132l-109 129l99 86l109 -127q66 43 140.5 57.5t145 1t123.5 -56.5l144 125l74 -86l-142 -126q37 -60 41.5 -133t-20.5 -146t-78 -134l105 -124l-99 -87l-105 123q-69 -44 -143.5 -59t-144.5 0t-126 61z
M466 461q66 1 124 33t97 85.5t49 118.5q9 68 -15.5 120.5t-73.5 84t-114 31.5q-67 0 -125 -32t-96.5 -86t-48.5 -118q-9 -66 16 -120t74.5 -85.5t112.5 -31.5z" />
    <glyph glyph-name="yen" unicode="&#xa5;" horiz-adv-x="1258" 
d="M447 0l25 181h-280l17 122h280l20 144h-280l18 122h280l8 64l-366 767h198l278 -583l442 583h198l-582 -767l-8 -64h280l-18 -122h-280l-20 -144h280l-17 -122h-280l-25 -181h-168z" />
    <glyph glyph-name="brokenbar" unicode="&#xa6;" 
d="M85 448h168l-106 -750h-168zM218 1400h168l-105 -750h-168z" />
    <glyph glyph-name="section" unicode="&#xa7;" horiz-adv-x="1083" 
d="M391 -393q-121 0 -213.5 52t-130.5 140l147 79q11 -35 42.5 -62.5t74 -44t88.5 -17.5q60 -2 112 15t87.5 52t42.5 85q7 52 -20.5 80.5t-77.5 44.5t-112 29q-114 21 -196.5 80.5t-120.5 151.5t-22 207q12 81 52.5 154t103.5 129t138 86q-92 28 -131.5 82.5t-28.5 139.5
q14 94 75.5 162t150.5 104.5t184 36.5q121 0 213.5 -51.5t130.5 -140.5l-147 -79q-11 35 -42.5 62.5t-74 44t-89.5 17.5q-59 2 -111 -15t-87 -52t-43 -85q-7 -51 19.5 -79t76.5 -44t111 -30q119 -24 201.5 -82t120 -147.5t20.5 -212.5q-11 -81 -52.5 -154t-104.5 -128.5
t-138 -84.5q92 -28 132 -82.5t28 -139.5q-13 -94 -74.5 -162t-150 -104.5t-184.5 -36.5zM481 222q72 0 137.5 38t110 100.5t55.5 135.5q12 87 -18.5 150.5t-89 97.5t-133.5 34q-70 0 -135 -38.5t-109.5 -102t-55.5 -138.5q-12 -78 17.5 -140.5t88 -99.5t132.5 -37z" />
    <glyph glyph-name="dieresis" unicode="&#xa8;" horiz-adv-x="1324" 
d="M548 1078q-40 0 -63.5 26t-18.5 65q6 39 37 66.5t70 27.5q38 0 62 -27.5t19 -66.5q-6 -39 -37 -65t-69 -26zM885 1078q-40 0 -64 26t-19 65q6 39 37.5 66.5t70.5 27.5q38 0 62 -27.5t18 -66.5q-5 -39 -36 -65t-69 -26z" />
    <glyph glyph-name="copyright" unicode="&#xa9;" horiz-adv-x="1831" 
d="M782 -244q-173 0 -315.5 65t-241 179.5t-141.5 266t-19 324.5t110 324.5t217 266.5t291.5 179.5t333.5 64.5t315.5 -64.5t241.5 -179.5t142.5 -266.5t19.5 -324.5t-110.5 -324.5t-218 -266t-292 -179.5t-333.5 -65zM806 -76q141 0 270 52.5t233 145t172 213t87 256.5
q19 138 -16 259.5t-114 213.5t-193 143.5t-251 50.5q-140 -1 -268 -53.5t-233 -144.5t-172.5 -212t-87.5 -257q-20 -141 16 -262.5t115.5 -212.5t193 -141.5t248.5 -50.5zM1109 356l139 -82q-82 -95 -194 -152t-235 -57q-138 0 -241.5 71t-154 190.5t-30.5 264.5
q15 110 67.5 205.5t131.5 168t175.5 113.5t199.5 41q123 0 219.5 -57t151.5 -153l-163 -81q-39 60 -100.5 91.5t-130.5 31.5q-94 0 -176 -49.5t-137.5 -131.5t-69.5 -179q-13 -97 20 -178.5t101.5 -130.5t159.5 -49q75 0 145.5 34t121.5 89z" />
    <glyph glyph-name="ordfeminine" unicode="&#xaa;" horiz-adv-x="1171" 
d="M966 1000h168l-140 -1000h-168l17 169q-59 -87 -149.5 -141t-204.5 -54q-110 0 -200.5 41.5t-153.5 115t-90.5 169.5t-11.5 207q15 107 68.5 202t135 166.5t181 112t207.5 40.5q118 0 199.5 -55.5t124.5 -143.5zM508 137q99 0 178.5 48.5t131 131.5t65.5 183
q14 102 -14.5 184.5t-94 131t-163.5 48.5q-99 0 -187 -49t-147 -131.5t-73 -183.5t23 -183.5t111.5 -131t169.5 -48.5z" />
    <glyph glyph-name="guillemotleft" unicode="&#xab;" horiz-adv-x="1062" 
d="M358 261l-252 340l348 338h179l-347 -338l251 -340h-179zM721 261l-252 340l348 338h179l-347 -338l251 -340h-179z" />
    <glyph glyph-name="logicalnot" unicode="&#xac;" horiz-adv-x="986" 
d="M683 308l59 416h-659l24 168h827l-83 -584h-168z" />
    <glyph glyph-name="uni00AD" unicode="&#xad;" horiz-adv-x="902" 
d="M140 684h640l-24 -168h-640z" />
    <glyph glyph-name="registered" unicode="&#xae;" horiz-adv-x="1030" 
d="M479 446q-95 0 -172.5 36t-131 99t-77 145t-10.5 175q14 93 60.5 175t118 145t158.5 98.5t182 35.5q96 0 173.5 -36t131 -100t76 -145.5t10.5 -172.5q-13 -94 -60 -176t-118.5 -145t-159 -98.5t-181.5 -35.5zM496 573q91 0 171.5 44.5t135.5 119t67 164.5
q13 90 -21 164.5t-102 118.5t-159 44q-90 0 -170.5 -44t-135 -118.5t-67.5 -164.5q-12 -90 21.5 -164.5t101.5 -119t158 -44.5zM390 707l57 407h154q50 0 79 -36.5t22 -88.5q-6 -39 -31.5 -69.5t-59.5 -43.5l75 -169h-95l-71 159h-25l-23 -159h-82zM505 948h73
q14 0 26.5 12.5t14.5 28.5q2 19 -6.5 30.5t-23.5 11.5h-71z" />
    <glyph glyph-name="macron" unicode="&#xaf;" horiz-adv-x="1200" 
d="M346 1295h676l-19 -132h-676z" />
    <glyph glyph-name="degree" unicode="&#xb0;" horiz-adv-x="761" 
d="M392 780q-84 0 -146.5 41.5t-93 110t-19.5 148.5q12 82 61.5 150t124 109t157.5 41q85 0 147 -41.5t92 -109.5t19 -149q-11 -84 -62 -152.5t-124.5 -108t-155.5 -39.5zM416 948q55 0 99 38.5t51 93.5q8 56 -25 94t-88 38t-99.5 -38t-52.5 -94q-7 -55 26.5 -93.5
t88.5 -38.5z" />
    <glyph glyph-name="plusminus" unicode="&#xb1;" horiz-adv-x="1160" 
d="M447 345l58 416h-416l23 168h416l59 416h168l-59 -416h416l-23 -168h-416l-58 -416h-168zM-18 0l23 168h1000l-23 -168h-1000z" />
    <glyph glyph-name="uni00B2" unicode="&#xb2;" horiz-adv-x="696" 
d="M113 818l14 106q44 27 102 64t116.5 79.5t104.5 89.5t64 94q7 47 -21 77t-75 30t-85 -30t-44 -77h-116q10 63 47.5 112t93.5 77t119 28q94 0 151.5 -61.5t44.5 -155.5q-6 -43 -35.5 -86t-73 -85t-92.5 -79.5t-94 -67.5h245l-16 -115h-450z" />
    <glyph glyph-name="uni00B3" unicode="&#xb3;" horiz-adv-x="562" 
d="M296 798q-86 0 -140.5 56t-41.5 143h115q-6 -40 18.5 -64.5t63.5 -24.5t69 24.5t36 64.5q6 45 -25 76.5t-99 31.5l12 87q63 0 96 26.5t38 65.5q5 32 -16 52.5t-53 20.5q-31 0 -57.5 -20.5t-31.5 -52.5h-115q11 81 75.5 132t144.5 51q81 0 130.5 -51t37.5 -132
q-5 -40 -26 -76.5t-48 -56.5q33 -31 46.5 -67.5t5.5 -86.5q-12 -87 -81 -143t-154 -56z" />
    <glyph glyph-name="acute" unicode="&#xb4;" horiz-adv-x="828" 
d="M384 1110l120 288h168l-176 -288h-112z" />
    <glyph glyph-name="uni00B5" unicode="&#xb5;" horiz-adv-x="1078" 
d="M-79 -432l201 1432h168l-74 -526q-12 -93 15.5 -169.5t88 -122t144.5 -45.5q83 0 154.5 45.5t119 122t61.5 169.5l73 526h168l-140 -1000h-168l22 155q-67 -84 -152.5 -133t-183.5 -49q-85 0 -150 39.5t-102 102.5l-77 -547h-168z" />
    <glyph glyph-name="paragraph" unicode="&#xb6;" horiz-adv-x="911" 
d="M279 -302l144 1020q-94 0 -165 46t-106 123.5t-22 171.5q14 94 70.5 171.5t140 123.5t177.5 46h168l-239 -1702h-168zM522 -302l239 1702h168l-239 -1702h-168z" />
    <glyph glyph-name="periodcentered" unicode="&#xb7;" horiz-adv-x="344" 
d="M145 508q-39 0 -62 27t-17 66q6 37 36 64t68 27q39 0 62.5 -27t17.5 -64q-5 -39 -35.5 -66t-69.5 -27z" />
    <glyph glyph-name="cedilla" unicode="&#xb8;" horiz-adv-x="1235" 
d="M451 -369q-67 -18 -121.5 16t-62.5 99l100 26q4 -25 25 -38t47 -6q27 7 43.5 29.5t13.5 48.5q-4 26 -25 38.5t-48 7.5l-105 -11l159 223l80 -51l-50 -71q36 -11 60.5 -40t29.5 -70q8 -66 -34 -125t-112 -76z" />
    <glyph glyph-name="uni00B9" unicode="&#xb9;" horiz-adv-x="431" 
d="M188 818l72 516h-75l33 115h174l-88 -631h-116z" />
    <glyph glyph-name="ordmasculine" unicode="&#xba;" horiz-adv-x="1120" 
d="M458 -26q-138 0 -241.5 71t-154 190.5t-30.5 264.5q15 110 67.5 205.5t131.5 168t175.5 113.5t199.5 41q138 0 241.5 -71t154.5 -191t30 -266q-15 -109 -67.5 -204t-131.5 -167.5t-175 -113.5t-200 -41zM481 142q94 0 176 49.5t138 131t69 177.5q14 98 -19 180t-101 131
t-161 49q-94 0 -176 -49.5t-137.5 -131.5t-69.5 -179q-14 -100 19.5 -181.5t102.5 -129t159 -47.5z" />
    <glyph glyph-name="guillemotright" unicode="&#xbb;" horiz-adv-x="1082" 
d="M401 261l347 340l-251 338h179l252 -338l-348 -340h-179zM38 261l347 340l-251 338h179l252 -338l-348 -340h-179z" />
    <glyph glyph-name="onequarter" unicode="&#xbc;" horiz-adv-x="1564" 
d="M188 818l72 516h-75l33 115h174l-88 -631h-116zM80 0l1004 1400h148l-1004 -1400h-148zM1140 0l17 115h-262l19 139l292 377h138l-57 -401h67l-15 -115h-67l-16 -115h-116zM1027 230h153l34 243z" />
    <glyph glyph-name="onehalf" unicode="&#xbd;" horiz-adv-x="1576" 
d="M188 818l72 516h-75l33 115h174l-88 -631h-116zM80 0l1004 1400h148l-1004 -1400h-148zM879 0l14 106q44 27 102 64t116.5 80t104.5 90t64 94q7 47 -21 76.5t-75 29.5t-84.5 -29.5t-44.5 -76.5h-116q10 63 47.5 113t93.5 79t120 29q63 0 110 -29t70.5 -79t14.5 -113
q-6 -43 -35.5 -86.5t-73 -85t-92.5 -79t-94 -68.5h245l-16 -115h-450z" />
    <glyph glyph-name="threequarters" unicode="&#xbe;" horiz-adv-x="1695" 
d="M296 798q-86 0 -140.5 56t-41.5 143h115q-6 -40 18.5 -64.5t63.5 -24.5t69 24.5t36 64.5q6 45 -25 76.5t-99 31.5l12 87q63 0 96 26.5t38 65.5q5 32 -16 52.5t-53 20.5q-31 0 -57.5 -20.5t-31.5 -52.5h-115q11 81 75.5 132t144.5 51q81 0 130.5 -51t37.5 -132
q-5 -40 -26 -76.5t-48 -56.5q33 -31 46.5 -67.5t5.5 -86.5q-12 -87 -81 -143t-154 -56zM211 0l1004 1400h148l-1004 -1400h-148zM1271 0l17 115h-262l19 139l292 377h138l-57 -401h67l-15 -115h-67l-16 -115h-116zM1158 230h153l34 243z" />
    <glyph glyph-name="questiondown" unicode="&#xbf;" horiz-adv-x="1010" 
d="M337 -427q-115 0 -201.5 56t-129 150.5t-26.5 208.5q17 117 87.5 217t176.5 152q54 26 88.5 73t42.5 104h168q-15 -101 -78.5 -188t-161.5 -137q-62 -31 -103.5 -90.5t-51.5 -130.5q-10 -68 16 -124t77.5 -89.5t119.5 -33.5t129 33.5t102.5 89.5t51.5 124h168
q-16 -114 -85.5 -208.5t-172 -150.5t-217.5 -56zM502 842q-38 0 -61 26.5t-18 64.5q6 40 36.5 66.5t68.5 26.5q39 0 61.5 -26.5t16.5 -66.5q-5 -38 -35.5 -64.5t-68.5 -26.5z" />
    <glyph glyph-name="Agrave" unicode="&#xc0;" horiz-adv-x="1381" 
d="M687 1400h203l313 -1400h-178l-65 286h-655l-144 -286h-179zM390 454h532l-164 731zM633 1798h168l40 -288h-112z" />
    <glyph glyph-name="Aacute" unicode="&#xc1;" horiz-adv-x="1381" 
d="M687 1400h203l313 -1400h-178l-65 286h-655l-144 -286h-179zM390 454h532l-164 731zM762 1510l120 288h168l-176 -288h-112z" />
    <glyph glyph-name="Acircumflex" unicode="&#xc2;" horiz-adv-x="1381" 
d="M687 1400h203l313 -1400h-178l-65 286h-655l-144 -286h-179zM390 454h532l-164 731zM937 1798l153 -288h-112l-147 200l-199 -200h-112l231 288h186z" />
    <glyph glyph-name="Atilde" unicode="&#xc3;" horiz-adv-x="1381" 
d="M687 1400h203l313 -1400h-178l-65 286h-655l-144 -286h-179zM390 454h532l-164 731zM960 1524q-37 0 -80 24t-85.5 55t-78 51.5t-58.5 12.5q-24 -8 -39 -33t-11 -62l-111 -29q-13 62 8.5 117.5t69 89.5t110.5 34q38 0 80.5 -22t85 -50.5t78 -50t58.5 -21.5
q22 0 34.5 16.5t17.5 38.5t1 39l112 35q13 -66 -10.5 -121.5t-71 -89.5t-110.5 -34z" />
    <glyph glyph-name="Adieresis" unicode="&#xc4;" horiz-adv-x="1381" 
d="M687 1400h203l313 -1400h-178l-65 286h-655l-144 -286h-179zM390 454h532l-164 731zM632 1478q-40 0 -63.5 26t-18.5 65q6 39 37 66.5t70 27.5q38 0 62 -27.5t19 -66.5q-6 -39 -37 -65t-69 -26zM969 1478q-40 0 -64 26t-19 65q6 39 37.5 66.5t70.5 27.5q38 0 62 -27.5
t18 -66.5q-5 -39 -36 -65t-69 -26z" />
    <glyph glyph-name="Aring" unicode="&#xc5;" horiz-adv-x="1381" 
d="M687 1400h203l313 -1400h-178l-65 286h-655l-144 -286h-179zM390 454h532l-164 731zM800 1488q-68 0 -109.5 49.5t-32.5 117.5q6 45 34 82.5t68.5 60t86.5 22.5q68 0 110 -48.5t33 -116.5q-10 -70 -66 -118.5t-124 -48.5zM813 1577q31 0 57 23t31 55q4 31 -15.5 53
t-51.5 22t-57 -22t-29 -53q-5 -32 14 -55t51 -23z" />
    <glyph glyph-name="AE" unicode="&#xc6;" horiz-adv-x="1635" 
d="M-18 0l705 1400h946l-23 -168h-551l-63 -448h455l-23 -168h-455l-63 -448h551l-24 -168h-719l40 286h-453l-144 -286h-179zM390 454h392l109 778h-109z" />
    <glyph glyph-name="Ccedilla" unicode="&#xc7;" horiz-adv-x="1418" 
d="M666 -26q-142 0 -259 56.5t-197.5 156t-115.5 231.5t-14 282t93 282t180.5 231.5t241.5 156t275 56.5q170 0 301.5 -79t207.5 -210l-160 -80q-57 92 -155.5 146.5t-216.5 54.5q-109 0 -209.5 -44t-182.5 -121t-136.5 -178t-70.5 -215q-16 -115 10 -216t86.5 -178
t149 -120.5t195.5 -43.5q123 0 235.5 55.5t194.5 145.5l137 -81q-112 -131 -266 -209.5t-324 -78.5zM621 -369q-67 -18 -121.5 16t-62.5 99l100 26q4 -25 25 -38t47 -6q27 7 43.5 29.5t13.5 48.5q-4 26 -25 38.5t-48 7.5l-105 -11l159 223l80 -51l-50 -71q36 -11 60.5 -40
t29.5 -70q8 -66 -34 -125t-112 -76z" />
    <glyph glyph-name="Egrave" unicode="&#xc8;" horiz-adv-x="1079" 
d="M22 0l196 1400h859l-23 -168h-691l-56 -398h566l-23 -168h-567l-70 -498h691l-23 -168h-859zM482 1798h168l40 -288h-112z" />
    <glyph glyph-name="Eacute" unicode="&#xc9;" horiz-adv-x="1079" 
d="M22 0l196 1400h859l-23 -168h-691l-56 -398h566l-23 -168h-567l-70 -498h691l-23 -168h-859zM612 1510l120 288h168l-176 -288h-112z" />
    <glyph glyph-name="Ecircumflex" unicode="&#xca;" horiz-adv-x="1079" 
d="M22 0l196 1400h859l-23 -168h-691l-56 -398h566l-23 -168h-567l-70 -498h691l-23 -168h-859zM787 1798l153 -288h-112l-147 200l-199 -200h-112l231 288h186z" />
    <glyph glyph-name="Edieresis" unicode="&#xcb;" horiz-adv-x="1079" 
d="M22 0l196 1400h859l-23 -168h-691l-56 -398h566l-23 -168h-567l-70 -498h691l-23 -168h-859zM481 1478q-40 0 -63.5 26t-18.5 65q6 39 37 66.5t70 27.5q38 0 62 -27.5t19 -66.5q-6 -39 -37 -65t-69 -26zM818 1478q-40 0 -64 26t-19 65q6 39 37.5 66.5t70.5 27.5
q38 0 62 -27.5t18 -66.5q-5 -39 -36 -65t-69 -26z" />
    <glyph glyph-name="Igrave" unicode="&#xcc;" horiz-adv-x="468" 
d="M52 0l196 1400h168l-196 -1400h-168zM177 1798h168l40 -288h-112z" />
    <glyph glyph-name="Iacute" unicode="&#xcd;" horiz-adv-x="468" 
d="M52 0l196 1400h168l-196 -1400h-168zM306 1510l120 288h168l-176 -288h-112z" />
    <glyph glyph-name="Icircumflex" unicode="&#xce;" horiz-adv-x="468" 
d="M52 0l196 1400h168l-196 -1400h-168zM481 1798l153 -288h-112l-147 200l-199 -200h-112l231 288h186z" />
    <glyph glyph-name="Idieresis" unicode="&#xcf;" horiz-adv-x="468" 
d="M52 0l196 1400h168l-196 -1400h-168zM176 1478q-40 0 -63.5 26t-18.5 65q6 39 37 66.5t70 27.5q38 0 62 -27.5t19 -66.5q-6 -39 -37 -65t-69 -26zM513 1478q-40 0 -64 26t-19 65q6 39 37.5 66.5t70.5 27.5q38 0 62 -27.5t18 -66.5q-5 -39 -36 -65t-69 -26z" />
    <glyph glyph-name="Eth" unicode="&#xd0;" horiz-adv-x="1456" 
d="M135 0l93 666h-133l24 168h133l79 566h463q145 0 264 -54.5t202 -151t119.5 -223t16.5 -271.5t-92.5 -271.5t-182 -223t-244 -151t-279.5 -54.5h-463zM326 168h296q111 0 213.5 41.5t186 116t137.5 170.5t69 204q16 111 -12 208t-92 169.5t-154 113.5t-199 41h-295
l-56 -398h326l-23 -168h-327z" />
    <glyph glyph-name="Ntilde" unicode="&#xd1;" horiz-adv-x="1289" 
d="M22 0l196 1400h182l546 -1096l153 1096h168l-196 -1400h-181l-546 1096l-154 -1096h-168zM914 1524q-37 0 -80 24t-85.5 55t-78 51.5t-58.5 12.5q-24 -8 -39 -33t-11 -62l-111 -29q-13 62 8.5 117.5t69 89.5t110.5 34q38 0 80.5 -22t85 -50.5t78 -50t58.5 -21.5
q22 0 34.5 16.5t17.5 38.5t1 39l112 35q13 -66 -10.5 -121.5t-71 -89.5t-110.5 -34z" />
    <glyph glyph-name="Ograve" unicode="&#xd2;" horiz-adv-x="1540" 
d="M668 -26q-142 0 -259.5 56.5t-198 156.5t-116 231.5t-14.5 281.5t93 281.5t181.5 231.5t242.5 156.5t275 56.5q143 0 260 -56.5t197.5 -156.5t116 -231.5t14.5 -281.5t-93 -281.5t-181.5 -231.5t-242 -156.5t-275.5 -56.5zM691 142q109 0 209.5 44t183 121.5t137.5 178
t71 214.5t-10.5 215.5t-87 178t-149 120.5t-196.5 44q-109 0 -209.5 -44t-183 -121.5t-137.5 -178t-71 -214.5q-16 -115 10.5 -216t87 -178t149 -120.5t196.5 -43.5zM713 1798h168l40 -288h-112z" />
    <glyph glyph-name="Oacute" unicode="&#xd3;" horiz-adv-x="1540" 
d="M668 -26q-142 0 -259.5 56.5t-198 156.5t-116 231.5t-14.5 281.5t93 281.5t181.5 231.5t242.5 156.5t275 56.5q143 0 260 -56.5t197.5 -156.5t116 -231.5t14.5 -281.5t-93 -281.5t-181.5 -231.5t-242 -156.5t-275.5 -56.5zM691 142q109 0 209.5 44t183 121.5t137.5 178
t71 214.5t-10.5 215.5t-87 178t-149 120.5t-196.5 44q-109 0 -209.5 -44t-183 -121.5t-137.5 -178t-71 -214.5q-16 -115 10.5 -216t87 -178t149 -120.5t196.5 -43.5zM842 1510l120 288h168l-176 -288h-112z" />
    <glyph glyph-name="Ocircumflex" unicode="&#xd4;" horiz-adv-x="1540" 
d="M668 -26q-142 0 -259.5 56.5t-198 156.5t-116 231.5t-14.5 281.5t93 281.5t181.5 231.5t242.5 156.5t275 56.5q143 0 260 -56.5t197.5 -156.5t116 -231.5t14.5 -281.5t-93 -281.5t-181.5 -231.5t-242 -156.5t-275.5 -56.5zM691 142q109 0 209.5 44t183 121.5t137.5 178
t71 214.5t-10.5 215.5t-87 178t-149 120.5t-196.5 44q-109 0 -209.5 -44t-183 -121.5t-137.5 -178t-71 -214.5q-16 -115 10.5 -216t87 -178t149 -120.5t196.5 -43.5zM1017 1798l153 -288h-112l-147 200l-199 -200h-112l231 288h186z" />
    <glyph glyph-name="Otilde" unicode="&#xd5;" horiz-adv-x="1540" 
d="M668 -26q-142 0 -259.5 56.5t-198 156.5t-116 231.5t-14.5 281.5t93 281.5t181.5 231.5t242.5 156.5t275 56.5q143 0 260 -56.5t197.5 -156.5t116 -231.5t14.5 -281.5t-93 -281.5t-181.5 -231.5t-242 -156.5t-275.5 -56.5zM691 142q109 0 209.5 44t183 121.5t137.5 178
t71 214.5t-10.5 215.5t-87 178t-149 120.5t-196.5 44q-109 0 -209.5 -44t-183 -121.5t-137.5 -178t-71 -214.5q-16 -115 10.5 -216t87 -178t149 -120.5t196.5 -43.5zM1040 1524q-37 0 -80 24t-85.5 55t-78 51.5t-58.5 12.5q-24 -8 -39 -33t-11 -62l-111 -29
q-13 62 8.5 117.5t69 89.5t110.5 34q38 0 80.5 -22t85 -50.5t78 -50t58.5 -21.5q22 0 34.5 16.5t17.5 38.5t1 39l112 35q13 -66 -10.5 -121.5t-71 -89.5t-110.5 -34z" />
    <glyph glyph-name="Odieresis" unicode="&#xd6;" horiz-adv-x="1540" 
d="M668 -26q-142 0 -259.5 56.5t-198 156.5t-116 231.5t-14.5 281.5t93 281.5t181.5 231.5t242.5 156.5t275 56.5q143 0 260 -56.5t197.5 -156.5t116 -231.5t14.5 -281.5t-93 -281.5t-181.5 -231.5t-242 -156.5t-275.5 -56.5zM691 142q109 0 209.5 44t183 121.5t137.5 178
t71 214.5t-10.5 215.5t-87 178t-149 120.5t-196.5 44q-109 0 -209.5 -44t-183 -121.5t-137.5 -178t-71 -214.5q-16 -115 10.5 -216t87 -178t149 -120.5t196.5 -43.5zM712 1478q-40 0 -63.5 26t-18.5 65q6 39 37 66.5t70 27.5q38 0 62 -27.5t19 -66.5q-6 -39 -37 -65t-69 -26
zM1049 1478q-40 0 -64 26t-19 65q6 39 37.5 66.5t70.5 27.5q38 0 62 -27.5t18 -66.5q-5 -39 -36 -65t-69 -26z" />
    <glyph glyph-name="multiply" unicode="&#xd7;" horiz-adv-x="986" 
d="M126 187l-102 119l335 294l-251 294l135 119l252 -294l335 294l103 -119l-336 -294l253 -294l-136 -119l-253 294z" />
    <glyph glyph-name="Oslash" unicode="&#xd8;" horiz-adv-x="1540" 
d="M302 -89l-134 84l97 137q-105 99 -157 247.5t-28 320.5q21 150 93 281.5t181.5 231.5t242.5 156.5t275 56.5q77 0 146 -17.5t129 -49.5l93 130l134 -84l-99 -136q107 -98 158 -246.5t27 -322.5q-21 -150 -93 -281.5t-181.5 -231.5t-242 -156.5t-275.5 -56.5
q-75 0 -143.5 18t-129.5 49zM376 286l664 924q-41 23 -89.5 35.5t-101.5 12.5q-109 0 -209.5 -44t-183 -121.5t-137.5 -178t-71 -214.5q-17 -125 18 -233t110 -181zM691 142q109 0 209.5 44t183 121.5t137.5 178t71 214.5q18 125 -17 233t-108 182l-665 -925
q41 -23 89.5 -35.5t99.5 -12.5z" />
    <glyph glyph-name="Ugrave" unicode="&#xd9;" horiz-adv-x="1335" 
d="M566 -26q-168 0 -279.5 82t-159 220.5t-23.5 307.5l114 816h168l-114 -816q-17 -120 13 -221t106 -161t199 -60t216 60.5t150.5 161t74.5 220.5l114 816h168l-114 -816q-18 -127 -71.5 -237.5t-137 -194.5t-191 -131t-233.5 -47zM610 1798h168l40 -288h-112z" />
    <glyph glyph-name="Uacute" unicode="&#xda;" horiz-adv-x="1335" 
d="M566 -26q-168 0 -279.5 82t-159 220.5t-23.5 307.5l114 816h168l-114 -816q-17 -120 13 -221t106 -161t199 -60t216 60.5t150.5 161t74.5 220.5l114 816h168l-114 -816q-18 -127 -71.5 -237.5t-137 -194.5t-191 -131t-233.5 -47zM740 1510l120 288h168l-176 -288h-112z
" />
    <glyph glyph-name="Ucircumflex" unicode="&#xdb;" horiz-adv-x="1335" 
d="M566 -26q-168 0 -279.5 82t-159 220.5t-23.5 307.5l114 816h168l-114 -816q-17 -120 13 -221t106 -161t199 -60t216 60.5t150.5 161t74.5 220.5l114 816h168l-114 -816q-18 -127 -71.5 -237.5t-137 -194.5t-191 -131t-233.5 -47zM915 1798l153 -288h-112l-147 200
l-199 -200h-112l231 288h186z" />
    <glyph glyph-name="Udieresis" unicode="&#xdc;" horiz-adv-x="1335" 
d="M566 -26q-168 0 -279.5 82t-159 220.5t-23.5 307.5l114 816h168l-114 -816q-17 -120 13 -221t106 -161t199 -60t216 60.5t150.5 161t74.5 220.5l114 816h168l-114 -816q-18 -127 -71.5 -237.5t-137 -194.5t-191 -131t-233.5 -47zM609 1478q-40 0 -63.5 26t-18.5 65
q6 39 37 66.5t70 27.5q38 0 62 -27.5t19 -66.5q-6 -39 -37 -65t-69 -26zM946 1478q-40 0 -64 26t-19 65q6 39 37.5 66.5t70.5 27.5q38 0 62 -27.5t18 -66.5q-5 -39 -36 -65t-69 -26z" />
    <glyph glyph-name="Yacute" unicode="&#xdd;" horiz-adv-x="1236" 
d="M1076 1400h198l-582 -767l-88 -633h-168l88 633l-366 767h198l278 -583zM690 1510l120 288h168l-176 -288h-112z" />
    <glyph glyph-name="Thorn" unicode="&#xde;" horiz-adv-x="1043" 
d="M22 0l196 1400h168l-40 -288h294q112 0 195.5 -55t123.5 -148.5t24 -208.5q-16 -116 -84.5 -209.5t-167 -148t-207.5 -54.5h-294l-40 -288h-168zM253 456h279q69 0 130 33t103 90.5t52 130.5q10 72 -16 129.5t-77.5 91t-119.5 33.5h-279z" />
    <glyph glyph-name="germandbls" unicode="&#xdf;" horiz-adv-x="1089" 
d="M22 0l131 938q13 96 60.5 179.5t120 147t161 99.5t184.5 36q105 0 182.5 -51.5t116 -138.5t22.5 -196q-7 -57 -32.5 -114.5t-67 -104.5t-98.5 -75q59 -13 98 -47.5t60 -81.5t26.5 -101.5t-2.5 -109.5q-15 -107 -79.5 -193t-159.5 -136.5t-202 -50.5h-74l-9 148h89
q69 0 130.5 33t102.5 88t51 121q9 67 -17 121t-77.5 87t-121.5 33l-88 2l20 142l26 2q62 3 117.5 34.5t93 84.5t46.5 118q10 66 -13 119.5t-69 86t-108 32.5q-76 0 -144 -37.5t-114 -100.5t-58 -140l-136 -974h-168z" />
    <glyph glyph-name="agrave" unicode="&#xe0;" horiz-adv-x="1171" 
d="M966 1000h168l-140 -1000h-168l17 169q-59 -87 -149.5 -141t-204.5 -54q-110 0 -200.5 41.5t-153.5 115t-90.5 169.5t-11.5 207q15 107 68.5 202t135 166.5t181 112t207.5 40.5q118 0 199.5 -55.5t124.5 -143.5zM508 137q99 0 178.5 48.5t131 131.5t65.5 183
q14 102 -14.5 184.5t-94 131t-163.5 48.5q-99 0 -187 -49t-147 -131.5t-73 -183.5t23 -183.5t111.5 -131t169.5 -48.5zM487 1398h168l40 -288h-112z" />
    <glyph glyph-name="aacute" unicode="&#xe1;" horiz-adv-x="1171" 
d="M966 1000h168l-140 -1000h-168l17 169q-59 -87 -149.5 -141t-204.5 -54q-110 0 -200.5 41.5t-153.5 115t-90.5 169.5t-11.5 207q15 107 68.5 202t135 166.5t181 112t207.5 40.5q118 0 199.5 -55.5t124.5 -143.5zM508 137q99 0 178.5 48.5t131 131.5t65.5 183
q14 102 -14.5 184.5t-94 131t-163.5 48.5q-99 0 -187 -49t-147 -131.5t-73 -183.5t23 -183.5t111.5 -131t169.5 -48.5zM617 1110l120 288h168l-176 -288h-112z" />
    <glyph glyph-name="acircumflex" unicode="&#xe2;" horiz-adv-x="1171" 
d="M966 1000h168l-140 -1000h-168l17 169q-59 -87 -149.5 -141t-204.5 -54q-110 0 -200.5 41.5t-153.5 115t-90.5 169.5t-11.5 207q15 107 68.5 202t135 166.5t181 112t207.5 40.5q118 0 199.5 -55.5t124.5 -143.5zM508 137q99 0 178.5 48.5t131 131.5t65.5 183
q14 102 -14.5 184.5t-94 131t-163.5 48.5q-99 0 -187 -49t-147 -131.5t-73 -183.5t23 -183.5t111.5 -131t169.5 -48.5zM792 1398l153 -288h-112l-147 200l-199 -200h-112l231 288h186z" />
    <glyph glyph-name="atilde" unicode="&#xe3;" horiz-adv-x="1171" 
d="M966 1000h168l-140 -1000h-168l17 169q-59 -87 -149.5 -141t-204.5 -54q-110 0 -200.5 41.5t-153.5 115t-90.5 169.5t-11.5 207q15 107 68.5 202t135 166.5t181 112t207.5 40.5q118 0 199.5 -55.5t124.5 -143.5zM508 137q99 0 178.5 48.5t131 131.5t65.5 183
q14 102 -14.5 184.5t-94 131t-163.5 48.5q-99 0 -187 -49t-147 -131.5t-73 -183.5t23 -183.5t111.5 -131t169.5 -48.5zM815 1124q-37 0 -80 24t-85.5 55t-78 51.5t-58.5 12.5q-24 -8 -39 -33t-11 -62l-111 -29q-13 62 8.5 117.5t69 89.5t110.5 34q38 0 80.5 -22t85 -50.5
t78 -50t58.5 -21.5q22 0 34.5 16.5t17.5 38.5t1 39l112 35q13 -66 -10.5 -121.5t-71 -89.5t-110.5 -34z" />
    <glyph glyph-name="adieresis" unicode="&#xe4;" horiz-adv-x="1171" 
d="M966 1000h168l-140 -1000h-168l17 169q-59 -87 -149.5 -141t-204.5 -54q-110 0 -200.5 41.5t-153.5 115t-90.5 169.5t-11.5 207q15 107 68.5 202t135 166.5t181 112t207.5 40.5q118 0 199.5 -55.5t124.5 -143.5zM508 137q99 0 178.5 48.5t131 131.5t65.5 183
q14 102 -14.5 184.5t-94 131t-163.5 48.5q-99 0 -187 -49t-147 -131.5t-73 -183.5t23 -183.5t111.5 -131t169.5 -48.5zM487 1078q-40 0 -63.5 26t-18.5 65q6 39 37 66.5t70 27.5q38 0 62 -27.5t19 -66.5q-6 -39 -37 -65t-69 -26zM824 1078q-40 0 -64 26t-19 65
q6 39 37.5 66.5t70.5 27.5q38 0 62 -27.5t18 -66.5q-5 -39 -36 -65t-69 -26z" />
    <glyph glyph-name="aring" unicode="&#xe5;" horiz-adv-x="1171" 
d="M966 1000h168l-140 -1000h-168l17 169q-59 -87 -149.5 -141t-204.5 -54q-110 0 -200.5 41.5t-153.5 115t-90.5 169.5t-11.5 207q15 107 68.5 202t135 166.5t181 112t207.5 40.5q118 0 199.5 -55.5t124.5 -143.5zM508 137q99 0 178.5 48.5t131 131.5t65.5 183
q14 102 -14.5 184.5t-94 131t-163.5 48.5q-99 0 -187 -49t-147 -131.5t-73 -183.5t23 -183.5t111.5 -131t169.5 -48.5zM655 1088q-68 0 -109.5 49.5t-32.5 117.5q6 45 34 82.5t68.5 60t86.5 22.5q68 0 110 -48.5t33 -116.5q-10 -70 -66 -118.5t-124 -48.5zM668 1177
q31 0 57 23t31 55q4 31 -15.5 53t-51.5 22t-57 -22t-29 -53q-5 -32 14 -55t51 -23z" />
    <glyph glyph-name="ae" unicode="&#xe6;" horiz-adv-x="1763" 
d="M237 -25q-88 0 -152.5 38.5t-95.5 106t-19 152.5q11 80 58.5 148t122.5 109.5t166 41.5h367q8 79 -19.5 145t-86 105t-146.5 39q-76 0 -148 -34l-73 141q60 31 121.5 46t121.5 15q126 0 222 -63.5t141 -170.5q51 70 120.5 122.5t150 82t165.5 29.5q113 0 201 -45.5
t144 -126.5t74 -188t-7 -229h-817q0 -85 35 -152t98.5 -106t147.5 -39q89 0 169 46.5t136 127.5l165 -40q-79 -133 -211.5 -217.5t-282.5 -84.5q-92 0 -170 34t-133.5 94t-84.5 140q-49 -76 -124.5 -136.5t-167 -95.5t-188.5 -35zM260 125q103 0 190.5 52.5t142.5 132.5
q45 57 70 130h-364q-70 0 -119 -45.5t-59 -112.5q-8 -61 27 -109t112 -48zM862 571h652q3 84 -32.5 153.5t-100.5 111.5t-150 42q-84 0 -159.5 -41t-131 -110.5t-78.5 -155.5z" />
    <glyph glyph-name="ccedilla" unicode="&#xe7;" horiz-adv-x="1019" 
d="M748 264l138 -81q-82 -95 -194 -152t-234 -57q-138 0 -241.5 71t-154 190.5t-30.5 264.5q15 110 67.5 205.5t131.5 168t175.5 113.5t199.5 41q122 0 218.5 -57t151.5 -153l-162 -81q-40 59 -101 91t-130 32q-94 0 -176 -49.5t-137.5 -131.5t-69.5 -179t19 -178.5
t101.5 -130.5t160.5 -49q75 0 145 34t122 88zM413 -369q-67 -18 -121.5 16t-62.5 99l100 26q4 -25 25 -38t47 -6q27 7 43.5 29.5t13.5 48.5q-4 26 -25 38.5t-48 7.5l-105 -11l159 223l80 -51l-50 -71q36 -11 60.5 -40t29.5 -70q8 -66 -34 -125t-112 -76z" />
    <glyph glyph-name="egrave" unicode="&#xe8;" horiz-adv-x="1117" 
d="M458 -26q-138 0 -241.5 71t-154 190.5t-30.5 264.5q15 110 67.5 205.5t131.5 168t175.5 113.5t199.5 41q113 0 201 -45.5t144 -126.5t75 -188t-8 -229h-815q-1 -85 34 -151.5t97.5 -105.5t146.5 -40q90 0 170 46.5t136 127.5l165 -40q-79 -133 -211.5 -217.5
t-282.5 -84.5zM216 571h651q4 84 -32 153.5t-100.5 111.5t-148.5 42q-85 0 -160.5 -41t-131 -110.5t-78.5 -155.5zM446 1398h168l40 -288h-112z" />
    <glyph glyph-name="eacute" unicode="&#xe9;" horiz-adv-x="1117" 
d="M458 -26q-138 0 -241.5 71t-154 190.5t-30.5 264.5q15 110 67.5 205.5t131.5 168t175.5 113.5t199.5 41q113 0 201 -45.5t144 -126.5t75 -188t-8 -229h-815q-1 -85 34 -151.5t97.5 -105.5t146.5 -40q90 0 170 46.5t136 127.5l165 -40q-79 -133 -211.5 -217.5
t-282.5 -84.5zM216 571h651q4 84 -32 153.5t-100.5 111.5t-148.5 42q-85 0 -160.5 -41t-131 -110.5t-78.5 -155.5zM575 1110l120 288h168l-176 -288h-112z" />
    <glyph glyph-name="ecircumflex" unicode="&#xea;" horiz-adv-x="1117" 
d="M458 -26q-138 0 -241.5 71t-154 190.5t-30.5 264.5q15 110 67.5 205.5t131.5 168t175.5 113.5t199.5 41q113 0 201 -45.5t144 -126.5t75 -188t-8 -229h-815q-1 -85 34 -151.5t97.5 -105.5t146.5 -40q90 0 170 46.5t136 127.5l165 -40q-79 -133 -211.5 -217.5
t-282.5 -84.5zM216 571h651q4 84 -32 153.5t-100.5 111.5t-148.5 42q-85 0 -160.5 -41t-131 -110.5t-78.5 -155.5zM750 1398l153 -288h-112l-147 200l-199 -200h-112l231 288h186z" />
    <glyph glyph-name="edieresis" unicode="&#xeb;" horiz-adv-x="1117" 
d="M458 -26q-138 0 -241.5 71t-154 190.5t-30.5 264.5q15 110 67.5 205.5t131.5 168t175.5 113.5t199.5 41q113 0 201 -45.5t144 -126.5t75 -188t-8 -229h-815q-1 -85 34 -151.5t97.5 -105.5t146.5 -40q90 0 170 46.5t136 127.5l165 -40q-79 -133 -211.5 -217.5
t-282.5 -84.5zM216 571h651q4 84 -32 153.5t-100.5 111.5t-148.5 42q-85 0 -160.5 -41t-131 -110.5t-78.5 -155.5zM445 1078q-40 0 -63.5 26t-18.5 65q6 39 37 66.5t70 27.5q38 0 62 -27.5t19 -66.5q-6 -39 -37 -65t-69 -26zM782 1078q-40 0 -64 26t-19 65q6 39 37.5 66.5
t70.5 27.5q38 0 62 -27.5t18 -66.5q-5 -39 -36 -65t-69 -26z" />
    <glyph glyph-name="igrave" unicode="&#xec;" 
d="M162 1000h168l-140 -1000h-168zM91 1398h168l40 -288h-112z" />
    <glyph glyph-name="iacute" unicode="&#xed;" 
d="M162 1000h168l-140 -1000h-168zM220 1110l120 288h168l-176 -288h-112z" />
    <glyph glyph-name="icircumflex" unicode="&#xee;" 
d="M162 1000h168l-140 -1000h-168zM395 1398l153 -288h-112l-147 200l-199 -200h-112l231 288h186z" />
    <glyph glyph-name="idieresis" unicode="&#xef;" 
d="M162 1000h168l-140 -1000h-168zM90 1078q-40 0 -63.5 26t-18.5 65q6 39 37 66.5t70 27.5q38 0 62 -27.5t19 -66.5q-6 -39 -37 -65t-69 -26zM427 1078q-40 0 -64 26t-19 65q6 39 37.5 66.5t70.5 27.5q38 0 62 -27.5t18 -66.5q-5 -39 -36 -65t-69 -26z" />
    <glyph glyph-name="eth" unicode="&#xf0;" horiz-adv-x="1125" 
d="M483 1047l-76 87l499 431l73 -88zM481 -26q-138 0 -243 68t-157 182t-32 252q15 104 66.5 195.5t130.5 160.5t175.5 108t200.5 39q82 0 147 -35t103 -94q-10 89 -39 175.5t-81 157.5t-129 113t-182 42l22 168q161 0 284 -78.5t202 -216t108 -316t2 -377.5
q-22 -160 -103 -282.5t-204 -192t-271 -69.5zM504 142q95 0 177 46t137.5 122t68.5 166q13 92 -21.5 168t-104.5 121.5t-163 45.5q-94 0 -176 -46t-137 -122t-68 -167q-13 -90 21 -166.5t104 -122t162 -45.5z" />
    <glyph glyph-name="ntilde" unicode="&#xf1;" horiz-adv-x="1084" 
d="M992 622l-86 -622h-168l81 585q11 76 -17 138t-85 98.5t-133 36.5t-143 -36.5t-112.5 -98.5t-56.5 -138l-82 -585h-168l140 1000h168l-17 -125q63 70 149.5 111.5t181.5 41.5q112 0 196.5 -54.5t126 -146.5t25.5 -205zM785 1124q-37 0 -80 24t-85.5 55t-78 51.5
t-58.5 12.5q-24 -8 -39 -33t-11 -62l-111 -29q-13 62 8.5 117.5t69 89.5t110.5 34q38 0 80.5 -22t85 -50.5t78 -50t58.5 -21.5q22 0 34.5 16.5t17.5 38.5t1 39l112 35q13 -66 -10.5 -121.5t-71 -89.5t-110.5 -34z" />
    <glyph glyph-name="ograve" unicode="&#xf2;" horiz-adv-x="1120" 
d="M458 -26q-138 0 -241.5 71t-154 190.5t-30.5 264.5q15 110 67.5 205.5t131.5 168t175.5 113.5t199.5 41q138 0 241.5 -71t154.5 -191t30 -266q-15 -109 -67.5 -204t-131.5 -167.5t-175 -113.5t-200 -41zM481 142q94 0 176 49.5t138 131t69 177.5q14 98 -19 180t-101 131
t-161 49q-94 0 -176 -49.5t-137.5 -131.5t-69.5 -179q-14 -100 19.5 -181.5t102.5 -129t159 -47.5zM447 1398h168l40 -288h-112z" />
    <glyph glyph-name="oacute" unicode="&#xf3;" horiz-adv-x="1120" 
d="M458 -26q-138 0 -241.5 71t-154 190.5t-30.5 264.5q15 110 67.5 205.5t131.5 168t175.5 113.5t199.5 41q138 0 241.5 -71t154.5 -191t30 -266q-15 -109 -67.5 -204t-131.5 -167.5t-175 -113.5t-200 -41zM481 142q94 0 176 49.5t138 131t69 177.5q14 98 -19 180t-101 131
t-161 49q-94 0 -176 -49.5t-137.5 -131.5t-69.5 -179q-14 -100 19.5 -181.5t102.5 -129t159 -47.5zM576 1110l120 288h168l-176 -288h-112z" />
    <glyph glyph-name="ocircumflex" unicode="&#xf4;" horiz-adv-x="1120" 
d="M458 -26q-138 0 -241.5 71t-154 190.5t-30.5 264.5q15 110 67.5 205.5t131.5 168t175.5 113.5t199.5 41q138 0 241.5 -71t154.5 -191t30 -266q-15 -109 -67.5 -204t-131.5 -167.5t-175 -113.5t-200 -41zM481 142q94 0 176 49.5t138 131t69 177.5q14 98 -19 180t-101 131
t-161 49q-94 0 -176 -49.5t-137.5 -131.5t-69.5 -179q-14 -100 19.5 -181.5t102.5 -129t159 -47.5zM751 1398l153 -288h-112l-147 200l-199 -200h-112l231 288h186z" />
    <glyph glyph-name="otilde" unicode="&#xf5;" horiz-adv-x="1120" 
d="M458 -26q-138 0 -241.5 71t-154 190.5t-30.5 264.5q15 110 67.5 205.5t131.5 168t175.5 113.5t199.5 41q138 0 241.5 -71t154.5 -191t30 -266q-15 -109 -67.5 -204t-131.5 -167.5t-175 -113.5t-200 -41zM481 142q94 0 176 49.5t138 131t69 177.5q14 98 -19 180t-101 131
t-161 49q-94 0 -176 -49.5t-137.5 -131.5t-69.5 -179q-14 -100 19.5 -181.5t102.5 -129t159 -47.5zM774 1124q-37 0 -80 24t-85.5 55t-78 51.5t-58.5 12.5q-24 -8 -39 -33t-11 -62l-111 -29q-13 62 8.5 117.5t69 89.5t110.5 34q38 0 80.5 -22t85 -50.5t78 -50t58.5 -21.5
q22 0 34.5 16.5t17.5 38.5t1 39l112 35q13 -66 -10.5 -121.5t-71 -89.5t-110.5 -34z" />
    <glyph glyph-name="odieresis" unicode="&#xf6;" horiz-adv-x="1120" 
d="M458 -26q-138 0 -241.5 71t-154 190.5t-30.5 264.5q15 110 67.5 205.5t131.5 168t175.5 113.5t199.5 41q138 0 241.5 -71t154.5 -191t30 -266q-15 -109 -67.5 -204t-131.5 -167.5t-175 -113.5t-200 -41zM481 142q94 0 176 49.5t138 131t69 177.5q14 98 -19 180t-101 131
t-161 49q-94 0 -176 -49.5t-137.5 -131.5t-69.5 -179q-14 -100 19.5 -181.5t102.5 -129t159 -47.5zM446 1078q-40 0 -63.5 26t-18.5 65q6 39 37 66.5t70 27.5q38 0 62 -27.5t19 -66.5q-6 -39 -37 -65t-69 -26zM783 1078q-40 0 -64 26t-19 65q6 39 37.5 66.5t70.5 27.5
q38 0 62 -27.5t18 -66.5q-5 -39 -36 -65t-69 -26z" />
    <glyph glyph-name="divide" unicode="&#xf7;" horiz-adv-x="1160" 
d="M54 516l24 168h1000l-24 -168h-1000zM632 1074q46 0 73.5 -34.5t21.5 -78.5q-6 -45 -43.5 -78t-82.5 -33q-48 0 -75 33t-20 78q5 44 41.5 78.5t84.5 34.5zM530 350q46 0 75 -34.5t23 -78.5q-7 -46 -45.5 -78.5t-82.5 -32.5q-48 0 -75.5 32.5t-20.5 78.5q5 44 41.5 78.5
t84.5 34.5z" />
    <glyph glyph-name="oslash" unicode="&#xf8;" horiz-adv-x="1120" 
d="M210 -60l-112 70l62 85q-74 72 -109.5 177.5t-18.5 227.5q15 110 67.5 205.5t131.5 168t175.5 113.5t199.5 41q53 0 101 -11.5t90 -32.5l58 80l112 -70l-61 -86q73 -72 108 -177.5t18 -230.5q-15 -109 -67.5 -204t-131.5 -167.5t-175 -113.5t-200 -41q-52 0 -100.5 12
t-90.5 33zM263 238l437 611q-78 33 -162 18t-158.5 -67t-126 -132t-65.5 -176q-11 -78 10 -143t65 -111zM364 154q81 -33 165 -18.5t158 67t124.5 131.5t64.5 174q11 78 -9.5 144t-63.5 113z" />
    <glyph glyph-name="ugrave" unicode="&#xf9;" horiz-adv-x="1044" 
d="M35 380l87 620h168l-82 -583q-10 -76 18 -138t85 -98.5t132 -36.5q76 0 143.5 36.5t113 98.5t55.5 138l82 583h168l-139 -1000h-168l16 127q-63 -70 -149.5 -111.5t-180.5 -41.5q-112 0 -196.5 54.5t-126 146.5t-26.5 205zM426 1399h168l40 -288h-112z" />
    <glyph glyph-name="uacute" unicode="&#xfa;" horiz-adv-x="1044" 
d="M35 380l87 620h168l-82 -583q-10 -76 18 -138t85 -98.5t132 -36.5q76 0 143.5 36.5t113 98.5t55.5 138l82 583h168l-139 -1000h-168l16 127q-63 -70 -149.5 -111.5t-180.5 -41.5q-112 0 -196.5 54.5t-126 146.5t-26.5 205zM556 1111l120 288h168l-176 -288h-112z" />
    <glyph glyph-name="ucircumflex" unicode="&#xfb;" horiz-adv-x="1044" 
d="M35 380l87 620h168l-82 -583q-10 -76 18 -138t85 -98.5t132 -36.5q76 0 143.5 36.5t113 98.5t55.5 138l82 583h168l-139 -1000h-168l16 127q-63 -70 -149.5 -111.5t-180.5 -41.5q-112 0 -196.5 54.5t-126 146.5t-26.5 205zM731 1399l153 -288h-112l-147 200l-199 -200
h-112l231 288h186z" />
    <glyph glyph-name="udieresis" unicode="&#xfc;" horiz-adv-x="1044" 
d="M35 380l87 620h168l-82 -583q-10 -76 18 -138t85 -98.5t132 -36.5q76 0 143.5 36.5t113 98.5t55.5 138l82 583h168l-139 -1000h-168l16 127q-63 -70 -149.5 -111.5t-180.5 -41.5q-112 0 -196.5 54.5t-126 146.5t-26.5 205zM425 1079q-40 0 -63.5 26t-18.5 65
q6 39 37 66.5t70 27.5q38 0 62 -27.5t19 -66.5q-6 -39 -37 -65t-69 -26zM762 1079q-40 0 -64 26t-19 65q6 39 37.5 66.5t70.5 27.5q38 0 62 -27.5t18 -66.5q-5 -39 -36 -65t-69 -26z" />
    <glyph glyph-name="yacute" unicode="&#xfd;" horiz-adv-x="1063" 
d="M847 1000h178l-758 -1500h-178l252 500l-219 1000h184l151 -769zM547 1110l120 288h168l-176 -288h-112z" />
    <glyph glyph-name="thorn" unicode="&#xfe;" horiz-adv-x="1212" 
d="M-49 -500l267 1900h168l-80 -571q63 88 156 142.5t210 54.5q109 0 198.5 -41t152 -113.5t89.5 -167.5t12 -204t-69.5 -205t-137 -168.5t-183.5 -113.5t-210 -41q-117 0 -194.5 54.5t-115.5 142.5l-95 -669h-168zM544 136q97 0 185 48.5t149 131t75 184.5
q14 100 -22.5 182.5t-110.5 131.5t-173 49q-98 0 -177 -49t-130.5 -131t-65.5 -183q-14 -100 13.5 -183t93 -132t163.5 -49z" />
    <glyph glyph-name="ydieresis" unicode="&#xff;" horiz-adv-x="1063" 
d="M847 1000h178l-758 -1500h-178l252 500l-219 1000h184l151 -769zM417 1078q-40 0 -63.5 26t-18.5 65q6 39 37 66.5t70 27.5q38 0 62 -27.5t19 -66.5q-6 -39 -37 -65t-69 -26zM754 1078q-40 0 -64 26t-19 65q6 39 37.5 66.5t70.5 27.5q38 0 62 -27.5t18 -66.5
q-5 -39 -36 -65t-69 -26z" />
    <glyph glyph-name="Amacron" unicode="&#x100;" horiz-adv-x="1381" 
d="M687 1400h203l313 -1400h-178l-65 286h-655l-144 -286h-179zM390 454h532l-164 731zM492 1695h676l-19 -132h-676z" />
    <glyph glyph-name="amacron" unicode="&#x101;" horiz-adv-x="1171" 
d="M966 1000h168l-140 -1000h-168l17 169q-59 -87 -149.5 -141t-204.5 -54q-110 0 -200.5 41.5t-153.5 115t-90.5 169.5t-11.5 207q15 107 68.5 202t135 166.5t181 112t207.5 40.5q118 0 199.5 -55.5t124.5 -143.5zM508 137q99 0 178.5 48.5t131 131.5t65.5 183
q14 102 -14.5 184.5t-94 131t-163.5 48.5q-99 0 -187 -49t-147 -131.5t-73 -183.5t23 -183.5t111.5 -131t169.5 -48.5zM347 1295h676l-19 -132h-676z" />
    <glyph glyph-name="Abreve" unicode="&#x102;" horiz-adv-x="1381" 
d="M687 1400h203l313 -1400h-178l-65 286h-655l-144 -286h-179zM390 454h532l-164 731zM801 1488q-91 0 -160 45t-103.5 120.5t-22.5 166.5h114q-8 -61 15 -110.5t69 -78.5t104 -29q59 0 112.5 29t90.5 79t45 110h114q-13 -93 -69 -168.5t-137.5 -119.5t-171.5 -44z" />
    <glyph glyph-name="abreve" unicode="&#x103;" horiz-adv-x="1171" 
d="M966 1000h168l-140 -1000h-168l17 169q-59 -87 -149.5 -141t-204.5 -54q-110 0 -200.5 41.5t-153.5 115t-90.5 169.5t-11.5 207q15 107 68.5 202t135 166.5t181 112t207.5 40.5q118 0 199.5 -55.5t124.5 -143.5zM508 137q99 0 178.5 48.5t131 131.5t65.5 183
q14 102 -14.5 184.5t-94 131t-163.5 48.5q-99 0 -187 -49t-147 -131.5t-73 -183.5t23 -183.5t111.5 -131t169.5 -48.5zM656 1088q-91 0 -160 45t-103.5 120.5t-22.5 166.5h114q-8 -61 15 -110.5t69 -78.5t104 -29q59 0 112.5 29t90.5 79t45 110h114q-13 -93 -69 -168.5
t-137.5 -119.5t-171.5 -44z" />
    <glyph glyph-name="Aogonek" unicode="&#x104;" horiz-adv-x="1381" 
d="M687 1400h203l313 -1400h-178l-65 286h-655l-144 -286h-179zM390 454h532l-164 731zM1026 -418q-59 1 -99 29.5t-57.5 73.5t-10.5 95q6 38 24.5 73.5t52.5 65.5l192 168l75 -87q-58 -50 -98 -84t-64.5 -58t-36.5 -43.5t-15 -39.5q-3 -27 12 -49t48 -24q38 0 73 28t42 73
h116q-8 -61 -45 -111.5t-92 -80t-117 -29.5z" />
    <glyph glyph-name="aogonek" unicode="&#x105;" horiz-adv-x="1171" 
d="M966 1000h168l-140 -1000h-168l17 169q-59 -87 -149.5 -141t-204.5 -54q-110 0 -200.5 41.5t-153.5 115t-90.5 169.5t-11.5 207q15 107 68.5 202t135 166.5t181 112t207.5 40.5q118 0 199.5 -55.5t124.5 -143.5zM508 137q99 0 178.5 48.5t131 131.5t65.5 183
q14 102 -14.5 184.5t-94 131t-163.5 48.5q-99 0 -187 -49t-147 -131.5t-73 -183.5t23 -183.5t111.5 -131t169.5 -48.5zM817 -418q-59 1 -99 29.5t-57.5 73.5t-10.5 95q6 38 24.5 73.5t52.5 65.5l192 168l75 -87q-58 -50 -98 -84t-64.5 -58t-36.5 -43.5t-15 -39.5
q-3 -27 12 -49t48 -24q38 0 73 28t42 73h116q-8 -61 -45 -111.5t-92 -80t-117 -29.5z" />
    <glyph glyph-name="Cacute" unicode="&#x106;" horiz-adv-x="1418" 
d="M666 -26q-142 0 -259 56.5t-197.5 156t-115.5 231.5t-14 282t93 282t180.5 231.5t241.5 156t275 56.5q170 0 301.5 -79t207.5 -210l-160 -80q-57 92 -155.5 146.5t-216.5 54.5q-109 0 -209.5 -44t-182.5 -121t-136.5 -178t-70.5 -215q-16 -115 10 -216t86.5 -178
t149 -120.5t195.5 -43.5q123 0 235.5 55.5t194.5 145.5l137 -81q-112 -131 -266 -209.5t-324 -78.5zM840 1510l120 288h168l-176 -288h-112z" />
    <glyph glyph-name="cacute" unicode="&#x107;" horiz-adv-x="1019" 
d="M748 264l138 -81q-82 -95 -194 -152t-234 -57q-138 0 -241.5 71t-154 190.5t-30.5 264.5q15 110 67.5 205.5t131.5 168t175.5 113.5t199.5 41q122 0 218.5 -57t151.5 -153l-162 -81q-40 59 -101 91t-130 32q-94 0 -176 -49.5t-137.5 -131.5t-69.5 -179t19 -178.5
t101.5 -130.5t160.5 -49q75 0 145 34t122 88zM576 1110l120 288h168l-176 -288h-112z" />
    <glyph glyph-name="Ccircumflex" unicode="&#x108;" horiz-adv-x="1418" 
d="M666 -26q-142 0 -259 56.5t-197.5 156t-115.5 231.5t-14 282t93 282t180.5 231.5t241.5 156t275 56.5q170 0 301.5 -79t207.5 -210l-160 -80q-57 92 -155.5 146.5t-216.5 54.5q-109 0 -209.5 -44t-182.5 -121t-136.5 -178t-70.5 -215q-16 -115 10 -216t86.5 -178
t149 -120.5t195.5 -43.5q123 0 235.5 55.5t194.5 145.5l137 -81q-112 -131 -266 -209.5t-324 -78.5zM1015 1798l153 -288h-112l-147 200l-199 -200h-112l231 288h186z" />
    <glyph glyph-name="ccircumflex" unicode="&#x109;" horiz-adv-x="1019" 
d="M748 264l138 -81q-82 -95 -194 -152t-234 -57q-138 0 -241.5 71t-154 190.5t-30.5 264.5q15 110 67.5 205.5t131.5 168t175.5 113.5t199.5 41q122 0 218.5 -57t151.5 -153l-162 -81q-40 59 -101 91t-130 32q-94 0 -176 -49.5t-137.5 -131.5t-69.5 -179t19 -178.5
t101.5 -130.5t160.5 -49q75 0 145 34t122 88zM751 1398l153 -288h-112l-147 200l-199 -200h-112l231 288h186z" />
    <glyph glyph-name="Cdotaccent" unicode="&#x10a;" horiz-adv-x="1418" 
d="M666 -26q-142 0 -259 56.5t-197.5 156t-115.5 231.5t-14 282t93 282t180.5 231.5t241.5 156t275 56.5q170 0 301.5 -79t207.5 -210l-160 -80q-57 92 -155.5 146.5t-216.5 54.5q-109 0 -209.5 -44t-182.5 -121t-136.5 -178t-70.5 -215q-16 -115 10 -216t86.5 -178
t149 -120.5t195.5 -43.5q123 0 235.5 55.5t194.5 145.5l137 -81q-112 -131 -266 -209.5t-324 -78.5zM891 1563q-40 0 -63.5 26t-17.5 65t36.5 65t69.5 26q38 0 61.5 -26t18.5 -65q-6 -39 -36 -65t-69 -26z" />
    <glyph glyph-name="cdotaccent" unicode="&#x10b;" horiz-adv-x="1019" 
d="M748 264l138 -81q-82 -95 -194 -152t-234 -57q-138 0 -241.5 71t-154 190.5t-30.5 264.5q15 110 67.5 205.5t131.5 168t175.5 113.5t199.5 41q122 0 218.5 -57t151.5 -153l-162 -81q-40 59 -101 91t-130 32q-94 0 -176 -49.5t-137.5 -131.5t-69.5 -179t19 -178.5
t101.5 -130.5t160.5 -49q75 0 145 34t122 88zM627 1163q-40 0 -63.5 26t-17.5 65t36.5 65t69.5 26q38 0 61.5 -26t18.5 -65q-6 -39 -36 -65t-69 -26z" />
    <glyph glyph-name="Ccaron" unicode="&#x10c;" horiz-adv-x="1418" 
d="M666 -26q-142 0 -259 56.5t-197.5 156t-115.5 231.5t-14 282t93 282t180.5 231.5t241.5 156t275 56.5q170 0 301.5 -79t207.5 -210l-160 -80q-57 92 -155.5 146.5t-216.5 54.5q-109 0 -209.5 -44t-182.5 -121t-136.5 -178t-70.5 -215q-16 -115 10 -216t86.5 -178
t149 -120.5t195.5 -43.5q123 0 235.5 55.5t194.5 145.5l137 -81q-112 -131 -266 -209.5t-324 -78.5zM789 1510l-153 288h112l147 -200l198 200h113l-231 -288h-186z" />
    <glyph glyph-name="ccaron" unicode="&#x10d;" horiz-adv-x="1019" 
d="M748 264l138 -81q-82 -95 -194 -152t-234 -57q-138 0 -241.5 71t-154 190.5t-30.5 264.5q15 110 67.5 205.5t131.5 168t175.5 113.5t199.5 41q122 0 218.5 -57t151.5 -153l-162 -81q-40 59 -101 91t-130 32q-94 0 -176 -49.5t-137.5 -131.5t-69.5 -179t19 -178.5
t101.5 -130.5t160.5 -49q75 0 145 34t122 88zM525 1110l-153 288h112l147 -200l198 200h113l-231 -288h-186z" />
    <glyph glyph-name="Dcaron" unicode="&#x10e;" horiz-adv-x="1343" 
d="M22 0l196 1400h463q145 0 264.5 -54.5t202 -151t119 -223t16.5 -271.5t-92 -271.5t-182 -223t-244.5 -151t-279.5 -54.5h-463zM213 168h295q110 0 212 41.5t186 114.5t139 169.5t70 206.5t-13 206.5t-90.5 169.5t-153.5 114.5t-201 41.5h-294zM673 1510l-153 288h112
l147 -200l198 200h113l-231 -288h-186z" />
    <glyph glyph-name="dcaron" unicode="&#x10f;" horiz-adv-x="1213" 
d="M1037 1500h168l-210 -1500h-168l24 170q-63 -88 -157 -142t-210 -54q-109 0 -198.5 41t-151.5 113.5t-89.5 167.5t-12.5 204t69.5 204.5t137 168t183.5 113.5t210 41q116 0 194.5 -54t116.5 -142zM508 137q99 0 178.5 48.5t131 131.5t65.5 183q14 102 -14.5 184.5
t-94 131t-163.5 48.5q-99 0 -186.5 -49t-147 -131.5t-73.5 -183.5t23 -183.5t111.5 -131t169.5 -48.5zM1243 1212l120 288h168l-176 -288h-112z" />
    <glyph glyph-name="Emacron" unicode="&#x112;" horiz-adv-x="1079" 
d="M22 0l196 1400h859l-23 -168h-691l-56 -398h566l-23 -168h-567l-70 -498h691l-23 -168h-859zM341 1695h676l-19 -132h-676z" />
    <glyph glyph-name="emacron" unicode="&#x113;" horiz-adv-x="1117" 
d="M458 -26q-138 0 -241.5 71t-154 190.5t-30.5 264.5q15 110 67.5 205.5t131.5 168t175.5 113.5t199.5 41q113 0 201 -45.5t144 -126.5t75 -188t-8 -229h-815q-1 -85 34 -151.5t97.5 -105.5t146.5 -40q90 0 170 46.5t136 127.5l165 -40q-79 -133 -211.5 -217.5
t-282.5 -84.5zM216 571h651q4 84 -32 153.5t-100.5 111.5t-148.5 42q-85 0 -160.5 -41t-131 -110.5t-78.5 -155.5zM305 1295h676l-19 -132h-676z" />
    <glyph glyph-name="Edotaccent" unicode="&#x116;" horiz-adv-x="1079" 
d="M22 0l196 1400h859l-23 -168h-691l-56 -398h566l-23 -168h-567l-70 -498h691l-23 -168h-859zM662 1563q-40 0 -63.5 26t-17.5 65t36.5 65t69.5 26q38 0 61.5 -26t18.5 -65q-6 -39 -36 -65t-69 -26z" />
    <glyph glyph-name="edotaccent" unicode="&#x117;" horiz-adv-x="1117" 
d="M458 -26q-138 0 -241.5 71t-154 190.5t-30.5 264.5q15 110 67.5 205.5t131.5 168t175.5 113.5t199.5 41q113 0 201 -45.5t144 -126.5t75 -188t-8 -229h-815q-1 -85 34 -151.5t97.5 -105.5t146.5 -40q90 0 170 46.5t136 127.5l165 -40q-79 -133 -211.5 -217.5
t-282.5 -84.5zM216 571h651q4 84 -32 153.5t-100.5 111.5t-148.5 42q-85 0 -160.5 -41t-131 -110.5t-78.5 -155.5zM626 1163q-40 0 -63.5 26t-17.5 65t36.5 65t69.5 26q38 0 61.5 -26t18.5 -65q-6 -39 -36 -65t-69 -26z" />
    <glyph glyph-name="Eogonek" unicode="&#x118;" horiz-adv-x="1079" 
d="M22 0l196 1400h859l-23 -168h-691l-56 -398h566l-23 -168h-567l-70 -498h691l-23 -168h-859zM587 -418q-59 1 -99 29.5t-57.5 73.5t-10.5 95q6 38 24.5 73.5t52.5 65.5l192 168l75 -87q-58 -50 -98 -84t-64.5 -58t-36.5 -43.5t-15 -39.5q-3 -27 12 -49t48 -24q38 0 73 28
t42 73h116q-8 -61 -45 -111.5t-92 -80t-117 -29.5z" />
    <glyph glyph-name="eogonek" unicode="&#x119;" horiz-adv-x="1117" 
d="M458 -26q-138 0 -241.5 71t-154 190.5t-30.5 264.5q15 110 67.5 205.5t131.5 168t175.5 113.5t199.5 41q113 0 201 -45.5t144 -126.5t75 -188t-8 -229h-815q-1 -85 34 -151.5t97.5 -105.5t146.5 -40q90 0 170 46.5t136 127.5l165 -40q-79 -133 -211.5 -217.5
t-282.5 -84.5zM216 571h651q4 84 -32 153.5t-100.5 111.5t-148.5 42q-85 0 -160.5 -41t-131 -110.5t-78.5 -155.5zM441 -418q-59 1 -99 29.5t-57.5 73.5t-10.5 95q6 38 24.5 73.5t52.5 65.5l192 168l75 -87q-58 -50 -98 -84t-64.5 -58t-36.5 -43.5t-15 -39.5q-3 -27 12 -49
t48 -24q38 0 73 28t42 73h116q-8 -61 -45 -111.5t-92 -80t-117 -29.5z" />
    <glyph glyph-name="Ecaron" unicode="&#x11a;" horiz-adv-x="1079" 
d="M22 0l196 1400h859l-23 -168h-691l-56 -398h566l-23 -168h-567l-70 -498h691l-23 -168h-859zM560 1510l-153 288h112l147 -200l198 200h113l-231 -288h-186z" />
    <glyph glyph-name="ecaron" unicode="&#x11b;" horiz-adv-x="1117" 
d="M458 -26q-138 0 -241.5 71t-154 190.5t-30.5 264.5q15 110 67.5 205.5t131.5 168t175.5 113.5t199.5 41q113 0 201 -45.5t144 -126.5t75 -188t-8 -229h-815q-1 -85 34 -151.5t97.5 -105.5t146.5 -40q90 0 170 46.5t136 127.5l165 -40q-79 -133 -211.5 -217.5
t-282.5 -84.5zM216 571h651q4 84 -32 153.5t-100.5 111.5t-148.5 42q-85 0 -160.5 -41t-131 -110.5t-78.5 -155.5zM524 1110l-153 288h112l147 -200l198 200h113l-231 -288h-186z" />
    <glyph glyph-name="Gcircumflex" unicode="&#x11c;" horiz-adv-x="1536" 
d="M667 -26q-145 0 -262.5 56.5t-197 157t-114 232t-13.5 281.5q21 155 95 287t184.5 230t243 152.5t271.5 54.5q158 0 290.5 -74t216.5 -214l-162 -81q-64 98 -161.5 150t-208.5 52q-106 0 -207 -43t-184 -120t-138.5 -178t-71.5 -219q-16 -115 10.5 -216t87 -177.5
t149.5 -119.5t197 -43q86 0 168 29t154 82t129 125t93 158h-344l21 150h542q-23 -147 -95.5 -276t-180.5 -227t-239.5 -153.5t-272.5 -55.5zM1017 1798l153 -288h-112l-147 200l-199 -200h-112l231 288h186z" />
    <glyph glyph-name="gcircumflex" unicode="&#x11d;" horiz-adv-x="1189" 
d="M943 1000h168l-145 -1032q-13 -99 -67.5 -184.5t-136 -149t-178.5 -99t-197 -35.5q-104 0 -194.5 46.5t-151.5 124t-80 173.5l164 70q9 -69 50.5 -124.5t103.5 -88t132 -32.5q66 0 131 23t120 63.5t91.5 95t44.5 117.5l28 199q-62 -86 -153.5 -139.5t-202.5 -53.5
q-106 0 -193 41t-147 113.5t-86.5 167.5t-11.5 204t68.5 204.5t134 168t179 113.5t204.5 41q111 0 187 -53t115 -140zM494 137q96 0 174.5 50t130 133t64.5 180q14 100 -14 182.5t-92.5 132t-159.5 49.5q-96 0 -180.5 -49t-141.5 -131.5t-71 -183.5t20.5 -183.5t105.5 -131
t164 -48.5zM786 1398l153 -288h-112l-147 200l-199 -200h-112l231 288h186z" />
    <glyph glyph-name="Gbreve" unicode="&#x11e;" horiz-adv-x="1536" 
d="M667 -26q-145 0 -262.5 56.5t-197 157t-114 232t-13.5 281.5q21 155 95 287t184.5 230t243 152.5t271.5 54.5q158 0 290.5 -74t216.5 -214l-162 -81q-64 98 -161.5 150t-208.5 52q-106 0 -207 -43t-184 -120t-138.5 -178t-71.5 -219q-16 -115 10.5 -216t87 -177.5
t149.5 -119.5t197 -43q86 0 168 29t154 82t129 125t93 158h-344l21 150h542q-23 -147 -95.5 -276t-180.5 -227t-239.5 -153.5t-272.5 -55.5zM881 1488q-91 0 -160 45t-103.5 120.5t-22.5 166.5h114q-8 -61 15 -110.5t69 -78.5t104 -29q59 0 112.5 29t90.5 79t45 110h114
q-13 -93 -69 -168.5t-137.5 -119.5t-171.5 -44z" />
    <glyph glyph-name="gbreve" unicode="&#x11f;" horiz-adv-x="1189" 
d="M943 1000h168l-145 -1032q-13 -99 -67.5 -184.5t-136 -149t-178.5 -99t-197 -35.5q-104 0 -194.5 46.5t-151.5 124t-80 173.5l164 70q9 -69 50.5 -124.5t103.5 -88t132 -32.5q66 0 131 23t120 63.5t91.5 95t44.5 117.5l28 199q-62 -86 -153.5 -139.5t-202.5 -53.5
q-106 0 -193 41t-147 113.5t-86.5 167.5t-11.5 204t68.5 204.5t134 168t179 113.5t204.5 41q111 0 187 -53t115 -140zM494 137q96 0 174.5 50t130 133t64.5 180q14 100 -14 182.5t-92.5 132t-159.5 49.5q-96 0 -180.5 -49t-141.5 -131.5t-71 -183.5t20.5 -183.5t105.5 -131
t164 -48.5zM650 1088q-91 0 -160 45t-103.5 120.5t-22.5 166.5h114q-8 -61 15 -110.5t69 -78.5t104 -29q59 0 112.5 29t90.5 79t45 110h114q-13 -93 -69 -168.5t-137.5 -119.5t-171.5 -44z" />
    <glyph glyph-name="Gdotaccent" unicode="&#x120;" horiz-adv-x="1536" 
d="M667 -26q-145 0 -262.5 56.5t-197 157t-114 232t-13.5 281.5q21 155 95 287t184.5 230t243 152.5t271.5 54.5q158 0 290.5 -74t216.5 -214l-162 -81q-64 98 -161.5 150t-208.5 52q-106 0 -207 -43t-184 -120t-138.5 -178t-71.5 -219q-16 -115 10.5 -216t87 -177.5
t149.5 -119.5t197 -43q86 0 168 29t154 82t129 125t93 158h-344l21 150h542q-23 -147 -95.5 -276t-180.5 -227t-239.5 -153.5t-272.5 -55.5zM892 1563q-40 0 -63.5 26t-17.5 65t36.5 65t69.5 26q38 0 61.5 -26t18.5 -65q-6 -39 -36 -65t-69 -26z" />
    <glyph glyph-name="gdotaccent" unicode="&#x121;" horiz-adv-x="1189" 
d="M943 1000h168l-145 -1032q-13 -99 -67.5 -184.5t-136 -149t-178.5 -99t-197 -35.5q-104 0 -194.5 46.5t-151.5 124t-80 173.5l164 70q9 -69 50.5 -124.5t103.5 -88t132 -32.5q66 0 131 23t120 63.5t91.5 95t44.5 117.5l28 199q-62 -86 -153.5 -139.5t-202.5 -53.5
q-106 0 -193 41t-147 113.5t-86.5 167.5t-11.5 204t68.5 204.5t134 168t179 113.5t204.5 41q111 0 187 -53t115 -140zM494 137q96 0 174.5 50t130 133t64.5 180q14 100 -14 182.5t-92.5 132t-159.5 49.5q-96 0 -180.5 -49t-141.5 -131.5t-71 -183.5t20.5 -183.5t105.5 -131
t164 -48.5zM661 1163q-40 0 -63.5 26t-17.5 65t36.5 65t69.5 26q38 0 61.5 -26t18.5 -65q-6 -39 -36 -65t-69 -26z" />
    <glyph glyph-name="uni0122" unicode="&#x122;" horiz-adv-x="1536" 
d="M667 -26q-145 0 -262.5 56.5t-197 157t-114 232t-13.5 281.5q21 155 95 287t184.5 230t243 152.5t271.5 54.5q158 0 290.5 -74t216.5 -214l-162 -81q-64 98 -161.5 150t-208.5 52q-106 0 -207 -43t-184 -120t-138.5 -178t-71.5 -219q-16 -115 10.5 -216t87 -177.5
t149.5 -119.5t197 -43q86 0 168 29t154 82t129 125t93 158h-344l21 150h542q-23 -147 -95.5 -276t-180.5 -227t-239.5 -153.5t-272.5 -55.5zM462 -441l109 338h168l-165 -338h-112z" />
    <glyph glyph-name="Hcircumflex" unicode="&#x124;" horiz-adv-x="1269" 
d="M1079 1400h168l-196 -1400h-168l93 666h-693l-93 -666h-168l196 1400h168l-79 -566h692zM881 1798l153 -288h-112l-147 200l-199 -200h-112l231 288h186z" />
    <glyph glyph-name="hcircumflex" unicode="&#x125;" horiz-adv-x="1085" 
d="M993 622l-86 -622h-168l81 585q11 76 -17 138t-85 98.5t-133 36.5t-143 -36.5t-112.5 -98.5t-56.5 -138l-82 -585h-168l210 1500h168l-87 -625q63 70 149.5 111.5t181.5 41.5q112 0 196.5 -54.5t126 -146.5t25.5 -205zM832 1823l153 -288h-112l-147 200l-199 -200h-112
l231 288h186z" />
    <glyph glyph-name="Itilde" unicode="&#x128;" horiz-adv-x="468" 
d="M52 0l196 1400h168l-196 -1400h-168zM504 1524q-37 0 -80 24t-85.5 55t-78 51.5t-58.5 12.5q-24 -8 -39 -33t-11 -62l-111 -29q-13 62 8.5 117.5t69 89.5t110.5 34q38 0 80.5 -22t85 -50.5t78 -50t58.5 -21.5q22 0 34.5 16.5t17.5 38.5t1 39l112 35q13 -66 -10.5 -121.5
t-71 -89.5t-110.5 -34z" />
    <glyph glyph-name="itilde" unicode="&#x129;" 
d="M374 1099q-28 0 -60 19.5t-63.5 44t-58 41t-43.5 10.5q-18 -7 -29 -27t-8 -49l-84 -24q-10 50 6.5 94t52 72t82.5 28q28 0 60 -17.5t64 -40.5t58.5 -40.5t42.5 -17.5q24 0 33.5 27.5t4.5 47.5l85 28q14 -79 -30 -137.5t-113 -58.5zM162 1000h168l-140 -1000h-168z" />
    <glyph glyph-name="Imacron" unicode="&#x12a;" horiz-adv-x="468" 
d="M52 0l196 1400h168l-196 -1400h-168zM36 1695h676l-19 -132h-676z" />
    <glyph glyph-name="imacron" unicode="&#x12b;" 
d="M67 1295h408l-12 -132h-408zM162 1000h168l-140 -1000h-168z" />
    <glyph glyph-name="Iogonek" unicode="&#x12e;" horiz-adv-x="468" 
d="M52 0l196 1400h168l-196 -1400h-168zM43 -418q-59 1 -99 29.5t-57.5 73.5t-10.5 95q6 38 24.5 73.5t52.5 65.5l192 168l75 -87q-58 -50 -98 -84t-64.5 -58t-36.5 -43.5t-15 -39.5q-3 -27 12 -49t48 -24q38 0 73 28t42 73h116q-8 -61 -45 -111.5t-92 -80t-117 -29.5z" />
    <glyph glyph-name="iogonek" unicode="&#x12f;" 
d="M162 1000h168l-140 -1000h-168zM271 1163q-40 0 -63.5 26t-17.5 65t36.5 65t69.5 26q38 0 61.5 -26t18.5 -65q-6 -39 -36 -65t-69 -26zM13 -418q-59 1 -99 29.5t-57.5 73.5t-10.5 95q6 38 24.5 73.5t52.5 65.5l192 168l75 -87q-58 -50 -98 -84t-64.5 -58t-36.5 -43.5
t-15 -39.5q-3 -27 12 -49t48 -24q38 0 73 28t42 73h116q-8 -61 -45 -111.5t-92 -80t-117 -29.5z" />
    <glyph glyph-name="Idotaccent" unicode="&#x130;" horiz-adv-x="468" 
d="M52 0l196 1400h168l-196 -1400h-168zM357 1563q-40 0 -63.5 26t-17.5 65t36.5 65t69.5 26q38 0 61.5 -26t18.5 -65q-6 -39 -36 -65t-69 -26z" />
    <glyph glyph-name="dotlessi" unicode="&#x131;" 
d="M162 1000h168l-140 -1000h-168z" />
    <glyph glyph-name="IJ" unicode="&#x132;" horiz-adv-x="1294" 
d="M52 0l196 1400h168l-196 -1400h-168zM665 -26q-70 0 -134 23.5t-112 70.5l126 130q25 -25 61.5 -40.5t81.5 -15.5q66 0 125.5 35t99.5 92t50 122l141 1009h168l-142 -1009q-15 -112 -83.5 -206.5t-168.5 -152.5t-213 -58z" />
    <glyph glyph-name="ij" unicode="&#x133;" horiz-adv-x="826" 
d="M162 1000h168l-140 -1000h-168zM271 1163q-40 0 -63.5 26t-17.5 65t36.5 65t69.5 26q38 0 61.5 -26t18.5 -65q-6 -39 -36 -65t-69 -26zM124 -500l24 168q70 0 130 31t100 85.5t49 121.5l153 1094h168l-153 -1094q-15 -112 -83 -204t-169 -147t-219 -55zM689 1163
q-40 0 -63.5 26t-17.5 65t36.5 65t69.5 26q38 0 61.5 -26t18.5 -65q-6 -39 -36 -65t-69 -26z" />
    <glyph glyph-name="Jcircumflex" unicode="&#x134;" horiz-adv-x="826" 
d="M197 -26q-70 0 -134 23.5t-112 70.5l126 130q25 -25 61.5 -40.5t81.5 -15.5q66 0 125.5 35t99.5 92t50 122l141 1009h168l-142 -1009q-15 -112 -83.5 -206.5t-168.5 -152.5t-213 -58zM869 1798l153 -288h-112l-147 200l-199 -200h-112l231 288h186z" />
    <glyph glyph-name="jcircumflex" unicode="&#x135;" horiz-adv-x="453" 
d="M-249 -500l24 168q70 0 130 31t100 85.5t49 121.5l153 1094h168l-153 -1094q-15 -112 -83 -204t-169 -147t-219 -55zM441 1398l153 -288h-112l-147 200l-199 -200h-112l231 288h186z" />
    <glyph glyph-name="uni0136" unicode="&#x136;" horiz-adv-x="1095" 
d="M954 0h-217l-357 607l-123 -126l-67 -481h-168l196 1400h168l-93 -658l644 658h219l-647 -661zM241 -441l109 338h168l-165 -338h-112z" />
    <glyph glyph-name="uni0137" unicode="&#x137;" horiz-adv-x="1007" 
d="M834 0h-193l-202 459l-215 -220l-33 -239h-168l210 1500h168l-141 -1000l490 500h219l-396 -405zM190 -441l109 338h168l-165 -338h-112z" />
    <glyph glyph-name="Lacute" unicode="&#x139;" horiz-adv-x="1015" 
d="M22 0l196 1400h168l-173 -1232h628l-24 -168h-795zM276 1510l120 288h168l-176 -288h-112z" />
    <glyph glyph-name="lacute" unicode="&#x13a;" 
d="M23 0l210 1500h168l-210 -1500h-168zM291 1610l120 288h168l-176 -288h-112z" />
    <glyph glyph-name="uni013B" unicode="&#x13b;" horiz-adv-x="1015" 
d="M22 0l196 1400h168l-173 -1232h628l-24 -168h-795zM212 -441l109 338h168l-165 -338h-112z" />
    <glyph glyph-name="uni013C" unicode="&#x13c;" 
d="M23 0l210 1500h168l-210 -1500h-168zM-101 -441l109 338h168l-165 -338h-112z" />
    <glyph glyph-name="Lcaron" unicode="&#x13d;" horiz-adv-x="1015" 
d="M22 0l196 1400h168l-173 -1232h628l-24 -168h-795zM638 1212l120 288h168l-176 -288h-112z" />
    <glyph glyph-name="lcaron" unicode="&#x13e;" 
d="M23 0l210 1500h168l-210 -1500h-168zM434 1212l120 288h168l-176 -288h-112z" />
    <glyph glyph-name="Nacute" unicode="&#x143;" horiz-adv-x="1289" 
d="M22 0l196 1400h182l546 -1096l153 1096h168l-196 -1400h-181l-546 1096l-154 -1096h-168zM717 1510l120 288h168l-176 -288h-112z" />
    <glyph glyph-name="nacute" unicode="&#x144;" horiz-adv-x="1084" 
d="M992 622l-86 -622h-168l81 585q11 76 -17 138t-85 98.5t-133 36.5t-143 -36.5t-112.5 -98.5t-56.5 -138l-82 -585h-168l140 1000h168l-17 -125q63 70 149.5 111.5t181.5 41.5q112 0 196.5 -54.5t126 -146.5t25.5 -205zM587 1110l120 288h168l-176 -288h-112z" />
    <glyph glyph-name="uni0145" unicode="&#x145;" horiz-adv-x="1289" 
d="M22 0l196 1400h182l546 -1096l153 1096h168l-196 -1400h-181l-546 1096l-154 -1096h-168zM338 -441l109 338h168l-165 -338h-112z" />
    <glyph glyph-name="uni0146" unicode="&#x146;" horiz-adv-x="1084" 
d="M992 622l-86 -622h-168l81 585q11 76 -17 138t-85 98.5t-133 36.5t-143 -36.5t-112.5 -98.5t-56.5 -138l-82 -585h-168l140 1000h168l-17 -125q63 70 149.5 111.5t181.5 41.5q112 0 196.5 -54.5t126 -146.5t25.5 -205zM256 -441l109 338h168l-165 -338h-112z" />
    <glyph glyph-name="Ncaron" unicode="&#x147;" horiz-adv-x="1289" 
d="M22 0l196 1400h182l546 -1096l153 1096h168l-196 -1400h-181l-546 1096l-154 -1096h-168zM665 1510l-153 288h112l147 -200l198 200h113l-231 -288h-186z" />
    <glyph glyph-name="ncaron" unicode="&#x148;" horiz-adv-x="1084" 
d="M992 622l-86 -622h-168l81 585q11 76 -17 138t-85 98.5t-133 36.5t-143 -36.5t-112.5 -98.5t-56.5 -138l-82 -585h-168l140 1000h168l-17 -125q63 70 149.5 111.5t181.5 41.5q112 0 196.5 -54.5t126 -146.5t25.5 -205zM536 1110l-153 288h112l147 -200l198 200h113
l-231 -288h-186z" />
    <glyph glyph-name="Omacron" unicode="&#x14c;" horiz-adv-x="1540" 
d="M668 -26q-142 0 -259.5 56.5t-198 156.5t-116 231.5t-14.5 281.5t93 281.5t181.5 231.5t242.5 156.5t275 56.5q143 0 260 -56.5t197.5 -156.5t116 -231.5t14.5 -281.5t-93 -281.5t-181.5 -231.5t-242 -156.5t-275.5 -56.5zM691 142q109 0 209.5 44t183 121.5t137.5 178
t71 214.5t-10.5 215.5t-87 178t-149 120.5t-196.5 44q-109 0 -209.5 -44t-183 -121.5t-137.5 -178t-71 -214.5q-16 -115 10.5 -216t87 -178t149 -120.5t196.5 -43.5zM572 1695h676l-19 -132h-676z" />
    <glyph glyph-name="omacron" unicode="&#x14d;" horiz-adv-x="1120" 
d="M458 -26q-138 0 -241.5 71t-154 190.5t-30.5 264.5q15 110 67.5 205.5t131.5 168t175.5 113.5t199.5 41q138 0 241.5 -71t154.5 -191t30 -266q-15 -109 -67.5 -204t-131.5 -167.5t-175 -113.5t-200 -41zM481 142q94 0 176 49.5t138 131t69 177.5q14 98 -19 180t-101 131
t-161 49q-94 0 -176 -49.5t-137.5 -131.5t-69.5 -179q-14 -100 19.5 -181.5t102.5 -129t159 -47.5zM306 1295h676l-19 -132h-676z" />
    <glyph glyph-name="Ohungarumlaut" unicode="&#x150;" horiz-adv-x="1540" 
d="M668 -26q-142 0 -259.5 56.5t-198 156.5t-116 231.5t-14.5 281.5t93 281.5t181.5 231.5t242.5 156.5t275 56.5q143 0 260 -56.5t197.5 -156.5t116 -231.5t14.5 -281.5t-93 -281.5t-181.5 -231.5t-242 -156.5t-275.5 -56.5zM691 142q109 0 209.5 44t183 121.5t137.5 178
t71 214.5t-10.5 215.5t-87 178t-149 120.5t-196.5 44q-109 0 -209.5 -44t-183 -121.5t-137.5 -178t-71 -214.5q-16 -115 10.5 -216t87 -178t149 -120.5t196.5 -43.5zM997 1510l120 288h168l-176 -288h-112zM706 1510l120 288h168l-176 -288h-112z" />
    <glyph glyph-name="ohungarumlaut" unicode="&#x151;" horiz-adv-x="1120" 
d="M458 -26q-138 0 -241.5 71t-154 190.5t-30.5 264.5q15 110 67.5 205.5t131.5 168t175.5 113.5t199.5 41q138 0 241.5 -71t154.5 -191t30 -266q-15 -109 -67.5 -204t-131.5 -167.5t-175 -113.5t-200 -41zM481 142q94 0 176 49.5t138 131t69 177.5q14 98 -19 180t-101 131
t-161 49q-94 0 -176 -49.5t-137.5 -131.5t-69.5 -179q-14 -100 19.5 -181.5t102.5 -129t159 -47.5zM731 1110l120 288h168l-176 -288h-112zM440 1110l120 288h168l-176 -288h-112z" />
    <glyph glyph-name="OE" unicode="&#x152;" horiz-adv-x="2156" 
d="M668 -26q-142 0 -259.5 56.5t-198 156.5t-116 231.5t-14.5 281.5t93 281.5t181.5 231.5t242.5 156.5t275 56.5q110 0 203.5 -37.5t165 -103.5t113.5 -154l38 269h762l-23 -168h-594l-64 -448h499l-23 -168h-499l-63 -448h595l-24 -168h-762l37 269q-67 -87 -157 -153.5
t-194 -104t-214 -37.5zM691 142q109 0 209.5 44t183 121.5t137.5 178t71 214.5t-10.5 215.5t-87 178t-149 120.5t-196.5 44q-109 0 -209.5 -44t-183 -121.5t-137.5 -178t-71 -214.5q-16 -115 10.5 -216t87 -178t149 -120.5t196.5 -43.5z" />
    <glyph glyph-name="oe" unicode="&#x153;" horiz-adv-x="1949" 
d="M458 -26q-138 0 -241.5 71t-154 190.5t-30.5 264.5q15 110 67.5 205.5t131.5 168t175.5 113.5t199.5 41q90 0 165.5 -32.5t130.5 -91t83 -135.5q52 77 123 135.5t156 91t174 32.5q112 0 200 -45.5t144.5 -126t75 -187.5t-7.5 -230h-815q-1 -85 34 -151.5t97.5 -105.5
t146.5 -40q90 0 170 46.5t136 127.5l165 -40q-79 -133 -211.5 -217.5t-282.5 -84.5q-89 0 -165 32.5t-130.5 91t-83.5 134.5q-50 -76 -122 -134.5t-156.5 -91t-174.5 -32.5zM481 142q94 0 176 49.5t138 131t69 177.5q14 98 -19 180t-101 131t-161 49q-94 0 -176 -49.5
t-137.5 -131.5t-69.5 -179q-14 -100 19.5 -181.5t102.5 -129t159 -47.5zM1047 572h651q4 83 -31.5 153t-100 111.5t-148.5 41.5q-85 0 -161 -41t-131.5 -110t-78.5 -155z" />
    <glyph glyph-name="Racute" unicode="&#x154;" horiz-adv-x="1141" 
d="M22 0l196 1400h492q112 0 195 -55t123 -148.5t24 -208.5q-13 -101 -65 -184t-129.5 -138.5t-169.5 -76.5l259 -589h-194l-253 575h-230l-80 -575h-168zM294 743h307q68 0 129.5 33.5t103.5 91t52 129.5q11 73 -15 130.5t-78 91t-120 33.5h-307zM524 1510l120 288h168
l-176 -288h-112z" />
    <glyph glyph-name="racute" unicode="&#x155;" horiz-adv-x="730" 
d="M22 0l140 1000h168l-17 -125q63 70 149.5 111.5t181.5 41.5q58 0 110 -15l-92 -168q-38 13 -78 13q-76 0 -143 -36.5t-112.5 -98.5t-56.5 -138l-82 -585h-168zM423 1110l120 288h168l-176 -288h-112z" />
    <glyph glyph-name="uni0156" unicode="&#x156;" horiz-adv-x="1141" 
d="M22 0l196 1400h492q112 0 195 -55t123 -148.5t24 -208.5q-13 -101 -65 -184t-129.5 -138.5t-169.5 -76.5l259 -589h-194l-253 575h-230l-80 -575h-168zM294 743h307q68 0 129.5 33.5t103.5 91t52 129.5q11 73 -15 130.5t-78 91t-120 33.5h-307zM257 -441l109 338h168
l-165 -338h-112z" />
    <glyph glyph-name="uni0157" unicode="&#x157;" horiz-adv-x="730" 
d="M22 0l140 1000h168l-17 -125q63 70 149.5 111.5t181.5 41.5q58 0 110 -15l-92 -168q-38 13 -78 13q-76 0 -143 -36.5t-112.5 -98.5t-56.5 -138l-82 -585h-168zM-102 -441l109 338h168l-165 -338h-112z" />
    <glyph glyph-name="Rcaron" unicode="&#x158;" horiz-adv-x="1141" 
d="M22 0l196 1400h492q112 0 195 -55t123 -148.5t24 -208.5q-13 -101 -65 -184t-129.5 -138.5t-169.5 -76.5l259 -589h-194l-253 575h-230l-80 -575h-168zM294 743h307q68 0 129.5 33.5t103.5 91t52 129.5q11 73 -15 130.5t-78 91t-120 33.5h-307zM473 1510l-153 288h112
l147 -200l198 200h113l-231 -288h-186z" />
    <glyph glyph-name="rcaron" unicode="&#x159;" horiz-adv-x="730" 
d="M22 0l140 1000h168l-17 -125q63 70 149.5 111.5t181.5 41.5q58 0 110 -15l-92 -168q-38 13 -78 13q-76 0 -143 -36.5t-112.5 -98.5t-56.5 -138l-82 -585h-168zM372 1110l-153 288h112l147 -200l198 200h113l-231 -288h-186z" />
    <glyph glyph-name="Sacute" unicode="&#x15a;" horiz-adv-x="1228" 
d="M511 -26q-113 0 -213 35.5t-169 101.5t-89 157l165 59q13 -56 61 -97.5t119 -64.5t150 -23q89 0 171 29.5t137.5 82.5t65.5 124q10 73 -33.5 119.5t-117.5 74t-157 42.5q-141 24 -249.5 68.5t-164 124.5t-37.5 211q17 122 101 213t207 141t257 50q111 0 210.5 -34.5
t170 -100.5t92.5 -161l-167 -58q-12 57 -60.5 98.5t-119.5 64t-150 22.5q-88 1 -170 -29t-137.5 -83t-65.5 -123q-11 -84 27.5 -128.5t112.5 -66.5t167 -39q133 -23 242 -72.5t168 -131.5t42 -202q-17 -122 -100.5 -213t-206.5 -141t-259 -50zM686 1510l120 288h168
l-176 -288h-112z" />
    <glyph glyph-name="sacute" unicode="&#x15b;" horiz-adv-x="862" 
d="M324 -19q-80 3 -153 30.5t-124 75t-68 109.5l153 62q10 -34 44.5 -64t83 -48t100.5 -18q55 0 106 17t86 50.5t41 80.5q8 50 -22 78.5t-78 45t-98 31.5q-99 26 -175 62.5t-114.5 93t-26.5 144.5q13 93 74.5 161t150.5 105t185 37q121 0 213.5 -52t129.5 -141l-146 -79
q-12 36 -43 63.5t-73.5 43.5t-89.5 17q-59 2 -111.5 -15t-87.5 -51.5t-43 -85.5q-7 -50 21.5 -76t79 -41.5t109.5 -35.5q87 -29 160.5 -67t114.5 -95t28 -141q-14 -92 -78 -160.5t-157 -104.5t-192 -32zM447 1110l120 288h168l-176 -288h-112z" />
    <glyph glyph-name="Scircumflex" unicode="&#x15c;" horiz-adv-x="1228" 
d="M511 -26q-113 0 -213 35.5t-169 101.5t-89 157l165 59q13 -56 61 -97.5t119 -64.5t150 -23q89 0 171 29.5t137.5 82.5t65.5 124q10 73 -33.5 119.5t-117.5 74t-157 42.5q-141 24 -249.5 68.5t-164 124.5t-37.5 211q17 122 101 213t207 141t257 50q111 0 210.5 -34.5
t170 -100.5t92.5 -161l-167 -58q-12 57 -60.5 98.5t-119.5 64t-150 22.5q-88 1 -170 -29t-137.5 -83t-65.5 -123q-11 -84 27.5 -128.5t112.5 -66.5t167 -39q133 -23 242 -72.5t168 -131.5t42 -202q-17 -122 -100.5 -213t-206.5 -141t-259 -50zM861 1798l153 -288h-112
l-147 200l-199 -200h-112l231 288h186z" />
    <glyph glyph-name="scircumflex" unicode="&#x15d;" horiz-adv-x="862" 
d="M324 -19q-80 3 -153 30.5t-124 75t-68 109.5l153 62q10 -34 44.5 -64t83 -48t100.5 -18q55 0 106 17t86 50.5t41 80.5q8 50 -22 78.5t-78 45t-98 31.5q-99 26 -175 62.5t-114.5 93t-26.5 144.5q13 93 74.5 161t150.5 105t185 37q121 0 213.5 -52t129.5 -141l-146 -79
q-12 36 -43 63.5t-73.5 43.5t-89.5 17q-59 2 -111.5 -15t-87.5 -51.5t-43 -85.5q-7 -50 21.5 -76t79 -41.5t109.5 -35.5q87 -29 160.5 -67t114.5 -95t28 -141q-14 -92 -78 -160.5t-157 -104.5t-192 -32zM622 1398l153 -288h-112l-147 200l-199 -200h-112l231 288h186z" />
    <glyph glyph-name="Scedilla" unicode="&#x15e;" horiz-adv-x="1228" 
d="M511 -26q-113 0 -213 35.5t-169 101.5t-89 157l165 59q13 -56 61 -97.5t119 -64.5t150 -23q89 0 171 29.5t137.5 82.5t65.5 124q10 73 -33.5 119.5t-117.5 74t-157 42.5q-141 24 -249.5 68.5t-164 124.5t-37.5 211q17 122 101 213t207 141t257 50q111 0 210.5 -34.5
t170 -100.5t92.5 -161l-167 -58q-12 57 -60.5 98.5t-119.5 64t-150 22.5q-88 1 -170 -29t-137.5 -83t-65.5 -123q-11 -84 27.5 -128.5t112.5 -66.5t167 -39q133 -23 242 -72.5t168 -131.5t42 -202q-17 -122 -100.5 -213t-206.5 -141t-259 -50zM539 -369q-67 -18 -121.5 16
t-62.5 99l100 26q4 -25 25 -38t47 -6q27 7 43.5 29.5t13.5 48.5q-4 26 -25 38.5t-48 7.5l-105 -11l159 223l80 -51l-50 -71q36 -11 60.5 -40t29.5 -70q8 -66 -34 -125t-112 -76z" />
    <glyph glyph-name="scedilla" unicode="&#x15f;" horiz-adv-x="862" 
d="M324 -19q-80 3 -153 30.5t-124 75t-68 109.5l153 62q10 -34 44.5 -64t83 -48t100.5 -18q55 0 106 17t86 50.5t41 80.5q8 50 -22 78.5t-78 45t-98 31.5q-99 26 -175 62.5t-114.5 93t-26.5 144.5q13 93 74.5 161t150.5 105t185 37q121 0 213.5 -52t129.5 -141l-146 -79
q-12 36 -43 63.5t-73.5 43.5t-89.5 17q-59 2 -111.5 -15t-87.5 -51.5t-43 -85.5q-7 -50 21.5 -76t79 -41.5t109.5 -35.5q87 -29 160.5 -67t114.5 -95t28 -141q-14 -92 -78 -160.5t-157 -104.5t-192 -32zM343 -369q-67 -18 -121.5 16t-62.5 99l100 26q4 -25 25 -38t47 -6
q27 7 43.5 29.5t13.5 48.5q-4 26 -25 38.5t-48 7.5l-105 -11l159 223l80 -51l-50 -71q36 -11 60.5 -40t29.5 -70q8 -66 -34 -125t-112 -76z" />
    <glyph glyph-name="Scaron" unicode="&#x160;" horiz-adv-x="1228" 
d="M511 -26q-113 0 -213 35.5t-169 101.5t-89 157l165 59q13 -56 61 -97.5t119 -64.5t150 -23q89 0 171 29.5t137.5 82.5t65.5 124q10 73 -33.5 119.5t-117.5 74t-157 42.5q-141 24 -249.5 68.5t-164 124.5t-37.5 211q17 122 101 213t207 141t257 50q111 0 210.5 -34.5
t170 -100.5t92.5 -161l-167 -58q-12 57 -60.5 98.5t-119.5 64t-150 22.5q-88 1 -170 -29t-137.5 -83t-65.5 -123q-11 -84 27.5 -128.5t112.5 -66.5t167 -39q133 -23 242 -72.5t168 -131.5t42 -202q-17 -122 -100.5 -213t-206.5 -141t-259 -50zM635 1510l-153 288h112
l147 -200l198 200h113l-231 -288h-186z" />
    <glyph glyph-name="scaron" unicode="&#x161;" horiz-adv-x="862" 
d="M324 -19q-80 3 -153 30.5t-124 75t-68 109.5l153 62q10 -34 44.5 -64t83 -48t100.5 -18q55 0 106 17t86 50.5t41 80.5q8 50 -22 78.5t-78 45t-98 31.5q-99 26 -175 62.5t-114.5 93t-26.5 144.5q13 93 74.5 161t150.5 105t185 37q121 0 213.5 -52t129.5 -141l-146 -79
q-12 36 -43 63.5t-73.5 43.5t-89.5 17q-59 2 -111.5 -15t-87.5 -51.5t-43 -85.5q-7 -50 21.5 -76t79 -41.5t109.5 -35.5q87 -29 160.5 -67t114.5 -95t28 -141q-14 -92 -78 -160.5t-157 -104.5t-192 -32zM396 1110l-153 288h112l147 -200l198 200h113l-231 -288h-186z" />
    <glyph glyph-name="uni0162" unicode="&#x162;" horiz-adv-x="1259" 
d="M1277 1400l-24 -168h-466l-172 -1232h-168l172 1232h-464l23 168h1099zM482 -369q-67 -18 -121.5 16t-62.5 99l100 26q4 -25 25 -38t47 -6q27 7 43.5 29.5t13.5 48.5q-4 26 -25 38.5t-48 7.5l-105 -11l159 223l80 -51l-50 -71q36 -11 60.5 -40t29.5 -70q8 -66 -34 -125
t-112 -76z" />
    <glyph glyph-name="uni0163" unicode="&#x163;" horiz-adv-x="697" 
d="M657 832h-227l-118 -832h-168l118 832h-172l23 168h172l43 314h168l-43 -314h227zM179 -369q-67 -18 -121.5 16t-62.5 99l100 26q4 -25 25 -38t47 -6q27 7 43.5 29.5t13.5 48.5q-4 26 -25 38.5t-48 7.5l-105 -11l159 223l80 -51l-50 -71q36 -11 60.5 -40t29.5 -70
q8 -66 -34 -125t-112 -76z" />
    <glyph glyph-name="Tcaron" unicode="&#x164;" horiz-adv-x="1259" 
d="M1277 1400l-24 -168h-466l-172 -1232h-168l172 1232h-464l23 168h1099zM650 1510l-153 288h112l147 -200l198 200h113l-231 -288h-186z" />
    <glyph glyph-name="tcaron" unicode="&#x165;" horiz-adv-x="697" 
d="M657 832h-227l-118 -832h-168l118 832h-172l23 168h172l43 314h168l-43 -314h227zM593 1212l120 288h168l-176 -288h-112z" />
    <glyph glyph-name="Utilde" unicode="&#x168;" horiz-adv-x="1335" 
d="M566 -26q-168 0 -279.5 82t-159 220.5t-23.5 307.5l114 816h168l-114 -816q-17 -120 13 -221t106 -161t199 -60t216 60.5t150.5 161t74.5 220.5l114 816h168l-114 -816q-18 -127 -71.5 -237.5t-137 -194.5t-191 -131t-233.5 -47zM937 1524q-37 0 -80 24t-85.5 55
t-78 51.5t-58.5 12.5q-24 -8 -39 -33t-11 -62l-111 -29q-13 62 8.5 117.5t69 89.5t110.5 34q38 0 80.5 -22t85 -50.5t78 -50t58.5 -21.5q22 0 34.5 16.5t17.5 38.5t1 39l112 35q13 -66 -10.5 -121.5t-71 -89.5t-110.5 -34z" />
    <glyph glyph-name="utilde" unicode="&#x169;" horiz-adv-x="1044" 
d="M35 380l87 620h168l-82 -583q-10 -76 18 -138t85 -98.5t132 -36.5q76 0 143.5 36.5t113 98.5t55.5 138l82 583h168l-139 -1000h-168l16 127q-63 -70 -149.5 -111.5t-180.5 -41.5q-112 0 -196.5 54.5t-126 146.5t-26.5 205zM753 1125q-37 0 -80 24t-85.5 55t-78 51.5
t-58.5 12.5q-24 -8 -39 -33t-11 -62l-111 -29q-13 62 8.5 117.5t69 89.5t110.5 34q38 0 80.5 -22t85 -50.5t78 -50t58.5 -21.5q22 0 34.5 16.5t17.5 38.5t1 39l112 35q13 -66 -10.5 -121.5t-71 -89.5t-110.5 -34z" />
    <glyph glyph-name="Umacron" unicode="&#x16a;" horiz-adv-x="1335" 
d="M566 -26q-168 0 -279.5 82t-159 220.5t-23.5 307.5l114 816h168l-114 -816q-17 -120 13 -221t106 -161t199 -60t216 60.5t150.5 161t74.5 220.5l114 816h168l-114 -816q-18 -127 -71.5 -237.5t-137 -194.5t-191 -131t-233.5 -47zM470 1695h676l-19 -132h-676z" />
    <glyph glyph-name="umacron" unicode="&#x16b;" horiz-adv-x="1044" 
d="M35 380l87 620h168l-82 -583q-10 -76 18 -138t85 -98.5t132 -36.5q76 0 143.5 36.5t113 98.5t55.5 138l82 583h168l-139 -1000h-168l16 127q-63 -70 -149.5 -111.5t-180.5 -41.5q-112 0 -196.5 54.5t-126 146.5t-26.5 205zM285 1296h676l-19 -132h-676z" />
    <glyph glyph-name="Ubreve" unicode="&#x16c;" horiz-adv-x="1335" 
d="M566 -26q-168 0 -279.5 82t-159 220.5t-23.5 307.5l114 816h168l-114 -816q-17 -120 13 -221t106 -161t199 -60t216 60.5t150.5 161t74.5 220.5l114 816h168l-114 -816q-18 -127 -71.5 -237.5t-137 -194.5t-191 -131t-233.5 -47zM779 1488q-91 0 -160 45t-103.5 120.5
t-22.5 166.5h114q-8 -61 15 -110.5t69 -78.5t104 -29q59 0 112.5 29t90.5 79t45 110h114q-13 -93 -69 -168.5t-137.5 -119.5t-171.5 -44z" />
    <glyph glyph-name="ubreve" unicode="&#x16d;" horiz-adv-x="1044" 
d="M35 380l87 620h168l-82 -583q-10 -76 18 -138t85 -98.5t132 -36.5q76 0 143.5 36.5t113 98.5t55.5 138l82 583h168l-139 -1000h-168l16 127q-63 -70 -149.5 -111.5t-180.5 -41.5q-112 0 -196.5 54.5t-126 146.5t-26.5 205zM594 1089q-91 0 -160 45t-103.5 120.5
t-22.5 166.5h114q-8 -61 15 -110.5t69 -78.5t104 -29q59 0 112.5 29t90.5 79t45 110h114q-13 -93 -69 -168.5t-137.5 -119.5t-171.5 -44z" />
    <glyph glyph-name="Uring" unicode="&#x16e;" horiz-adv-x="1335" 
d="M566 -26q-168 0 -279.5 82t-159 220.5t-23.5 307.5l114 816h168l-114 -816q-17 -120 13 -221t106 -161t199 -60t216 60.5t150.5 161t74.5 220.5l114 816h168l-114 -816q-18 -127 -71.5 -237.5t-137 -194.5t-191 -131t-233.5 -47zM777 1488q-68 0 -109.5 49.5t-32.5 117.5
q6 45 34 82.5t68.5 60t86.5 22.5q68 0 110 -48.5t33 -116.5q-10 -70 -66 -118.5t-124 -48.5zM790 1577q31 0 57 23t31 55q4 31 -15.5 53t-51.5 22t-57 -22t-29 -53q-5 -32 14 -55t51 -23z" />
    <glyph glyph-name="uring" unicode="&#x16f;" horiz-adv-x="1044" 
d="M35 380l87 620h168l-82 -583q-10 -76 18 -138t85 -98.5t132 -36.5q76 0 143.5 36.5t113 98.5t55.5 138l82 583h168l-139 -1000h-168l16 127q-63 -70 -149.5 -111.5t-180.5 -41.5q-112 0 -196.5 54.5t-126 146.5t-26.5 205zM593 1089q-68 0 -109.5 49.5t-32.5 117.5
q6 45 34 82.5t68.5 60t86.5 22.5q68 0 110 -48.5t33 -116.5q-10 -70 -66 -118.5t-124 -48.5zM606 1178q31 0 57 23t31 55q4 31 -15.5 53t-51.5 22t-57 -22t-29 -53q-5 -32 14 -55t51 -23z" />
    <glyph glyph-name="Uhungarumlaut" unicode="&#x170;" horiz-adv-x="1335" 
d="M566 -26q-168 0 -279.5 82t-159 220.5t-23.5 307.5l114 816h168l-114 -816q-17 -120 13 -221t106 -161t199 -60t216 60.5t150.5 161t74.5 220.5l114 816h168l-114 -816q-18 -127 -71.5 -237.5t-137 -194.5t-191 -131t-233.5 -47zM894 1510l120 288h168l-176 -288h-112z
M604 1510l120 288h168l-176 -288h-112z" />
    <glyph glyph-name="uhungarumlaut" unicode="&#x171;" horiz-adv-x="1044" 
d="M35 380l87 620h168l-82 -583q-10 -76 18 -138t85 -98.5t132 -36.5q76 0 143.5 36.5t113 98.5t55.5 138l82 583h168l-139 -1000h-168l16 127q-63 -70 -149.5 -111.5t-180.5 -41.5q-112 0 -196.5 54.5t-126 146.5t-26.5 205zM710 1111l120 288h168l-176 -288h-112z
M420 1111l120 288h168l-176 -288h-112z" />
    <glyph glyph-name="Uogonek" unicode="&#x172;" horiz-adv-x="1335" 
d="M566 -26q-168 0 -279.5 82t-159 220.5t-23.5 307.5l114 816h168l-114 -816q-17 -120 13 -221t106 -161t199 -60t216 60.5t150.5 161t74.5 220.5l114 816h168l-114 -816q-18 -127 -71.5 -237.5t-137 -194.5t-191 -131t-233.5 -47zM518 -427q-59 1 -99 29.5t-57.5 73.5
t-10.5 95q6 38 24.5 73.5t52.5 65.5l192 168l75 -87q-58 -50 -98 -84t-64.5 -58t-36.5 -43.5t-15 -39.5q-3 -27 12 -49t48 -24q38 0 73 28t42 73h116q-8 -61 -45 -111.5t-92 -80t-117 -29.5z" />
    <glyph glyph-name="uogonek" unicode="&#x173;" horiz-adv-x="1044" 
d="M35 380l87 620h168l-82 -583q-10 -76 18 -138t85 -98.5t132 -36.5q76 0 143.5 36.5t113 98.5t55.5 138l82 583h168l-139 -1000h-168l16 127q-63 -70 -149.5 -111.5t-180.5 -41.5q-112 0 -196.5 54.5t-126 146.5t-26.5 205zM689 -417q-59 1 -99 29.5t-57.5 73.5t-10.5 95
q6 38 24.5 73.5t52.5 65.5l192 168l75 -87q-58 -50 -98 -84t-64.5 -58t-36.5 -43.5t-15 -39.5q-3 -27 12 -49t48 -24q38 0 73 28t42 73h116q-8 -61 -45 -111.5t-92 -80t-117 -29.5z" />
    <glyph glyph-name="Wcircumflex" unicode="&#x174;" horiz-adv-x="1736" 
d="M316 0l-162 1400h173l128 -1105l435 1105h151l128 -1105l435 1105h173l-552 -1400h-196l-117 1014l-401 -1014h-195zM1115 1798l153 -288h-112l-147 200l-199 -200h-112l231 288h186z" />
    <glyph glyph-name="wcircumflex" unicode="&#x175;" horiz-adv-x="1647" 
d="M467 0h-170l-195 1000h164l151 -763l362 763h173l149 -763l362 763h166l-475 -1000h-171l-150 770zM1015 1398l153 -288h-112l-147 200l-199 -200h-112l231 288h186z" />
    <glyph glyph-name="Ycircumflex" unicode="&#x176;" horiz-adv-x="1236" 
d="M1076 1400h198l-582 -767l-88 -633h-168l88 633l-366 767h198l278 -583zM865 1798l153 -288h-112l-147 200l-199 -200h-112l231 288h186z" />
    <glyph glyph-name="ycircumflex" unicode="&#x177;" horiz-adv-x="1063" 
d="M847 1000h178l-758 -1500h-178l252 500l-219 1000h184l151 -769zM722 1398l153 -288h-112l-147 200l-199 -200h-112l231 288h186z" />
    <glyph glyph-name="Ydieresis" unicode="&#x178;" horiz-adv-x="1236" 
d="M1076 1400h198l-582 -767l-88 -633h-168l88 633l-366 767h198l278 -583zM560 1478q-40 0 -63.5 26t-18.5 65q6 39 37 66.5t70 27.5q38 0 62 -27.5t19 -66.5q-6 -39 -37 -65t-69 -26zM897 1478q-40 0 -64 26t-19 65q6 39 37.5 66.5t70.5 27.5q38 0 62 -27.5t18 -66.5
q-5 -39 -36 -65t-69 -26z" />
    <glyph glyph-name="Zacute" unicode="&#x179;" horiz-adv-x="1292" 
d="M-18 0l23 168l1056 1064h-906l23 168h1132l-23 -168l-1056 -1064h906l-23 -168h-1132zM718 1510l120 288h168l-176 -288h-112z" />
    <glyph glyph-name="zacute" unicode="&#x17a;" horiz-adv-x="1014" 
d="M953 832l-709 -664h615l-23 -168h-854l23 168l709 664h-615l23 168h854zM523 1110l120 288h168l-176 -288h-112z" />
    <glyph glyph-name="Zdotaccent" unicode="&#x17b;" horiz-adv-x="1292" 
d="M-18 0l23 168l1056 1064h-906l23 168h1132l-23 -168l-1056 -1064h906l-23 -168h-1132zM769 1563q-40 0 -63.5 26t-17.5 65t36.5 65t69.5 26q38 0 61.5 -26t18.5 -65q-6 -39 -36 -65t-69 -26z" />
    <glyph glyph-name="zdotaccent" unicode="&#x17c;" horiz-adv-x="1014" 
d="M953 832l-709 -664h615l-23 -168h-854l23 168l709 664h-615l23 168h854zM574 1163q-40 0 -63.5 26t-17.5 65t36.5 65t69.5 26q38 0 61.5 -26t18.5 -65q-6 -39 -36 -65t-69 -26z" />
    <glyph glyph-name="Zcaron" unicode="&#x17d;" horiz-adv-x="1292" 
d="M-18 0l23 168l1056 1064h-906l23 168h1132l-23 -168l-1056 -1064h906l-23 -168h-1132zM667 1510l-153 288h112l147 -200l198 200h113l-231 -288h-186z" />
    <glyph glyph-name="zcaron" unicode="&#x17e;" horiz-adv-x="1014" 
d="M953 832l-709 -664h615l-23 -168h-854l23 168l709 664h-615l23 168h854zM472 1110l-153 288h112l147 -200l198 200h113l-231 -288h-186z" />
    <glyph glyph-name="uni01CD" unicode="&#x1cd;" horiz-adv-x="1381" 
d="M687 1400h203l313 -1400h-178l-65 286h-655l-144 -286h-179zM390 454h532l-164 731zM711 1510l-153 288h112l147 -200l198 200h113l-231 -288h-186z" />
    <glyph glyph-name="uni01CE" unicode="&#x1ce;" horiz-adv-x="1171" 
d="M966 1000h168l-140 -1000h-168l17 169q-59 -87 -149.5 -141t-204.5 -54q-110 0 -200.5 41.5t-153.5 115t-90.5 169.5t-11.5 207q15 107 68.5 202t135 166.5t181 112t207.5 40.5q118 0 199.5 -55.5t124.5 -143.5zM508 137q99 0 178.5 48.5t131 131.5t65.5 183
q14 102 -14.5 184.5t-94 131t-163.5 48.5q-99 0 -187 -49t-147 -131.5t-73 -183.5t23 -183.5t111.5 -131t169.5 -48.5zM565 1110l-153 288h112l147 -200l198 200h113l-231 -288h-186z" />
    <glyph glyph-name="uni01CF" unicode="&#x1cf;" horiz-adv-x="468" 
d="M52 0l196 1400h168l-196 -1400h-168zM255 1510l-153 288h112l147 -200l198 200h113l-231 -288h-186z" />
    <glyph glyph-name="uni01D0" unicode="&#x1d0;" 
d="M162 1000h168l-140 -1000h-168zM169 1110l-153 288h112l147 -200l198 200h113l-231 -288h-186z" />
    <glyph glyph-name="uni01D1" unicode="&#x1d1;" horiz-adv-x="1540" 
d="M668 -26q-142 0 -259.5 56.5t-198 156.5t-116 231.5t-14.5 281.5t93 281.5t181.5 231.5t242.5 156.5t275 56.5q143 0 260 -56.5t197.5 -156.5t116 -231.5t14.5 -281.5t-93 -281.5t-181.5 -231.5t-242 -156.5t-275.5 -56.5zM691 142q109 0 209.5 44t183 121.5t137.5 178
t71 214.5t-10.5 215.5t-87 178t-149 120.5t-196.5 44q-109 0 -209.5 -44t-183 -121.5t-137.5 -178t-71 -214.5q-16 -115 10.5 -216t87 -178t149 -120.5t196.5 -43.5zM791 1510l-153 288h112l147 -200l198 200h113l-231 -288h-186z" />
    <glyph glyph-name="uni01D2" unicode="&#x1d2;" horiz-adv-x="1120" 
d="M458 -26q-138 0 -241.5 71t-154 190.5t-30.5 264.5q15 110 67.5 205.5t131.5 168t175.5 113.5t199.5 41q138 0 241.5 -71t154.5 -191t30 -266q-15 -109 -67.5 -204t-131.5 -167.5t-175 -113.5t-200 -41zM481 142q94 0 176 49.5t138 131t69 177.5q14 98 -19 180t-101 131
t-161 49q-94 0 -176 -49.5t-137.5 -131.5t-69.5 -179q-14 -100 19.5 -181.5t102.5 -129t159 -47.5zM525 1110l-153 288h112l147 -200l198 200h113l-231 -288h-186z" />
    <glyph glyph-name="uni01D3" unicode="&#x1d3;" horiz-adv-x="1335" 
d="M566 -26q-168 0 -279.5 82t-159 220.5t-23.5 307.5l114 816h168l-114 -816q-17 -120 13 -221t106 -161t199 -60t216 60.5t150.5 161t74.5 220.5l114 816h168l-114 -816q-18 -127 -71.5 -237.5t-137 -194.5t-191 -131t-233.5 -47zM688 1510l-153 288h112l147 -200l198 200
h113l-231 -288h-186z" />
    <glyph glyph-name="uni01D4" unicode="&#x1d4;" horiz-adv-x="1044" 
d="M35 380l87 620h168l-82 -583q-10 -76 18 -138t85 -98.5t132 -36.5q76 0 143.5 36.5t113 98.5t55.5 138l82 583h168l-139 -1000h-168l16 127q-63 -70 -149.5 -111.5t-180.5 -41.5q-112 0 -196.5 54.5t-126 146.5t-26.5 205zM504 1111l-153 288h112l147 -200l198 200h113
l-231 -288h-186z" />
    <glyph glyph-name="uni01D5" unicode="&#x1d5;" horiz-adv-x="1335" 
d="M566 -26q-168 0 -279.5 82t-159 220.5t-23.5 307.5l114 816h168l-114 -816q-17 -120 13 -221t106 -161t199 -60t216 60.5t150.5 161t74.5 220.5l114 816h168l-114 -816q-18 -127 -71.5 -237.5t-137 -194.5t-191 -131t-233.5 -47zM609 1478q-40 0 -63.5 26t-18.5 65
q6 39 37 66.5t70 27.5q38 0 62 -27.5t19 -66.5q-6 -39 -37 -65t-69 -26zM946 1478q-40 0 -64 26t-19 65q6 39 37.5 66.5t70.5 27.5q38 0 62 -27.5t18 -66.5q-5 -39 -36 -65t-69 -26zM502 1927h676l-19 -132h-676z" />
    <glyph glyph-name="uni01D6" unicode="&#x1d6;" horiz-adv-x="1044" 
d="M35 380l87 620h168l-82 -583q-10 -76 18 -138t85 -98.5t132 -36.5q76 0 143.5 36.5t113 98.5t55.5 138l82 583h168l-139 -1000h-168l16 127q-63 -70 -149.5 -111.5t-180.5 -41.5q-112 0 -196.5 54.5t-126 146.5t-26.5 205zM425 1079q-40 0 -63.5 26t-18.5 65
q6 39 37 66.5t70 27.5q38 0 62 -27.5t19 -66.5q-6 -39 -37 -65t-69 -26zM762 1079q-40 0 -64 26t-19 65q6 39 37.5 66.5t70.5 27.5q38 0 62 -27.5t18 -66.5q-5 -39 -36 -65t-69 -26zM318 1528h676l-19 -132h-676z" />
    <glyph glyph-name="uni01D7" unicode="&#x1d7;" horiz-adv-x="1335" 
d="M566 -26q-168 0 -279.5 82t-159 220.5t-23.5 307.5l114 816h168l-114 -816q-17 -120 13 -221t106 -161t199 -60t216 60.5t150.5 161t74.5 220.5l114 816h168l-114 -816q-18 -127 -71.5 -237.5t-137 -194.5t-191 -131t-233.5 -47zM609 1478q-40 0 -63.5 26t-18.5 65
q6 39 37 66.5t70 27.5q38 0 62 -27.5t19 -66.5q-6 -39 -37 -65t-69 -26zM946 1478q-40 0 -64 26t-19 65q6 39 37.5 66.5t70.5 27.5q38 0 62 -27.5t18 -66.5q-5 -39 -36 -65t-69 -26zM772 1742l120 288h168l-176 -288h-112z" />
    <glyph glyph-name="uni01D8" unicode="&#x1d8;" horiz-adv-x="1044" 
d="M35 380l87 620h168l-82 -583q-10 -76 18 -138t85 -98.5t132 -36.5q76 0 143.5 36.5t113 98.5t55.5 138l82 583h168l-139 -1000h-168l16 127q-63 -70 -149.5 -111.5t-180.5 -41.5q-112 0 -196.5 54.5t-126 146.5t-26.5 205zM425 1079q-40 0 -63.5 26t-18.5 65
q6 39 37 66.5t70 27.5q38 0 62 -27.5t19 -66.5q-6 -39 -37 -65t-69 -26zM762 1079q-40 0 -64 26t-19 65q6 39 37.5 66.5t70.5 27.5q38 0 62 -27.5t18 -66.5q-5 -39 -36 -65t-69 -26zM588 1343l120 288h168l-176 -288h-112z" />
    <glyph glyph-name="uni01D9" unicode="&#x1d9;" horiz-adv-x="1335" 
d="M566 -26q-168 0 -279.5 82t-159 220.5t-23.5 307.5l114 816h168l-114 -816q-17 -120 13 -221t106 -161t199 -60t216 60.5t150.5 161t74.5 220.5l114 816h168l-114 -816q-18 -127 -71.5 -237.5t-137 -194.5t-191 -131t-233.5 -47zM609 1478q-40 0 -63.5 26t-18.5 65
q6 39 37 66.5t70 27.5q38 0 62 -27.5t19 -66.5q-6 -39 -37 -65t-69 -26zM946 1478q-40 0 -64 26t-19 65q6 39 37.5 66.5t70.5 27.5q38 0 62 -27.5t18 -66.5q-5 -39 -36 -65t-69 -26zM721 1742l-153 288h112l147 -200l198 200h113l-231 -288h-186z" />
    <glyph glyph-name="uni01DA" unicode="&#x1da;" horiz-adv-x="1044" 
d="M35 380l87 620h168l-82 -583q-10 -76 18 -138t85 -98.5t132 -36.5q76 0 143.5 36.5t113 98.5t55.5 138l82 583h168l-139 -1000h-168l16 127q-63 -70 -149.5 -111.5t-180.5 -41.5q-112 0 -196.5 54.5t-126 146.5t-26.5 205zM425 1079q-40 0 -63.5 26t-18.5 65
q6 39 37 66.5t70 27.5q38 0 62 -27.5t19 -66.5q-6 -39 -37 -65t-69 -26zM762 1079q-40 0 -64 26t-19 65q6 39 37.5 66.5t70.5 27.5q38 0 62 -27.5t18 -66.5q-5 -39 -36 -65t-69 -26zM537 1343l-153 288h112l147 -200l198 200h113l-231 -288h-186z" />
    <glyph glyph-name="uni01DB" unicode="&#x1db;" horiz-adv-x="1335" 
d="M566 -26q-168 0 -279.5 82t-159 220.5t-23.5 307.5l114 816h168l-114 -816q-17 -120 13 -221t106 -161t199 -60t216 60.5t150.5 161t74.5 220.5l114 816h168l-114 -816q-18 -127 -71.5 -237.5t-137 -194.5t-191 -131t-233.5 -47zM609 1478q-40 0 -63.5 26t-18.5 65
q6 39 37 66.5t70 27.5q38 0 62 -27.5t19 -66.5q-6 -39 -37 -65t-69 -26zM946 1478q-40 0 -64 26t-19 65q6 39 37.5 66.5t70.5 27.5q38 0 62 -27.5t18 -66.5q-5 -39 -36 -65t-69 -26zM643 2030h168l40 -288h-112z" />
    <glyph glyph-name="uni01DC" unicode="&#x1dc;" horiz-adv-x="1044" 
d="M35 380l87 620h168l-82 -583q-10 -76 18 -138t85 -98.5t132 -36.5q76 0 143.5 36.5t113 98.5t55.5 138l82 583h168l-139 -1000h-168l16 127q-63 -70 -149.5 -111.5t-180.5 -41.5q-112 0 -196.5 54.5t-126 146.5t-26.5 205zM425 1079q-40 0 -63.5 26t-18.5 65
q6 39 37 66.5t70 27.5q38 0 62 -27.5t19 -66.5q-6 -39 -37 -65t-69 -26zM762 1079q-40 0 -64 26t-19 65q6 39 37.5 66.5t70.5 27.5q38 0 62 -27.5t18 -66.5q-5 -39 -36 -65t-69 -26zM459 1631h168l40 -288h-112z" />
    <glyph glyph-name="uni01DE" unicode="&#x1de;" horiz-adv-x="1381" 
d="M687 1400h203l313 -1400h-178l-65 286h-655l-144 -286h-179zM390 454h532l-164 731zM632 1478q-40 0 -63.5 26t-18.5 65q6 39 37 66.5t70 27.5q38 0 62 -27.5t19 -66.5q-6 -39 -37 -65t-69 -26zM969 1478q-40 0 -64 26t-19 65q6 39 37.5 66.5t70.5 27.5q38 0 62 -27.5
t18 -66.5q-5 -39 -36 -65t-69 -26zM525 1927h676l-19 -132h-676z" />
    <glyph glyph-name="uni01DF" unicode="&#x1df;" horiz-adv-x="1171" 
d="M966 1000h168l-140 -1000h-168l17 169q-59 -87 -149.5 -141t-204.5 -54q-110 0 -200.5 41.5t-153.5 115t-90.5 169.5t-11.5 207q15 107 68.5 202t135 166.5t181 112t207.5 40.5q118 0 199.5 -55.5t124.5 -143.5zM508 137q99 0 178.5 48.5t131 131.5t65.5 183
q14 102 -14.5 184.5t-94 131t-163.5 48.5q-99 0 -187 -49t-147 -131.5t-73 -183.5t23 -183.5t111.5 -131t169.5 -48.5zM487 1078q-40 0 -63.5 26t-18.5 65q6 39 37 66.5t70 27.5q38 0 62 -27.5t19 -66.5q-6 -39 -37 -65t-69 -26zM824 1078q-40 0 -64 26t-19 65
q6 39 37.5 66.5t70.5 27.5q38 0 62 -27.5t18 -66.5q-5 -39 -36 -65t-69 -26zM379 1527h676l-19 -132h-676z" />
    <glyph glyph-name="uni01E2" unicode="&#x1e2;" horiz-adv-x="1635" 
d="M-18 0l705 1400h946l-23 -168h-551l-63 -448h455l-23 -168h-455l-63 -448h551l-24 -168h-719l40 286h-453l-144 -286h-179zM390 454h392l109 778h-109zM864 1695h676l-19 -132h-676z" />
    <glyph glyph-name="uni01E3" unicode="&#x1e3;" horiz-adv-x="1763" 
d="M237 -25q-88 0 -152.5 38.5t-95.5 106t-19 152.5q11 80 58.5 148t122.5 109.5t166 41.5h367q8 79 -19.5 145t-86 105t-146.5 39q-76 0 -148 -34l-73 141q60 31 121.5 46t121.5 15q126 0 222 -63.5t141 -170.5q51 70 120.5 122.5t150 82t165.5 29.5q113 0 201 -45.5
t144 -126.5t74 -188t-7 -229h-817q0 -85 35 -152t98.5 -106t147.5 -39q89 0 169 46.5t136 127.5l165 -40q-79 -133 -211.5 -217.5t-282.5 -84.5q-92 0 -170 34t-133.5 94t-84.5 140q-49 -76 -124.5 -136.5t-167 -95.5t-188.5 -35zM260 125q103 0 190.5 52.5t142.5 132.5
q45 57 70 130h-364q-70 0 -119 -45.5t-59 -112.5q-8 -61 27 -109t112 -48zM862 571h652q3 84 -32.5 153.5t-100.5 111.5t-150 42q-84 0 -159.5 -41t-131 -110.5t-78.5 -155.5zM550 1296h676l-19 -132h-676z" />
    <glyph glyph-name="Gcaron" unicode="&#x1e6;" horiz-adv-x="1536" 
d="M667 -26q-145 0 -262.5 56.5t-197 157t-114 232t-13.5 281.5q21 155 95 287t184.5 230t243 152.5t271.5 54.5q158 0 290.5 -74t216.5 -214l-162 -81q-64 98 -161.5 150t-208.5 52q-106 0 -207 -43t-184 -120t-138.5 -178t-71.5 -219q-16 -115 10.5 -216t87 -177.5
t149.5 -119.5t197 -43q86 0 168 29t154 82t129 125t93 158h-344l21 150h542q-23 -147 -95.5 -276t-180.5 -227t-239.5 -153.5t-272.5 -55.5zM791 1510l-153 288h112l147 -200l198 200h113l-231 -288h-186z" />
    <glyph glyph-name="gcaron" unicode="&#x1e7;" horiz-adv-x="1189" 
d="M943 1000h168l-145 -1032q-13 -99 -67.5 -184.5t-136 -149t-178.5 -99t-197 -35.5q-104 0 -194.5 46.5t-151.5 124t-80 173.5l164 70q9 -69 50.5 -124.5t103.5 -88t132 -32.5q66 0 131 23t120 63.5t91.5 95t44.5 117.5l28 199q-62 -86 -153.5 -139.5t-202.5 -53.5
q-106 0 -193 41t-147 113.5t-86.5 167.5t-11.5 204t68.5 204.5t134 168t179 113.5t204.5 41q111 0 187 -53t115 -140zM494 137q96 0 174.5 50t130 133t64.5 180q14 100 -14 182.5t-92.5 132t-159.5 49.5q-96 0 -180.5 -49t-141.5 -131.5t-71 -183.5t20.5 -183.5t105.5 -131
t164 -48.5zM560 1110l-153 288h112l147 -200l198 200h113l-231 -288h-186z" />
    <glyph glyph-name="uni01E8" unicode="&#x1e8;" horiz-adv-x="1095" 
d="M954 0h-217l-357 607l-123 -126l-67 -481h-168l196 1400h168l-93 -658l644 658h219l-647 -661zM568 1510l-153 288h112l147 -200l198 200h113l-231 -288h-186z" />
    <glyph glyph-name="uni01E9" unicode="&#x1e9;" horiz-adv-x="1007" 
d="M834 0h-193l-202 459l-215 -220l-33 -239h-168l210 1500h168l-141 -1000l490 500h219l-396 -405zM589 1510l-153 288h112l147 -200l198 200h113l-231 -288h-186z" />
    <glyph glyph-name="uni0218" unicode="&#x218;" horiz-adv-x="1228" 
d="M511 -26q-113 0 -213 35.5t-169 101.5t-89 157l165 59q13 -56 61 -97.5t119 -64.5t150 -23q89 0 171 29.5t137.5 82.5t65.5 124q10 73 -33.5 119.5t-117.5 74t-157 42.5q-141 24 -249.5 68.5t-164 124.5t-37.5 211q17 122 101 213t207 141t257 50q111 0 210.5 -34.5
t170 -100.5t92.5 -161l-167 -58q-12 57 -60.5 98.5t-119.5 64t-150 22.5q-88 1 -170 -29t-137.5 -83t-65.5 -123q-11 -84 27.5 -128.5t112.5 -66.5t167 -39q133 -23 242 -72.5t168 -131.5t42 -202q-17 -122 -100.5 -213t-206.5 -141t-259 -50zM380 -441l109 338h168
l-165 -338h-112z" />
    <glyph glyph-name="uni0219" unicode="&#x219;" horiz-adv-x="862" 
d="M324 -19q-80 3 -153 30.5t-124 75t-68 109.5l153 62q10 -34 44.5 -64t83 -48t100.5 -18q55 0 106 17t86 50.5t41 80.5q8 50 -22 78.5t-78 45t-98 31.5q-99 26 -175 62.5t-114.5 93t-26.5 144.5q13 93 74.5 161t150.5 105t185 37q121 0 213.5 -52t129.5 -141l-146 -79
q-12 36 -43 63.5t-73.5 43.5t-89.5 17q-59 2 -111.5 -15t-87.5 -51.5t-43 -85.5q-7 -50 21.5 -76t79 -41.5t109.5 -35.5q87 -29 160.5 -67t114.5 -95t28 -141q-14 -92 -78 -160.5t-157 -104.5t-192 -32zM185 -441l109 338h168l-165 -338h-112z" />
    <glyph glyph-name="uni021A" unicode="&#x21a;" horiz-adv-x="1259" 
d="M1277 1400l-24 -168h-466l-172 -1232h-168l172 1232h-464l23 168h1099zM323 -441l109 338h168l-165 -338h-112z" />
    <glyph glyph-name="uni021B" unicode="&#x21b;" horiz-adv-x="697" 
d="M657 832h-227l-118 -832h-168l118 832h-172l23 168h172l43 314h168l-43 -314h227zM20 -441l109 338h168l-165 -338h-112z" />
    <glyph glyph-name="uni022A" unicode="&#x22a;" horiz-adv-x="1540" 
d="M668 -26q-142 0 -259.5 56.5t-198 156.5t-116 231.5t-14.5 281.5t93 281.5t181.5 231.5t242.5 156.5t275 56.5q143 0 260 -56.5t197.5 -156.5t116 -231.5t14.5 -281.5t-93 -281.5t-181.5 -231.5t-242 -156.5t-275.5 -56.5zM691 142q109 0 209.5 44t183 121.5t137.5 178
t71 214.5t-10.5 215.5t-87 178t-149 120.5t-196.5 44q-109 0 -209.5 -44t-183 -121.5t-137.5 -178t-71 -214.5q-16 -115 10.5 -216t87 -178t149 -120.5t196.5 -43.5zM712 1478q-40 0 -63.5 26t-18.5 65q6 39 37 66.5t70 27.5q38 0 62 -27.5t19 -66.5q-6 -39 -37 -65t-69 -26
zM1049 1478q-40 0 -64 26t-19 65q6 39 37.5 66.5t70.5 27.5q38 0 62 -27.5t18 -66.5q-5 -39 -36 -65t-69 -26zM605 1927h676l-19 -132h-676z" />
    <glyph glyph-name="uni022B" unicode="&#x22b;" horiz-adv-x="1120" 
d="M458 -26q-138 0 -241.5 71t-154 190.5t-30.5 264.5q15 110 67.5 205.5t131.5 168t175.5 113.5t199.5 41q138 0 241.5 -71t154.5 -191t30 -266q-15 -109 -67.5 -204t-131.5 -167.5t-175 -113.5t-200 -41zM481 142q94 0 176 49.5t138 131t69 177.5q14 98 -19 180t-101 131
t-161 49q-94 0 -176 -49.5t-137.5 -131.5t-69.5 -179q-14 -100 19.5 -181.5t102.5 -129t159 -47.5zM446 1078q-40 0 -63.5 26t-18.5 65q6 39 37 66.5t70 27.5q38 0 62 -27.5t19 -66.5q-6 -39 -37 -65t-69 -26zM783 1078q-40 0 -64 26t-19 65q6 39 37.5 66.5t70.5 27.5
q38 0 62 -27.5t18 -66.5q-5 -39 -36 -65t-69 -26zM339 1527h676l-19 -132h-676z" />
    <glyph glyph-name="uni0232" unicode="&#x232;" horiz-adv-x="1236" 
d="M1076 1400h198l-582 -767l-88 -633h-168l88 633l-366 767h198l278 -583zM420 1695h676l-19 -132h-676z" />
    <glyph glyph-name="uni0233" unicode="&#x233;" horiz-adv-x="1063" 
d="M847 1000h178l-758 -1500h-178l252 500l-219 1000h184l151 -769zM277 1295h676l-19 -132h-676z" />
    <glyph glyph-name="uni0237" unicode="&#x237;" horiz-adv-x="453" 
d="M-249 -500l24 168q70 0 130 31t100 85.5t49 121.5l153 1094h168l-153 -1094q-15 -112 -83 -204t-169 -147t-219 -55z" />
    <glyph glyph-name="quoteleft" unicode="&#x2bb;" horiz-adv-x="330" 
d="M85 878l191 522h112l-135 -522h-168z" />
    <glyph glyph-name="quoteleft" unicode="&#x2018;" horiz-adv-x="330" 
d="M85 878l191 522h112l-135 -522h-168z" />
    <glyph glyph-name="uni02BC" unicode="&#x2bc;" horiz-adv-x="437" 
d="M65 878l135 522h168l-191 -522h-112z" />
    <glyph glyph-name="circumflex" unicode="&#x2c6;" horiz-adv-x="598" 
d="M489 1398l153 -288h-112l-147 200l-199 -200h-112l231 288h186z" />
    <glyph glyph-name="caron" unicode="&#x2c7;" horiz-adv-x="562" 
d="M247 1110l-153 288h112l147 -200l198 200h113l-231 -288h-186z" />
    <glyph glyph-name="breve" unicode="&#x2d8;" horiz-adv-x="1144" 
d="M627 1088q-91 0 -160 45t-103.5 120.5t-22.5 166.5h114q-8 -61 15 -110.5t69 -78.5t104 -29q59 0 112.5 29t90.5 79t45 110h114q-13 -93 -69 -168.5t-137.5 -119.5t-171.5 -44z" />
    <glyph glyph-name="dotaccent" unicode="&#x2d9;" horiz-adv-x="986" 
d="M559 1163q-40 0 -63.5 26t-17.5 65t36.5 65t69.5 26q38 0 61.5 -26t18.5 -65q-6 -39 -36 -65t-69 -26z" />
    <glyph glyph-name="ring" unicode="&#x2da;" horiz-adv-x="1132" 
d="M620 1088q-68 0 -109.5 49.5t-32.5 117.5q6 45 34 82.5t68.5 60t86.5 22.5q68 0 110 -48.5t33 -116.5q-10 -70 -66 -118.5t-124 -48.5zM633 1177q31 0 57 23t31 55q4 31 -15.5 53t-51.5 22t-57 -22t-29 -53q-5 -32 14 -55t51 -23z" />
    <glyph glyph-name="ogonek" unicode="&#x2db;" horiz-adv-x="1018" 
d="M338 -418q-59 1 -99 29.5t-57.5 73.5t-10.5 95q6 38 24.5 73.5t52.5 65.5l192 168l75 -87q-58 -50 -98 -84t-64.5 -58t-36.5 -43.5t-15 -39.5q-3 -27 12 -49t48 -24q38 0 73 28t42 73h116q-8 -61 -45 -111.5t-92 -80t-117 -29.5z" />
    <glyph glyph-name="tilde" unicode="&#x2dc;" horiz-adv-x="1211" 
d="M828 1134q-37 0 -80 24t-85.5 55t-78 51.5t-58.5 12.5q-24 -8 -39 -33t-11 -62l-111 -29q-13 62 8.5 117.5t69 89.5t110.5 34q38 0 80.5 -22t85 -50.5t78 -50t58.5 -21.5q22 0 34.5 16.5t17.5 38.5t1 39l112 35q13 -66 -10.5 -121.5t-71 -89.5t-110.5 -34z" />
    <glyph glyph-name="hungarumlaut" unicode="&#x2dd;" horiz-adv-x="938" 
d="M549 1110l120 288h168l-176 -288h-112zM258 1110l120 288h168l-176 -288h-112z" />
    <glyph glyph-name="gravecomb" unicode="&#x300;" horiz-adv-x="0" 
d="M352 1398h168l40 -288h-112z" />
    <glyph glyph-name="acutecomb" unicode="&#x301;" horiz-adv-x="0" 
d="M384 1110l120 288h168l-176 -288h-112z" />
    <glyph glyph-name="uni0302" unicode="&#x302;" horiz-adv-x="0" 
d="M489 1398l153 -288h-112l-147 200l-199 -200h-112l231 288h186z" />
    <glyph glyph-name="tildecomb" unicode="&#x303;" horiz-adv-x="0" 
d="M839 1124q-37 0 -80 24t-85.5 55t-78 51.5t-58.5 12.5q-24 -8 -39 -33t-11 -62l-111 -29q-13 62 8.5 117.5t69 89.5t110.5 34q38 0 80.5 -22t85 -50.5t78 -50t58.5 -21.5q22 0 34.5 16.5t17.5 38.5t1 39l112 35q13 -66 -10.5 -121.5t-71 -89.5t-110.5 -34z" />
    <glyph glyph-name="uni0304" unicode="&#x304;" horiz-adv-x="0" 
d="M346 1295h676l-19 -132h-676z" />
    <glyph glyph-name="uni0306" unicode="&#x306;" horiz-adv-x="0" 
d="M627 1088q-91 0 -160 45t-103.5 120.5t-22.5 166.5h114q-8 -61 15 -110.5t69 -78.5t104 -29q59 0 112.5 29t90.5 79t45 110h114q-13 -93 -69 -168.5t-137.5 -119.5t-171.5 -44z" />
    <glyph glyph-name="uni0307" unicode="&#x307;" horiz-adv-x="0" 
d="M559 1163q-40 0 -63.5 26t-17.5 65t36.5 65t69.5 26q38 0 61.5 -26t18.5 -65q-6 -39 -36 -65t-69 -26z" />
    <glyph glyph-name="uni0308" unicode="&#x308;" horiz-adv-x="0" 
d="M548 1078q-40 0 -63.5 26t-18.5 65q6 39 37 66.5t70 27.5q38 0 62 -27.5t19 -66.5q-6 -39 -37 -65t-69 -26zM885 1078q-40 0 -64 26t-19 65q6 39 37.5 66.5t70.5 27.5q38 0 62 -27.5t18 -66.5q-5 -39 -36 -65t-69 -26z" />
    <glyph glyph-name="uni030A" unicode="&#x30a;" horiz-adv-x="0" 
d="M620 1088q-68 0 -109.5 49.5t-32.5 117.5q6 45 34 82.5t68.5 60t86.5 22.5q68 0 110 -48.5t33 -116.5q-10 -70 -66 -118.5t-124 -48.5zM633 1177q31 0 57 23t31 55q4 31 -15.5 53t-51.5 22t-57 -22t-29 -53q-5 -32 14 -55t51 -23z" />
    <glyph glyph-name="uni030B" unicode="&#x30b;" horiz-adv-x="0" 
d="M549 1110l120 288h168l-176 -288h-112zM258 1110l120 288h168l-176 -288h-112z" />
    <glyph glyph-name="uni030C" unicode="&#x30c;" horiz-adv-x="0" 
d="M247 1110l-153 288h112l147 -200l198 200h113l-231 -288h-186z" />
    <glyph glyph-name="dotbelowcomb" unicode="&#x323;" horiz-adv-x="0" 
d="M559 -406q-40 0 -63.5 26t-17.5 65t36.5 65t69.5 26q38 0 61.5 -26t18.5 -65q-6 -39 -36 -65t-69 -26z" />
    <glyph glyph-name="uni0326" unicode="&#x326;" horiz-adv-x="0" 
d="M240 -441l109 338h168l-165 -338h-112z" />
    <glyph glyph-name="uni0327" unicode="&#x327;" horiz-adv-x="0" 
d="M451 -369q-67 -18 -121.5 16t-62.5 99l100 26q4 -25 25 -38t47 -6q27 7 43.5 29.5t13.5 48.5q-4 26 -25 38.5t-48 7.5l-105 -11l159 223l80 -51l-50 -71q36 -11 60.5 -40t29.5 -70q8 -66 -34 -125t-112 -76z" />
    <glyph glyph-name="uni0328" unicode="&#x328;" horiz-adv-x="0" 
d="M338 -418q-59 1 -99 29.5t-57.5 73.5t-10.5 95q6 38 24.5 73.5t52.5 65.5l192 168l75 -87q-58 -50 -98 -84t-64.5 -58t-36.5 -43.5t-15 -39.5q-3 -27 12 -49t48 -24q38 0 73 28t42 73h116q-8 -61 -45 -111.5t-92 -80t-117 -29.5z" />
    <glyph glyph-name="uni03BC" unicode="&#x3bc;" horiz-adv-x="1078" 
d="M-79 -432l201 1432h168l-74 -526q-12 -93 15.5 -169.5t88 -122t144.5 -45.5q83 0 154.5 45.5t119 122t61.5 169.5l73 526h168l-140 -1000h-168l22 155q-67 -84 -152.5 -133t-183.5 -49q-85 0 -150 39.5t-102 102.5l-77 -547h-168z" />
    <glyph glyph-name="uni1E04" unicode="&#x1e04;" horiz-adv-x="1131" 
d="M22 0l196 1400h483q104 0 183.5 -42.5t119 -123.5t22.5 -194q-8 -61 -36.5 -117.5t-70 -97t-88.5 -54.5q61 -16 99.5 -56.5t58 -94.5t23 -113t-3.5 -114q-16 -116 -81 -204.5t-160 -138.5t-201 -50h-544zM210 148h361q69 0 131 35.5t104.5 97.5t52.5 140
q11 69 -14.5 130.5t-77 99.5t-120.5 38h-361zM307 834h298q92 0 166 54.5t87 152.5q15 106 -43.5 158.5t-150.5 52.5h-298zM418 -406q-40 0 -63.5 26t-17.5 65t36.5 65t69.5 26q38 0 61.5 -26t18.5 -65q-6 -39 -36 -65t-69 -26z" />
    <glyph glyph-name="uni1E05" unicode="&#x1e05;" horiz-adv-x="1214" 
d="M673 1028q146 0 255.5 -71t164 -190.5t33.5 -265.5q-15 -109 -69.5 -204.5t-137 -168t-184 -113.5t-210.5 -41q-116 0 -194 54.5t-116 142.5l-24 -171h-168l210 1500h168l-94 -669q63 88 156.5 142.5t209.5 54.5zM546 138q99 0 187 49t147.5 131.5t73.5 182.5
q15 102 -22.5 184.5t-112 131t-170.5 48.5q-99 0 -178.5 -49t-130.5 -132t-65 -183q-14 -101 14.5 -183.5t94 -131t162.5 -48.5zM459 -406q-40 0 -63.5 26t-17.5 65t36.5 65t69.5 26q38 0 61.5 -26t18.5 -65q-6 -39 -36 -65t-69 -26z" />
    <glyph glyph-name="uni1E0C" unicode="&#x1e0c;" horiz-adv-x="1343" 
d="M22 0l196 1400h463q145 0 264.5 -54.5t202 -151t119 -223t16.5 -271.5t-92 -271.5t-182 -223t-244.5 -151t-279.5 -54.5h-463zM213 168h295q110 0 212 41.5t186 114.5t139 169.5t70 206.5t-13 206.5t-90.5 169.5t-153.5 114.5t-201 41.5h-294zM515 -406q-40 0 -63.5 26
t-17.5 65t36.5 65t69.5 26q38 0 61.5 -26t18.5 -65q-6 -39 -36 -65t-69 -26z" />
    <glyph glyph-name="uni1E0D" unicode="&#x1e0d;" horiz-adv-x="1213" 
d="M1037 1500h168l-210 -1500h-168l24 170q-63 -88 -157 -142t-210 -54q-109 0 -198.5 41t-151.5 113.5t-89.5 167.5t-12.5 204t69.5 204.5t137 168t183.5 113.5t210 41q116 0 194.5 -54t116.5 -142zM508 137q99 0 178.5 48.5t131 131.5t65.5 183q14 102 -14.5 184.5
t-94 131t-163.5 48.5q-99 0 -186.5 -49t-147 -131.5t-73.5 -183.5t23 -183.5t111.5 -131t169.5 -48.5zM462 -406q-40 0 -63.5 26t-17.5 65t36.5 65t69.5 26q38 0 61.5 -26t18.5 -65q-6 -39 -36 -65t-69 -26z" />
    <glyph glyph-name="uni1E20" unicode="&#x1e20;" horiz-adv-x="1536" 
d="M667 -26q-145 0 -262.5 56.5t-197 157t-114 232t-13.5 281.5q21 155 95 287t184.5 230t243 152.5t271.5 54.5q158 0 290.5 -74t216.5 -214l-162 -81q-64 98 -161.5 150t-208.5 52q-106 0 -207 -43t-184 -120t-138.5 -178t-71.5 -219q-16 -115 10.5 -216t87 -177.5
t149.5 -119.5t197 -43q86 0 168 29t154 82t129 125t93 158h-344l21 150h542q-23 -147 -95.5 -276t-180.5 -227t-239.5 -153.5t-272.5 -55.5zM572 1695h676l-19 -132h-676z" />
    <glyph glyph-name="uni1E21" unicode="&#x1e21;" horiz-adv-x="1189" 
d="M943 1000h168l-145 -1032q-13 -99 -67.5 -184.5t-136 -149t-178.5 -99t-197 -35.5q-104 0 -194.5 46.5t-151.5 124t-80 173.5l164 70q9 -69 50.5 -124.5t103.5 -88t132 -32.5q66 0 131 23t120 63.5t91.5 95t44.5 117.5l28 199q-62 -86 -153.5 -139.5t-202.5 -53.5
q-106 0 -193 41t-147 113.5t-86.5 167.5t-11.5 204t68.5 204.5t134 168t179 113.5t204.5 41q111 0 187 -53t115 -140zM494 137q96 0 174.5 50t130 133t64.5 180q14 100 -14 182.5t-92.5 132t-159.5 49.5q-96 0 -180.5 -49t-141.5 -131.5t-71 -183.5t20.5 -183.5t105.5 -131
t164 -48.5zM341 1295h676l-19 -132h-676z" />
    <glyph glyph-name="uni1E24" unicode="&#x1e24;" horiz-adv-x="1269" 
d="M1079 1400h168l-196 -1400h-168l93 666h-693l-93 -666h-168l196 1400h168l-79 -566h692zM486 -406q-40 0 -63.5 26t-17.5 65t36.5 65t69.5 26q38 0 61.5 -26t18.5 -65q-6 -39 -36 -65t-69 -26z" />
    <glyph glyph-name="uni1E25" unicode="&#x1e25;" horiz-adv-x="1085" 
d="M993 622l-86 -622h-168l81 585q11 76 -17 138t-85 98.5t-133 36.5t-143 -36.5t-112.5 -98.5t-56.5 -138l-82 -585h-168l210 1500h168l-87 -625q63 70 149.5 111.5t181.5 41.5q112 0 196.5 -54.5t126 -146.5t25.5 -205zM433 -406q-40 0 -63.5 26t-17.5 65t36.5 65t69.5 26
q38 0 61.5 -26t18.5 -65q-6 -39 -36 -65t-69 -26z" />
    <glyph glyph-name="uni1E2E" unicode="&#x1e2e;" horiz-adv-x="468" 
d="M52 0l196 1400h168l-196 -1400h-168zM176 1478q-40 0 -63.5 26t-18.5 65q6 39 37 66.5t70 27.5q38 0 62 -27.5t19 -66.5q-6 -39 -37 -65t-69 -26zM513 1478q-40 0 -64 26t-19 65q6 39 37.5 66.5t70.5 27.5q38 0 62 -27.5t18 -66.5q-5 -39 -36 -65t-69 -26zM339 1742
l120 288h168l-176 -288h-112z" />
    <glyph glyph-name="uni1E2F" unicode="&#x1e2f;" 
d="M162 1000h168l-140 -1000h-168zM90 1078q-40 0 -63.5 26t-18.5 65q6 39 37 66.5t70 27.5q38 0 62 -27.5t19 -66.5q-6 -39 -37 -65t-69 -26zM427 1078q-40 0 -64 26t-19 65q6 39 37.5 66.5t70.5 27.5q38 0 62 -27.5t18 -66.5q-5 -39 -36 -65t-69 -26zM253 1342l120 288
h168l-176 -288h-112z" />
    <glyph glyph-name="uni1E36" unicode="&#x1e36;" horiz-adv-x="1015" 
d="M22 0l196 1400h168l-173 -1232h628l-24 -168h-795zM370 -406q-40 0 -63.5 26t-17.5 65t36.5 65t69.5 26q38 0 61.5 -26t18.5 -65q-6 -39 -36 -65t-69 -26z" />
    <glyph glyph-name="uni1E37" unicode="&#x1e37;" 
d="M23 0l210 1500h168l-210 -1500h-168zM57 -406q-40 0 -63.5 26t-17.5 65t36.5 65t69.5 26q38 0 61.5 -26t18.5 -65q-6 -39 -36 -65t-69 -26z" />
    <glyph glyph-name="uni1E3E" unicode="&#x1e3e;" horiz-adv-x="1796" 
d="M22 0l467 1400h129l239 -994l516 994h129l76 -1400h-171l-54 1016l-488 -940h-110l-224 940l-338 -1016h-171zM971 1510l120 288h168l-176 -288h-112z" />
    <glyph glyph-name="uni1E3F" unicode="&#x1e3f;" horiz-adv-x="1776" 
d="M22 0l140 1000h168l-17 -125q63 70 149 111.5t181 41.5q111 0 195.5 -54t124.5 -143q66 89 165 143t209 54q113 0 197 -54.5t126 -146.5t26 -205l-87 -622h-168l82 582q10 74 -17.5 137t-83 101t-129.5 38t-140 -35.5t-110.5 -98t-56.5 -142.5l-81 -582h-168l81 582
q12 80 -16 142.5t-84 98t-130 35.5q-73 0 -139.5 -38t-111.5 -101t-55 -137l-82 -582h-168zM962 1110l120 288h168l-176 -288h-112z" />
    <glyph glyph-name="uni1E40" unicode="&#x1e40;" horiz-adv-x="1796" 
d="M22 0l467 1400h129l239 -994l516 994h129l76 -1400h-171l-54 1016l-488 -940h-110l-224 940l-338 -1016h-171zM1021 1563q-40 0 -63.5 26t-17.5 65t36.5 65t69.5 26q38 0 61.5 -26t18.5 -65q-6 -39 -36 -65t-69 -26z" />
    <glyph glyph-name="uni1E41" unicode="&#x1e41;" horiz-adv-x="1776" 
d="M22 0l140 1000h168l-17 -125q63 70 149 111.5t181 41.5q111 0 195.5 -54t124.5 -143q66 89 165 143t209 54q113 0 197 -54.5t126 -146.5t26 -205l-87 -622h-168l82 582q10 74 -17.5 137t-83 101t-129.5 38t-140 -35.5t-110.5 -98t-56.5 -142.5l-81 -582h-168l81 582
q12 80 -16 142.5t-84 98t-130 35.5q-73 0 -139.5 -38t-111.5 -101t-55 -137l-82 -582h-168zM1012 1163q-40 0 -63.5 26t-17.5 65t36.5 65t69.5 26q38 0 61.5 -26t18.5 -65q-6 -39 -36 -65t-69 -26z" />
    <glyph glyph-name="uni1E42" unicode="&#x1e42;" horiz-adv-x="1796" 
d="M22 0l467 1400h129l239 -994l516 994h129l76 -1400h-171l-54 1016l-488 -940h-110l-224 940l-338 -1016h-171zM750 -406q-40 0 -63.5 26t-17.5 65t36.5 65t69.5 26q38 0 61.5 -26t18.5 -65q-6 -39 -36 -65t-69 -26z" />
    <glyph glyph-name="uni1E43" unicode="&#x1e43;" horiz-adv-x="1776" 
d="M22 0l140 1000h168l-17 -125q63 70 149 111.5t181 41.5q111 0 195.5 -54t124.5 -143q66 89 165 143t209 54q113 0 197 -54.5t126 -146.5t26 -205l-87 -622h-168l82 582q10 74 -17.5 137t-83 101t-129.5 38t-140 -35.5t-110.5 -98t-56.5 -142.5l-81 -582h-168l81 582
q12 80 -16 142.5t-84 98t-130 35.5q-73 0 -139.5 -38t-111.5 -101t-55 -137l-82 -582h-168zM761 -406q-40 0 -63.5 26t-17.5 65t36.5 65t69.5 26q38 0 61.5 -26t18.5 -65q-6 -39 -36 -65t-69 -26z" />
    <glyph glyph-name="uni1E44" unicode="&#x1e44;" horiz-adv-x="1289" 
d="M22 0l196 1400h182l546 -1096l153 1096h168l-196 -1400h-181l-546 1096l-154 -1096h-168zM767 1563q-40 0 -63.5 26t-17.5 65t36.5 65t69.5 26q38 0 61.5 -26t18.5 -65q-6 -39 -36 -65t-69 -26z" />
    <glyph glyph-name="uni1E45" unicode="&#x1e45;" horiz-adv-x="1084" 
d="M992 622l-86 -622h-168l81 585q11 76 -17 138t-85 98.5t-133 36.5t-143 -36.5t-112.5 -98.5t-56.5 -138l-82 -585h-168l140 1000h168l-17 -125q63 70 149.5 111.5t181.5 41.5q112 0 196.5 -54.5t126 -146.5t25.5 -205zM638 1163q-40 0 -63.5 26t-17.5 65t36.5 65t69.5 26
q38 0 61.5 -26t18.5 -65q-6 -39 -36 -65t-69 -26z" />
    <glyph glyph-name="uni1E46" unicode="&#x1e46;" horiz-adv-x="1289" 
d="M22 0l196 1400h182l546 -1096l153 1096h168l-196 -1400h-181l-546 1096l-154 -1096h-168zM496 -406q-40 0 -63.5 26t-17.5 65t36.5 65t69.5 26q38 0 61.5 -26t18.5 -65q-6 -39 -36 -65t-69 -26z" />
    <glyph glyph-name="uni1E47" unicode="&#x1e47;" horiz-adv-x="1084" 
d="M992 622l-86 -622h-168l81 585q11 76 -17 138t-85 98.5t-133 36.5t-143 -36.5t-112.5 -98.5t-56.5 -138l-82 -585h-168l140 1000h168l-17 -125q63 70 149.5 111.5t181.5 41.5q112 0 196.5 -54.5t126 -146.5t25.5 -205zM414 -406q-40 0 -63.5 26t-17.5 65t36.5 65t69.5 26
q38 0 61.5 -26t18.5 -65q-6 -39 -36 -65t-69 -26z" />
    <glyph glyph-name="uni1E62" unicode="&#x1e62;" horiz-adv-x="1228" 
d="M511 -26q-113 0 -213 35.5t-169 101.5t-89 157l165 59q13 -56 61 -97.5t119 -64.5t150 -23q89 0 171 29.5t137.5 82.5t65.5 124q10 73 -33.5 119.5t-117.5 74t-157 42.5q-141 24 -249.5 68.5t-164 124.5t-37.5 211q17 122 101 213t207 141t257 50q111 0 210.5 -34.5
t170 -100.5t92.5 -161l-167 -58q-12 57 -60.5 98.5t-119.5 64t-150 22.5q-88 1 -170 -29t-137.5 -83t-65.5 -123q-11 -84 27.5 -128.5t112.5 -66.5t167 -39q133 -23 242 -72.5t168 -131.5t42 -202q-17 -122 -100.5 -213t-206.5 -141t-259 -50zM538 -406q-40 0 -63.5 26
t-17.5 65t36.5 65t69.5 26q38 0 61.5 -26t18.5 -65q-6 -39 -36 -65t-69 -26z" />
    <glyph glyph-name="uni1E63" unicode="&#x1e63;" horiz-adv-x="862" 
d="M324 -19q-80 3 -153 30.5t-124 75t-68 109.5l153 62q10 -34 44.5 -64t83 -48t100.5 -18q55 0 106 17t86 50.5t41 80.5q8 50 -22 78.5t-78 45t-98 31.5q-99 26 -175 62.5t-114.5 93t-26.5 144.5q13 93 74.5 161t150.5 105t185 37q121 0 213.5 -52t129.5 -141l-146 -79
q-12 36 -43 63.5t-73.5 43.5t-89.5 17q-59 2 -111.5 -15t-87.5 -51.5t-43 -85.5q-7 -50 21.5 -76t79 -41.5t109.5 -35.5q87 -29 160.5 -67t114.5 -95t28 -141q-14 -92 -78 -160.5t-157 -104.5t-192 -32zM343 -406q-40 0 -63.5 26t-17.5 65t36.5 65t69.5 26q38 0 61.5 -26
t18.5 -65q-6 -39 -36 -65t-69 -26z" />
    <glyph glyph-name="uni1E6C" unicode="&#x1e6c;" horiz-adv-x="1259" 
d="M1277 1400l-24 -168h-466l-172 -1232h-168l172 1232h-464l23 168h1099zM481 -406q-40 0 -63.5 26t-17.5 65t36.5 65t69.5 26q38 0 61.5 -26t18.5 -65q-6 -39 -36 -65t-69 -26z" />
    <glyph glyph-name="uni1E6D" unicode="&#x1e6d;" horiz-adv-x="697" 
d="M657 832h-227l-118 -832h-168l118 832h-172l23 168h172l43 314h168l-43 -314h227zM178 -406q-40 0 -63.5 26t-17.5 65t36.5 65t69.5 26q38 0 61.5 -26t18.5 -65q-6 -39 -36 -65t-69 -26z" />
    <glyph glyph-name="Wgrave" unicode="&#x1e80;" horiz-adv-x="1736" 
d="M316 0l-162 1400h173l128 -1105l435 1105h151l128 -1105l435 1105h173l-552 -1400h-196l-117 1014l-401 -1014h-195zM810 1798h168l40 -288h-112z" />
    <glyph glyph-name="wgrave" unicode="&#x1e81;" horiz-adv-x="1647" 
d="M467 0h-170l-195 1000h164l151 -763l362 763h173l149 -763l362 763h166l-475 -1000h-171l-150 770zM710 1398h168l40 -288h-112z" />
    <glyph glyph-name="Wacute" unicode="&#x1e82;" horiz-adv-x="1736" 
d="M316 0l-162 1400h173l128 -1105l435 1105h151l128 -1105l435 1105h173l-552 -1400h-196l-117 1014l-401 -1014h-195zM940 1510l120 288h168l-176 -288h-112z" />
    <glyph glyph-name="wacute" unicode="&#x1e83;" horiz-adv-x="1647" 
d="M467 0h-170l-195 1000h164l151 -763l362 763h173l149 -763l362 763h166l-475 -1000h-171l-150 770zM840 1110l120 288h168l-176 -288h-112z" />
    <glyph glyph-name="Wdieresis" unicode="&#x1e84;" horiz-adv-x="1736" 
d="M316 0l-162 1400h173l128 -1105l435 1105h151l128 -1105l435 1105h173l-552 -1400h-196l-117 1014l-401 -1014h-195zM810 1478q-40 0 -63.5 26t-18.5 65q6 39 37 66.5t70 27.5q38 0 62 -27.5t19 -66.5q-6 -39 -37 -65t-69 -26zM1147 1478q-40 0 -64 26t-19 65
q6 39 37.5 66.5t70.5 27.5q38 0 62 -27.5t18 -66.5q-5 -39 -36 -65t-69 -26z" />
    <glyph glyph-name="wdieresis" unicode="&#x1e85;" horiz-adv-x="1647" 
d="M467 0h-170l-195 1000h164l151 -763l362 763h173l149 -763l362 763h166l-475 -1000h-171l-150 770zM710 1078q-40 0 -63.5 26t-18.5 65q6 39 37 66.5t70 27.5q38 0 62 -27.5t19 -66.5q-6 -39 -37 -65t-69 -26zM1047 1078q-40 0 -64 26t-19 65q6 39 37.5 66.5t70.5 27.5
q38 0 62 -27.5t18 -66.5q-5 -39 -36 -65t-69 -26z" />
    <glyph glyph-name="uni1E92" unicode="&#x1e92;" horiz-adv-x="1292" 
d="M-18 0l23 168l1056 1064h-906l23 168h1132l-23 -168l-1056 -1064h906l-23 -168h-1132zM498 -406q-40 0 -63.5 26t-17.5 65t36.5 65t69.5 26q38 0 61.5 -26t18.5 -65q-6 -39 -36 -65t-69 -26z" />
    <glyph glyph-name="uni1E93" unicode="&#x1e93;" horiz-adv-x="1014" 
d="M953 832l-709 -664h615l-23 -168h-854l23 168l709 664h-615l23 168h854zM359 -406q-40 0 -63.5 26t-17.5 65t36.5 65t69.5 26q38 0 61.5 -26t18.5 -65q-6 -39 -36 -65t-69 -26z" />
    <glyph glyph-name="uni1E97" unicode="&#x1e97;" horiz-adv-x="697" 
d="M657 832h-227l-118 -832h-168l118 832h-172l23 168h172l43 314h168l-43 -314h227zM256 1392q-40 0 -63.5 26t-18.5 65q6 39 37 66.5t70 27.5q38 0 62 -27.5t19 -66.5q-6 -39 -37 -65t-69 -26zM593 1392q-40 0 -64 26t-19 65q6 39 37.5 66.5t70.5 27.5q38 0 62 -27.5
t18 -66.5q-5 -39 -36 -65t-69 -26z" />
    <glyph glyph-name="uni1E9E" unicode="&#x1e9e;" horiz-adv-x="1149" 
d="M22 0l131 937q13 96 61 179.5t120.5 147t161.5 99.5t184 36q99 0 179.5 -35t125 -99t32.5 -151q-6 -44 -40 -90t-99.5 -115t-168.5 -182q73 9 138 -14t113.5 -71t72 -113.5t13.5 -139.5q-14 -95 -63.5 -168t-121.5 -122t-155 -74t-163 -25h-64l-19 148h89
q69 0 144.5 24.5t131.5 78t68 140.5q13 86 -29 139t-110 77t-137 24h-74l8 67q2 31 32 75t71.5 93.5t84 98t72.5 88.5t32 64q7 53 -21 81.5t-79 40t-111 11.5q-72 0 -137.5 -37t-111 -99.5t-57.5 -139.5l-136 -974h-168z" />
    <glyph glyph-name="uni1EA0" unicode="&#x1ea0;" horiz-adv-x="1381" 
d="M687 1400h203l313 -1400h-178l-65 286h-655l-144 -286h-179zM390 454h532l-164 731zM542 -406q-40 0 -63.5 26t-17.5 65t36.5 65t69.5 26q38 0 61.5 -26t18.5 -65q-6 -39 -36 -65t-69 -26z" />
    <glyph glyph-name="uni1EA1" unicode="&#x1ea1;" horiz-adv-x="1171" 
d="M966 1000h168l-140 -1000h-168l17 169q-59 -87 -149.5 -141t-204.5 -54q-110 0 -200.5 41.5t-153.5 115t-90.5 169.5t-11.5 207q15 107 68.5 202t135 166.5t181 112t207.5 40.5q118 0 199.5 -55.5t124.5 -143.5zM508 137q99 0 178.5 48.5t131 131.5t65.5 183
q14 102 -14.5 184.5t-94 131t-163.5 48.5q-99 0 -187 -49t-147 -131.5t-73 -183.5t23 -183.5t111.5 -131t169.5 -48.5zM453 -406q-40 0 -63.5 26t-17.5 65t36.5 65t69.5 26q38 0 61.5 -26t18.5 -65q-6 -39 -36 -65t-69 -26z" />
    <glyph glyph-name="uni1EAC" unicode="&#x1eac;" horiz-adv-x="1381" 
d="M687 1400h203l313 -1400h-178l-65 286h-655l-144 -286h-179zM390 454h532l-164 731zM542 -406q-40 0 -63.5 26t-17.5 65t36.5 65t69.5 26q38 0 61.5 -26t18.5 -65q-6 -39 -36 -65t-69 -26zM937 1798l153 -288h-112l-147 200l-199 -200h-112l231 288h186z" />
    <glyph glyph-name="uni1EAD" unicode="&#x1ead;" horiz-adv-x="1171" 
d="M966 1000h168l-140 -1000h-168l17 169q-59 -87 -149.5 -141t-204.5 -54q-110 0 -200.5 41.5t-153.5 115t-90.5 169.5t-11.5 207q15 107 68.5 202t135 166.5t181 112t207.5 40.5q118 0 199.5 -55.5t124.5 -143.5zM508 137q99 0 178.5 48.5t131 131.5t65.5 183
q14 102 -14.5 184.5t-94 131t-163.5 48.5q-99 0 -187 -49t-147 -131.5t-73 -183.5t23 -183.5t111.5 -131t169.5 -48.5zM453 -406q-40 0 -63.5 26t-17.5 65t36.5 65t69.5 26q38 0 61.5 -26t18.5 -65q-6 -39 -36 -65t-69 -26zM792 1398l153 -288h-112l-147 200l-199 -200h-112
l231 288h186z" />
    <glyph glyph-name="uni1EB6" unicode="&#x1eb6;" horiz-adv-x="1381" 
d="M687 1400h203l313 -1400h-178l-65 286h-655l-144 -286h-179zM390 454h532l-164 731zM542 -406q-40 0 -63.5 26t-17.5 65t36.5 65t69.5 26q38 0 61.5 -26t18.5 -65q-6 -39 -36 -65t-69 -26zM801 1488q-91 0 -160 45t-103.5 120.5t-22.5 166.5h114q-8 -61 15 -110.5
t69 -78.5t104 -29q59 0 112.5 29t90.5 79t45 110h114q-13 -93 -69 -168.5t-137.5 -119.5t-171.5 -44z" />
    <glyph glyph-name="uni1EB7" unicode="&#x1eb7;" horiz-adv-x="1171" 
d="M966 1000h168l-140 -1000h-168l17 169q-59 -87 -149.5 -141t-204.5 -54q-110 0 -200.5 41.5t-153.5 115t-90.5 169.5t-11.5 207q15 107 68.5 202t135 166.5t181 112t207.5 40.5q118 0 199.5 -55.5t124.5 -143.5zM508 137q99 0 178.5 48.5t131 131.5t65.5 183
q14 102 -14.5 184.5t-94 131t-163.5 48.5q-99 0 -187 -49t-147 -131.5t-73 -183.5t23 -183.5t111.5 -131t169.5 -48.5zM453 -406q-40 0 -63.5 26t-17.5 65t36.5 65t69.5 26q38 0 61.5 -26t18.5 -65q-6 -39 -36 -65t-69 -26zM656 1088q-91 0 -160 45t-103.5 120.5
t-22.5 166.5h114q-8 -61 15 -110.5t69 -78.5t104 -29q59 0 112.5 29t90.5 79t45 110h114q-13 -93 -69 -168.5t-137.5 -119.5t-171.5 -44z" />
    <glyph glyph-name="uni1EB8" unicode="&#x1eb8;" horiz-adv-x="1079" 
d="M22 0l196 1400h859l-23 -168h-691l-56 -398h566l-23 -168h-567l-70 -498h691l-23 -168h-859zM392 -406q-40 0 -63.5 26t-17.5 65t36.5 65t69.5 26q38 0 61.5 -26t18.5 -65q-6 -39 -36 -65t-69 -26z" />
    <glyph glyph-name="uni1EB9" unicode="&#x1eb9;" horiz-adv-x="1117" 
d="M458 -26q-138 0 -241.5 71t-154 190.5t-30.5 264.5q15 110 67.5 205.5t131.5 168t175.5 113.5t199.5 41q113 0 201 -45.5t144 -126.5t75 -188t-8 -229h-815q-1 -85 34 -151.5t97.5 -105.5t146.5 -40q90 0 170 46.5t136 127.5l165 -40q-79 -133 -211.5 -217.5
t-282.5 -84.5zM216 571h651q4 84 -32 153.5t-100.5 111.5t-148.5 42q-85 0 -160.5 -41t-131 -110.5t-78.5 -155.5zM411 -406q-40 0 -63.5 26t-17.5 65t36.5 65t69.5 26q38 0 61.5 -26t18.5 -65q-6 -39 -36 -65t-69 -26z" />
    <glyph glyph-name="uni1EBC" unicode="&#x1ebc;" horiz-adv-x="1079" 
d="M22 0l196 1400h859l-23 -168h-691l-56 -398h566l-23 -168h-567l-70 -498h691l-23 -168h-859zM809 1524q-37 0 -80 24t-85.5 55t-78 51.5t-58.5 12.5q-24 -8 -39 -33t-11 -62l-111 -29q-13 62 8.5 117.5t69 89.5t110.5 34q38 0 80.5 -22t85 -50.5t78 -50t58.5 -21.5
q22 0 34.5 16.5t17.5 38.5t1 39l112 35q13 -66 -10.5 -121.5t-71 -89.5t-110.5 -34z" />
    <glyph glyph-name="uni1EBD" unicode="&#x1ebd;" horiz-adv-x="1117" 
d="M458 -26q-138 0 -241.5 71t-154 190.5t-30.5 264.5q15 110 67.5 205.5t131.5 168t175.5 113.5t199.5 41q113 0 201 -45.5t144 -126.5t75 -188t-8 -229h-815q-1 -85 34 -151.5t97.5 -105.5t146.5 -40q90 0 170 46.5t136 127.5l165 -40q-79 -133 -211.5 -217.5
t-282.5 -84.5zM216 571h651q4 84 -32 153.5t-100.5 111.5t-148.5 42q-85 0 -160.5 -41t-131 -110.5t-78.5 -155.5zM773 1124q-37 0 -80 24t-85.5 55t-78 51.5t-58.5 12.5q-24 -8 -39 -33t-11 -62l-111 -29q-13 62 8.5 117.5t69 89.5t110.5 34q38 0 80.5 -22t85 -50.5t78 -50
t58.5 -21.5q22 0 34.5 16.5t17.5 38.5t1 39l112 35q13 -66 -10.5 -121.5t-71 -89.5t-110.5 -34z" />
    <glyph glyph-name="uni1EC6" unicode="&#x1ec6;" horiz-adv-x="1079" 
d="M22 0l196 1400h859l-23 -168h-691l-56 -398h566l-23 -168h-567l-70 -498h691l-23 -168h-859zM392 -406q-40 0 -63.5 26t-17.5 65t36.5 65t69.5 26q38 0 61.5 -26t18.5 -65q-6 -39 -36 -65t-69 -26zM787 1798l153 -288h-112l-147 200l-199 -200h-112l231 288h186z" />
    <glyph glyph-name="uni1EC7" unicode="&#x1ec7;" horiz-adv-x="1117" 
d="M458 -26q-138 0 -241.5 71t-154 190.5t-30.5 264.5q15 110 67.5 205.5t131.5 168t175.5 113.5t199.5 41q113 0 201 -45.5t144 -126.5t75 -188t-8 -229h-815q-1 -85 34 -151.5t97.5 -105.5t146.5 -40q90 0 170 46.5t136 127.5l165 -40q-79 -133 -211.5 -217.5
t-282.5 -84.5zM216 571h651q4 84 -32 153.5t-100.5 111.5t-148.5 42q-85 0 -160.5 -41t-131 -110.5t-78.5 -155.5zM411 -406q-40 0 -63.5 26t-17.5 65t36.5 65t69.5 26q38 0 61.5 -26t18.5 -65q-6 -39 -36 -65t-69 -26zM750 1398l153 -288h-112l-147 200l-199 -200h-112
l231 288h186z" />
    <glyph glyph-name="uni1ECA" unicode="&#x1eca;" horiz-adv-x="468" 
d="M52 0l196 1400h168l-196 -1400h-168zM86 -406q-40 0 -63.5 26t-17.5 65t36.5 65t69.5 26q38 0 61.5 -26t18.5 -65q-6 -39 -36 -65t-69 -26z" />
    <glyph glyph-name="uni1ECB" unicode="&#x1ecb;" 
d="M162 1000h168l-140 -1000h-168zM271 1163q-40 0 -63.5 26t-17.5 65t36.5 65t69.5 26q38 0 61.5 -26t18.5 -65q-6 -39 -36 -65t-69 -26zM56 -406q-40 0 -63.5 26t-17.5 65t36.5 65t69.5 26q38 0 61.5 -26t18.5 -65q-6 -39 -36 -65t-69 -26z" />
    <glyph glyph-name="uni1ECC" unicode="&#x1ecc;" horiz-adv-x="1540" 
d="M668 -26q-142 0 -259.5 56.5t-198 156.5t-116 231.5t-14.5 281.5t93 281.5t181.5 231.5t242.5 156.5t275 56.5q143 0 260 -56.5t197.5 -156.5t116 -231.5t14.5 -281.5t-93 -281.5t-181.5 -231.5t-242 -156.5t-275.5 -56.5zM691 142q109 0 209.5 44t183 121.5t137.5 178
t71 214.5t-10.5 215.5t-87 178t-149 120.5t-196.5 44q-109 0 -209.5 -44t-183 -121.5t-137.5 -178t-71 -214.5q-16 -115 10.5 -216t87 -178t149 -120.5t196.5 -43.5zM622 -406q-40 0 -63.5 26t-17.5 65t36.5 65t69.5 26q38 0 61.5 -26t18.5 -65q-6 -39 -36 -65t-69 -26z" />
    <glyph glyph-name="uni1ECD" unicode="&#x1ecd;" horiz-adv-x="1120" 
d="M458 -26q-138 0 -241.5 71t-154 190.5t-30.5 264.5q15 110 67.5 205.5t131.5 168t175.5 113.5t199.5 41q138 0 241.5 -71t154.5 -191t30 -266q-15 -109 -67.5 -204t-131.5 -167.5t-175 -113.5t-200 -41zM481 142q94 0 176 49.5t138 131t69 177.5q14 98 -19 180t-101 131
t-161 49q-94 0 -176 -49.5t-137.5 -131.5t-69.5 -179q-14 -100 19.5 -181.5t102.5 -129t159 -47.5zM412 -406q-40 0 -63.5 26t-17.5 65t36.5 65t69.5 26q38 0 61.5 -26t18.5 -65q-6 -39 -36 -65t-69 -26z" />
    <glyph glyph-name="uni1ED8" unicode="&#x1ed8;" horiz-adv-x="1540" 
d="M668 -26q-142 0 -259.5 56.5t-198 156.5t-116 231.5t-14.5 281.5t93 281.5t181.5 231.5t242.5 156.5t275 56.5q143 0 260 -56.5t197.5 -156.5t116 -231.5t14.5 -281.5t-93 -281.5t-181.5 -231.5t-242 -156.5t-275.5 -56.5zM691 142q109 0 209.5 44t183 121.5t137.5 178
t71 214.5t-10.5 215.5t-87 178t-149 120.5t-196.5 44q-109 0 -209.5 -44t-183 -121.5t-137.5 -178t-71 -214.5q-16 -115 10.5 -216t87 -178t149 -120.5t196.5 -43.5zM622 -406q-40 0 -63.5 26t-17.5 65t36.5 65t69.5 26q38 0 61.5 -26t18.5 -65q-6 -39 -36 -65t-69 -26z
M1017 1798l153 -288h-112l-147 200l-199 -200h-112l231 288h186z" />
    <glyph glyph-name="uni1ED9" unicode="&#x1ed9;" horiz-adv-x="1120" 
d="M458 -26q-138 0 -241.5 71t-154 190.5t-30.5 264.5q15 110 67.5 205.5t131.5 168t175.5 113.5t199.5 41q138 0 241.5 -71t154.5 -191t30 -266q-15 -109 -67.5 -204t-131.5 -167.5t-175 -113.5t-200 -41zM481 142q94 0 176 49.5t138 131t69 177.5q14 98 -19 180t-101 131
t-161 49q-94 0 -176 -49.5t-137.5 -131.5t-69.5 -179q-14 -100 19.5 -181.5t102.5 -129t159 -47.5zM412 -406q-40 0 -63.5 26t-17.5 65t36.5 65t69.5 26q38 0 61.5 -26t18.5 -65q-6 -39 -36 -65t-69 -26zM751 1398l153 -288h-112l-147 200l-199 -200h-112l231 288h186z" />
    <glyph glyph-name="uni1EE4" unicode="&#x1ee4;" horiz-adv-x="1335" 
d="M566 -26q-168 0 -279.5 82t-159 220.5t-23.5 307.5l114 816h168l-114 -816q-17 -120 13 -221t106 -161t199 -60t216 60.5t150.5 161t74.5 220.5l114 816h168l-114 -816q-18 -127 -71.5 -237.5t-137 -194.5t-191 -131t-233.5 -47zM520 -406q-40 0 -63.5 26t-17.5 65
t36.5 65t69.5 26q38 0 61.5 -26t18.5 -65q-6 -39 -36 -65t-69 -26z" />
    <glyph glyph-name="uni1EE5" unicode="&#x1ee5;" horiz-adv-x="1044" 
d="M35 380l87 620h168l-82 -583q-10 -76 18 -138t85 -98.5t132 -36.5q76 0 143.5 36.5t113 98.5t55.5 138l82 583h168l-139 -1000h-168l16 127q-63 -70 -149.5 -111.5t-180.5 -41.5q-112 0 -196.5 54.5t-126 146.5t-26.5 205zM391 -405q-40 0 -63.5 26t-17.5 65t36.5 65
t69.5 26q38 0 61.5 -26t18.5 -65q-6 -39 -36 -65t-69 -26z" />
    <glyph glyph-name="Ygrave" unicode="&#x1ef2;" horiz-adv-x="1236" 
d="M1076 1400h198l-582 -767l-88 -633h-168l88 633l-366 767h198l278 -583zM560 1798h168l40 -288h-112z" />
    <glyph glyph-name="ygrave" unicode="&#x1ef3;" horiz-adv-x="1063" 
d="M847 1000h178l-758 -1500h-178l252 500l-219 1000h184l151 -769zM418 1398h168l40 -288h-112z" />
    <glyph glyph-name="uni1EF4" unicode="&#x1ef4;" horiz-adv-x="1236" 
d="M1076 1400h198l-582 -767l-88 -633h-168l88 633l-366 767h198l278 -583zM470 -406q-40 0 -63.5 26t-17.5 65t36.5 65t69.5 26q38 0 61.5 -26t18.5 -65q-6 -39 -36 -65t-69 -26z" />
    <glyph glyph-name="uni1EF5" unicode="&#x1ef5;" horiz-adv-x="1063" 
d="M847 1000h178l-758 -1500h-178l252 500l-219 1000h184l151 -769zM587 -406q-40 0 -63.5 26t-17.5 65t36.5 65t69.5 26q38 0 61.5 -26t18.5 -65q-6 -39 -36 -65t-69 -26z" />
    <glyph glyph-name="uni1EF8" unicode="&#x1ef8;" horiz-adv-x="1236" 
d="M1076 1400h198l-582 -767l-88 -633h-168l88 633l-366 767h198l278 -583zM887 1524q-37 0 -80 24t-85.5 55t-78 51.5t-58.5 12.5q-24 -8 -39 -33t-11 -62l-111 -29q-13 62 8.5 117.5t69 89.5t110.5 34q38 0 80.5 -22t85 -50.5t78 -50t58.5 -21.5q22 0 34.5 16.5t17.5 38.5
t1 39l112 35q13 -66 -10.5 -121.5t-71 -89.5t-110.5 -34z" />
    <glyph glyph-name="uni1EF9" unicode="&#x1ef9;" horiz-adv-x="1063" 
d="M847 1000h178l-758 -1500h-178l252 500l-219 1000h184l151 -769zM745 1124q-37 0 -80 24t-85.5 55t-78 51.5t-58.5 12.5q-24 -8 -39 -33t-11 -62l-111 -29q-13 62 8.5 117.5t69 89.5t110.5 34q38 0 80.5 -22t85 -50.5t78 -50t58.5 -21.5q22 0 34.5 16.5t17.5 38.5t1 39
l112 35q13 -66 -10.5 -121.5t-71 -89.5t-110.5 -34z" />
    <glyph glyph-name="uni2002" unicode="&#x2002;" horiz-adv-x="1000" 
 />
    <glyph glyph-name="uni2009" unicode="&#x2009;" horiz-adv-x="400" 
 />
    <glyph glyph-name="uni200B" unicode="&#x200b;" horiz-adv-x="0" 
 />
    <glyph glyph-name="endash" unicode="&#x2013;" horiz-adv-x="1240" 
d="M118 684h1000l-24 -168h-1000z" />
    <glyph glyph-name="emdash" unicode="&#x2014;" horiz-adv-x="2040" 
d="M118 684h1800l-24 -168h-1800z" />
    <glyph glyph-name="quoteright" unicode="&#x2019;" horiz-adv-x="330" 
d="M65 878l135 522h168l-191 -522h-112z" />
    <glyph glyph-name="quoteright" unicode="&#x2032;" horiz-adv-x="330" 
d="M65 878l135 522h168l-191 -522h-112z" />
    <glyph glyph-name="quotesinglbase" unicode="&#x201a;" horiz-adv-x="368" 
d="M-56 -112l109 338h168l-165 -338h-112z" />
    <glyph glyph-name="quotedblleft" unicode="&#x201c;" horiz-adv-x="690" 
d="M145 878l191 522h112l-135 -522h-168zM445 882l191 522h112l-135 -522h-168z" />
    <glyph glyph-name="quotedblright" unicode="&#x201d;" horiz-adv-x="690" 
d="M65 878l135 522h168l-191 -522h-112zM365 878l135 522h168l-191 -522h-112z" />
    <glyph glyph-name="quotedblright" unicode="&#x2033;" horiz-adv-x="690" 
d="M65 878l135 522h168l-191 -522h-112zM365 878l135 522h168l-191 -522h-112z" />
    <glyph glyph-name="quotedblbase" unicode="&#x201e;" horiz-adv-x="667" 
d="M-56 -112l109 338h168l-165 -338h-112zM243 -112l109 338h168l-165 -338h-112z" />
    <glyph glyph-name="dagger" unicode="&#x2020;" horiz-adv-x="808" 
d="M133 1077l24 168h239l36 255h168l-36 -255h240l-23 -168h-240l-69 -495h-168l69 495h-240z" />
    <glyph glyph-name="daggerdbl" unicode="&#x2021;" horiz-adv-x="808" 
d="M89 768l24 166h239l28 188h-241l23 168h241l29 210h168l-29 -210h240l-24 -168h-239l-28 -188h241l-23 -166h-241l-29 -208h-168l29 208h-240z" />
    <glyph glyph-name="bullet" unicode="&#x2022;" horiz-adv-x="406" 
d="M171 477q-51 0 -82 35.5t-23 88.5q7 51 47.5 86.5t91.5 35.5q52 0 83 -35.5t24 -86.5q-7 -53 -48 -88.5t-93 -35.5z" />
    <glyph glyph-name="ellipsis" unicode="&#x2026;" horiz-adv-x="1089" 
d="M69 -26q-38 0 -60.5 27t-17.5 66q5 37 35.5 64t69.5 27t62 -27t17 -64q-5 -39 -36 -66t-70 -27zM421 -26q-38 0 -60.5 27t-17.5 66q5 37 35.5 64t69.5 27t62 -27t17 -64q-5 -39 -36 -66t-70 -27zM773 -26q-38 0 -60.5 27t-17.5 66q5 37 35.5 64t69.5 27t62 -27t17 -64
q-5 -39 -36 -66t-70 -27z" />
    <glyph glyph-name="perthousand" unicode="&#x2030;" horiz-adv-x="1892" 
d="M72 0l1004 1400h194l-1004 -1400h-194zM355 837q-70 0 -123.5 34t-80.5 92t-16 129q11 73 54 130.5t106 91.5t132 34q70 0 123 -34.5t79.5 -92.5t16.5 -129q-10 -72 -53.5 -129.5t-106 -91.5t-131.5 -34zM373 960q55 0 99 38.5t51 93.5q8 56 -25 94.5t-88 38.5
t-99.5 -38.5t-52.5 -94.5q-7 -55 26.5 -93.5t88.5 -38.5zM883 51q-71 0 -124 35.5t-79 94t-17 126.5q10 72 53.5 130t107 92t131.5 34q73 0 125.5 -35.5t78 -93.5t16.5 -127q-10 -71 -52.5 -129t-105.5 -92.5t-134 -34.5zM900 174q55 0 100 39t52 94q8 55 -26 94t-89 39
t-99 -39t-52 -94q-7 -55 26 -94t88 -39zM1465 51q-71 0 -123.5 35.5t-79 94t-17.5 126.5q11 72 54.5 130t106.5 92t132 34q72 0 125 -35.5t78.5 -93.5t15.5 -127q-10 -71 -52.5 -129t-105.5 -92.5t-134 -34.5zM1482 174q56 0 101 39t52 94q8 55 -26 94t-90 39q-54 0 -98 -39
t-52 -94q-7 -55 26 -94t87 -39z" />
    <glyph glyph-name="uni2035" unicode="&#x2035;" horiz-adv-x="470" 
d="M263 878l-45 522h168l-11 -522h-112z" />
    <glyph glyph-name="guilsinglleft" unicode="&#x2039;" horiz-adv-x="699" 
d="M358 261l-252 340l348 338h179l-347 -338l251 -340h-179z" />
    <glyph glyph-name="guilsinglright" unicode="&#x203a;" horiz-adv-x="699" 
d="M38 261l347 340l-251 338h179l252 -338l-348 -340h-179z" />
    <glyph glyph-name="fraction" unicode="&#x2044;" horiz-adv-x="450" 
d="M-351 0l1004 1400h148l-1004 -1400h-148z" />
    <glyph glyph-name="fraction" unicode="&#x2215;" horiz-adv-x="450" 
d="M-351 0l1004 1400h148l-1004 -1400h-148z" />
    <glyph glyph-name="uni2070" unicode="&#x2070;" horiz-adv-x="648" 
d="M338 798q-69 0 -120.5 43.5t-74.5 119.5t-10 172q14 96 58.5 171.5t108 119.5t132.5 44q70 0 121 -44t74.5 -119.5t9.5 -171.5q-13 -96 -58 -172t-108 -119.5t-133 -43.5zM353 908q43 0 79 35.5t59.5 88t30.5 101.5q7 55 -2.5 106.5t-35.5 85t-67 33.5q-44 0 -79.5 -35
t-58.5 -86.5t-31 -103.5q-7 -55 2.5 -106.5t35.5 -85t67 -33.5z" />
    <glyph glyph-name="uni2074" unicode="&#x2074;" horiz-adv-x="684" 
d="M374 818l17 115h-262l19 138l292 378h138l-57 -401h67l-15 -115h-67l-16 -115h-116zM261 1048h153l34 243z" />
    <glyph glyph-name="uni2075" unicode="&#x2075;" horiz-adv-x="686" 
d="M327 798q-95 0 -153.5 61t-45.5 156h116q-7 -46 22 -76.5t76 -30.5t85 30.5t44 76.5q8 46 -22 78t-76 34q-27 1 -57.5 -1t-64.5 -7t-73 -14l80 344h344l-14 -104h-240l-21 -107q130 12 203 -48.5t57 -174.5q-14 -95 -89.5 -156t-170.5 -61z" />
    <glyph glyph-name="uni2076" unicode="&#x2076;" horiz-adv-x="706" 
d="M343 798q-100 0 -157.5 63t-44.5 158q4 29 15.5 56t39 69t79 113.5t136.5 188.5h134l-144 -201q68 2 117.5 -29t73.5 -83t15 -115q-9 -67 -48.5 -116.5t-96.5 -76.5t-119 -27zM358 908q51 0 90 33.5t44 84.5q4 50 -27.5 80t-74.5 30q-54 0 -92 -38.5t-42 -87.5
q-5 -48 26.5 -75t75.5 -27z" />
    <glyph glyph-name="uni2077" unicode="&#x2077;" horiz-adv-x="646" 
d="M162 818l366 514h-320l17 116h454l-17 -113l-367 -517h-133z" />
    <glyph glyph-name="uni2078" unicode="&#x2078;" horiz-adv-x="612" 
d="M319 798q-87 0 -140.5 54.5t-41.5 141.5q7 48 32 88t61 68q-22 26 -32 60.5t-5 72.5q11 82 75 134t145 52t131.5 -52t39.5 -134q-6 -38 -26 -72.5t-50 -60.5q29 -28 43 -68t6 -88q-11 -87 -80.5 -141.5t-157.5 -54.5zM334 907q40 0 71.5 24.5t36.5 62.5q6 40 -18 67.5
t-64 27.5q-39 0 -70.5 -27.5t-36.5 -67.5q-6 -38 18 -62.5t63 -24.5zM375 1204q35 0 62 23.5t32 55.5q4 35 -16.5 55t-55.5 20q-31 0 -57.5 -20t-31.5 -55q-4 -32 16 -55.5t51 -23.5z" />
    <glyph glyph-name="uni2079" unicode="&#x2079;" horiz-adv-x="659" 
d="M209 818l146 204q-61 -6 -107 18t-72 67t-28 96.5t27 107.5q29 74 95.5 115.5t143.5 41.5q59 0 103 -24.5t69.5 -65t27 -91.5t-24.5 -104q-5 -26 -24 -57l-223 -308h-133zM366 1129q37 0 68 20t50 52.5t17 69.5q-3 42 -34.5 64.5t-68.5 22.5t-68.5 -18.5t-49 -49.5
t-16.5 -66q2 -48 34.5 -71.5t67.5 -23.5z" />
    <glyph glyph-name="uni2080" unicode="&#x2080;" horiz-adv-x="648" 
d="M221 -31q-69 0 -120 44.5t-74 121.5t-10 173q14 96 58.5 172.5t108.5 122t133 45.5q70 0 120.5 -45.5t74 -122t9.5 -172.5q-13 -96 -58 -173t-108.5 -121.5t-133.5 -44.5zM238 84q42 0 77.5 35.5t60 87.5t30.5 101q8 54 -2 106t-36 85.5t-67 33.5q-44 0 -79.5 -35
t-58.5 -87t-31 -103q-7 -54 2 -105.5t36 -85t68 -33.5z" />
    <glyph glyph-name="uni2081" unicode="&#x2081;" horiz-adv-x="431" 
d="M73 0l72 516h-75l33 115h174l-88 -631h-116z" />
    <glyph glyph-name="uni2082" unicode="&#x2082;" horiz-adv-x="696" 
d="M-2 0l14 106q44 27 102 64t116.5 80t104.5 90t64 94q7 47 -21 76.5t-75 29.5t-84.5 -29.5t-44.5 -76.5h-116q10 63 47.5 113t93.5 79t120 29q63 0 110 -29t70.5 -79t14.5 -113q-6 -43 -35.5 -86.5t-73 -85t-92.5 -79t-94 -68.5h245l-16 -115h-450z" />
    <glyph glyph-name="uni2083" unicode="&#x2083;" horiz-adv-x="562" 
d="M179 -31q-58 0 -102 27t-65.5 72.5t-12.5 103.5h115q-7 -39 17 -63.5t64 -24.5q39 0 69 24.5t37 63.5q6 46 -25.5 77t-99.5 31l13 87q63 0 95.5 27t37.5 67q5 31 -16 51.5t-52 20.5q-32 0 -58.5 -20.5t-30.5 -51.5h-116q12 80 76 133.5t144 53.5q82 0 131 -53.5
t38 -133.5q-6 -42 -27 -77.5t-48 -56.5q33 -32 46.5 -68t6.5 -87q-8 -58 -43 -103.5t-86.5 -72.5t-107.5 -27z" />
    <glyph glyph-name="uni2084" unicode="&#x2084;" horiz-adv-x="684" 
d="M259 0l17 115h-262l19 139l292 377h138l-57 -401h67l-15 -115h-67l-16 -115h-116zM146 230h153l34 243z" />
    <glyph glyph-name="uni2085" unicode="&#x2085;" horiz-adv-x="686" 
d="M210 -31q-63 0 -111 29t-71.5 79t-14.5 113h115q-7 -46 22 -76t76 -30t85 30t45 76q6 47 -23 79.5t-77 32.5l-194 -19l79 341h346l-15 -106h-240l-21 -105l63 5q104 0 157.5 -66t39.5 -162q-9 -63 -47 -113t-94.5 -79t-119.5 -29z" />
    <glyph glyph-name="uni2086" unicode="&#x2086;" horiz-adv-x="682" 
d="M226 -31q-100 0 -157 66t-44 160q4 29 15 56.5t39.5 69.5t80 113.5t136.5 188.5h134l-146 -203q68 3 118 -28t74 -83t15 -115q-9 -66 -49 -117t-97 -79.5t-119 -28.5zM243 84q50 0 89.5 33.5t42.5 84.5q5 50 -26.5 79.5t-73.5 29.5q-54 0 -92.5 -38t-42.5 -87
q-4 -48 26.5 -75t76.5 -27z" />
    <glyph glyph-name="uni2087" unicode="&#x2087;" horiz-adv-x="646" 
d="M44 0l370 516h-320l16 115h454l-17 -113l-370 -518h-133z" />
    <glyph glyph-name="uni2088" unicode="&#x2088;" horiz-adv-x="612" 
d="M202 -31q-87 0 -140 57.5t-40 143.5q6 47 31.5 87.5t61.5 68.5q-22 25 -33 60t-5 73q11 83 76 136.5t145 53.5q81 0 131.5 -53.5t37.5 -136.5q-4 -38 -24.5 -73t-49.5 -60q28 -28 41.5 -68.5t7.5 -87.5q-13 -86 -82.5 -143.5t-157.5 -57.5zM218 83q40 0 72 24t37 63
t-19 66.5t-64 27.5q-39 0 -70.5 -27.5t-36.5 -66.5q-6 -39 18.5 -63t62.5 -24zM260 379q35 0 62 24.5t30 55.5q5 34 -15.5 54.5t-55.5 20.5q-31 0 -57.5 -20.5t-31.5 -54.5q-4 -31 16 -55.5t52 -24.5z" />
    <glyph glyph-name="uni2089" unicode="&#x2089;" horiz-adv-x="659" 
d="M94 0l146 204q-61 -6 -107 18t-72 67.5t-27.5 97t26.5 107.5q19 50 56 86t84.5 55.5t98.5 19.5q66 0 114 -31t71.5 -81t17 -110.5t-48.5 -118.5l-226 -314h-133zM251 312q37 0 68 20t50 52t17 69q-3 42 -34.5 64.5t-68.5 22.5q-38 0 -69 -18.5t-48.5 -49t-16.5 -66.5
q2 -48 34.5 -71t67.5 -23z" />
    <glyph glyph-name="Euro" unicode="&#x20ac;" horiz-adv-x="1155" 
d="M974 -15q-139 -24 -261 4t-217.5 99.5t-156 178t-76.5 239.5h-210l17 123h188l20 141h-188l17 123h210q54 134 145.5 241.5t207.5 178.5t246 99t260 4l-25 -172q-99 23 -196 7t-184 -65t-157.5 -124t-115.5 -169h315l-18 -123h-348l-19 -141h348l-18 -123h-314
q20 -97 70.5 -172t124 -122.5t165.5 -62.5t194 9z" />
    <glyph glyph-name="trademark" unicode="&#x2122;" horiz-adv-x="2955" 
d="M1277 1400l-24 -168h-466l-172 -1232h-168l172 1232h-464l23 168h1099zM1181 0l467 1400h129l239 -994l516 994h129l76 -1400h-171l-54 1016l-488 -940h-110l-224 940l-338 -1016h-171z" />
    <glyph glyph-name="oneeighth" unicode="&#x215b;" horiz-adv-x="1493" 
d="M188 818l72 516h-75l33 115h174l-88 -631h-116zM80 0l1004 1400h148l-1004 -1400h-148zM1083 -31q-87 0 -140 57.5t-40 143.5q6 47 31.5 87.5t61.5 68.5q-22 25 -33 60t-5 73q11 83 76 136.5t145 53.5q81 0 131.5 -53.5t37.5 -136.5q-4 -38 -24.5 -73t-49.5 -60
q28 -28 41.5 -68.5t7.5 -87.5q-13 -86 -82.5 -143.5t-157.5 -57.5zM1099 83q40 0 72 24t37 63t-19 66.5t-64 27.5q-39 0 -70.5 -27.5t-36.5 -66.5q-6 -39 18.5 -63t62.5 -24zM1141 379q35 0 62 24.5t30 55.5q5 34 -15.5 54.5t-55.5 20.5q-31 0 -57.5 -20.5t-31.5 -54.5
q-4 -31 16 -55.5t52 -24.5z" />
    <glyph glyph-name="threeeighths" unicode="&#x215c;" horiz-adv-x="1624" 
d="M296 798q-86 0 -140.5 56t-41.5 143h115q-6 -40 18.5 -64.5t63.5 -24.5t69 24.5t36 64.5q6 45 -25 76.5t-99 31.5l12 87q63 0 96 26.5t38 65.5q5 32 -16 52.5t-53 20.5q-31 0 -57.5 -20.5t-31.5 -52.5h-115q11 81 75.5 132t144.5 51q81 0 130.5 -51t37.5 -132
q-5 -40 -26 -76.5t-48 -56.5q33 -31 46.5 -67.5t5.5 -86.5q-12 -87 -81 -143t-154 -56zM211 0l1004 1400h148l-1004 -1400h-148zM1214 -31q-87 0 -140 57.5t-40 143.5q6 47 31.5 87.5t61.5 68.5q-22 25 -33 60t-5 73q11 83 76 136.5t145 53.5q81 0 131.5 -53.5t37.5 -136.5
q-4 -38 -24.5 -73t-49.5 -60q28 -28 41.5 -68.5t7.5 -87.5q-13 -86 -82.5 -143.5t-157.5 -57.5zM1230 83q40 0 72 24t37 63t-19 66.5t-64 27.5q-39 0 -70.5 -27.5t-36.5 -66.5q-6 -39 18.5 -63t62.5 -24zM1272 379q35 0 62 24.5t30 55.5q5 34 -15.5 54.5t-55.5 20.5
q-31 0 -57.5 -20.5t-31.5 -54.5q-4 -31 16 -55.5t52 -24.5z" />
    <glyph glyph-name="fiveeighths" unicode="&#x215d;" horiz-adv-x="1748" 
d="M327 798q-95 0 -153.5 61t-45.5 156h116q-7 -46 22 -76.5t76 -30.5t85 30.5t44 76.5q8 46 -22 78t-76 34q-27 1 -57.5 -1t-64.5 -7t-73 -14l80 344h344l-14 -104h-240l-21 -107q130 12 203 -48.5t57 -174.5q-14 -95 -89.5 -156t-170.5 -61zM335 0l1004 1400h148
l-1004 -1400h-148zM1338 -31q-87 0 -140 57.5t-40 143.5q6 47 31.5 87.5t61.5 68.5q-22 25 -33 60t-5 73q11 83 76 136.5t145 53.5q81 0 131.5 -53.5t37.5 -136.5q-4 -38 -24.5 -73t-49.5 -60q28 -28 41.5 -68.5t7.5 -87.5q-13 -86 -82.5 -143.5t-157.5 -57.5zM1354 83
q40 0 72 24t37 63t-19 66.5t-64 27.5q-39 0 -70.5 -27.5t-36.5 -66.5q-6 -39 18.5 -63t62.5 -24zM1396 379q35 0 62 24.5t30 55.5q5 34 -15.5 54.5t-55.5 20.5q-31 0 -57.5 -20.5t-31.5 -54.5q-4 -31 16 -55.5t52 -24.5z" />
    <glyph glyph-name="seveneighths" unicode="&#x215e;" horiz-adv-x="1708" 
d="M162 818l366 514h-320l17 116h454l-17 -113l-367 -517h-133zM295 0l1004 1400h148l-1004 -1400h-148zM1298 -31q-87 0 -140 57.5t-40 143.5q6 47 31.5 87.5t61.5 68.5q-22 25 -33 60t-5 73q11 83 76 136.5t145 53.5q81 0 131.5 -53.5t37.5 -136.5q-4 -38 -24.5 -73
t-49.5 -60q28 -28 41.5 -68.5t7.5 -87.5q-13 -86 -82.5 -143.5t-157.5 -57.5zM1314 83q40 0 72 24t37 63t-19 66.5t-64 27.5q-39 0 -70.5 -27.5t-36.5 -66.5q-6 -39 18.5 -63t62.5 -24zM1356 379q35 0 62 24.5t30 55.5q5 34 -15.5 54.5t-55.5 20.5q-31 0 -57.5 -20.5
t-31.5 -54.5q-4 -31 16 -55.5t52 -24.5z" />
    <glyph glyph-name="arrowleft" unicode="&#x2190;" horiz-adv-x="1380" 
d="M521 245l-434 505l576 505l102 -119l-345 -302h899l-24 -168h-898l258 -302z" />
    <glyph glyph-name="arrowup" unicode="&#x2191;" horiz-adv-x="1171" 
d="M423 139l126 900l-344 -303l-103 120l576 505l435 -505l-135 -120l-261 303l-126 -900h-168z" />
    <glyph glyph-name="arrowright" unicode="&#x2192;" horiz-adv-x="1381" 
d="M731 245l-102 119l344 302h-898l24 168h897l-258 302l136 119l434 -505z" />
    <glyph glyph-name="arrowdown" unicode="&#x2193;" horiz-adv-x="1170" 
d="M505 140l-432 505l134 119l260 -302l126 898h167l-125 -898l345 302l102 -119z" />
    <glyph glyph-name="arrowboth" unicode="&#x2194;" horiz-adv-x="1727" 
d="M521 245l-434 505l576 505l102 -119l-345 -302h922l-258 302l135 119l435 -505l-577 -505l-102 119l344 302h-922l258 -302z" />
    <glyph glyph-name="arrowupdn" unicode="&#x2195;" horiz-adv-x="1171" 
d="M481 -34l-434 506l136 119l260 -303l129 924l-344 -302l-101 119l575 505l435 -505l-137 -119l-260 302l-129 -924l344 303l103 -119z" />
    <glyph glyph-name="uni2196" unicode="&#x2196;" horiz-adv-x="1083" 
d="M827 289l-548 636l-60 -428h-168l100 714h714l-23 -168h-426l545 -636z" />
    <glyph glyph-name="uni2197" unicode="&#x2197;" horiz-adv-x="1082" 
d="M141 290l-101 118l723 634h-428l23 168h715l-100 -714h-168l60 428z" />
    <glyph glyph-name="uni2198" unicode="&#x2198;" horiz-adv-x="1082" 
d="M230 290l24 168h427l-546 634l135 118l547 -634l60 428h168l-101 -714h-714z" />
    <glyph glyph-name="uni2199" unicode="&#x2199;" horiz-adv-x="1082" 
d="M23 290l100 714h168l-60 -428l723 634l103 -118l-724 -634h427l-23 -168h-714z" />
    <glyph glyph-name="partialdiff" unicode="&#x2202;" horiz-adv-x="1165" 
d="M481 -26q-138 0 -243 68t-157 182t-32 252q15 104 66.5 195.5t130.5 160.5t175.5 108t200.5 39q82 0 147 -35t103 -94q-10 89 -39 175.5t-81 157.5t-129 113t-182 42l22 168q161 0 284 -78.5t202 -216t108 -316t2 -377.5q-22 -160 -103 -282.5t-204 -192t-271 -69.5z
M504 142q95 0 177 46t137.5 122t68.5 166q13 92 -21.5 168t-104.5 121.5t-163 45.5q-94 0 -176 -46t-137 -122t-68 -167q-13 -90 21 -166.5t104 -122t162 -45.5z" />
    <glyph glyph-name="emptyset" unicode="&#x2205;" horiz-adv-x="1160" 
d="M230 -60l-112 70l62 85q-74 72 -109.5 177.5t-18.5 227.5q15 110 67.5 205.5t131.5 168t175.5 113.5t199.5 41q53 0 101 -11.5t90 -32.5l58 80l112 -70l-61 -86q73 -72 108 -177.5t18 -230.5q-15 -109 -67.5 -204t-131.5 -167.5t-175 -113.5t-200 -41q-52 0 -100.5 12
t-90.5 33zM283 238l437 611q-78 33 -162 18t-158.5 -67t-126 -132t-65.5 -176q-11 -78 10 -143t65 -111zM384 154q81 -33 165 -18.5t158 67t124.5 131.5t64.5 174q11 78 -9.5 144t-63.5 113z" />
    <glyph glyph-name="product" unicode="&#x220f;" horiz-adv-x="1280" 
d="M178 1400h1120l-23 -168h-1120zM338 1287h168l-180 -1287h-168zM938 1287h168l-180 -1287h-168z" />
    <glyph glyph-name="summation" unicode="&#x2211;" horiz-adv-x="946" 
d="M-18 0l23 168l346 530l-197 530l24 168h806l-23 -168h-617l196 -530l-345 -530h617l-24 -168h-806z" />
    <glyph glyph-name="minus" unicode="&#x2212;" horiz-adv-x="1160" 
d="M54 516l24 168h1000l-24 -168h-1000z" />
    <glyph glyph-name="radical" unicode="&#x221a;" horiz-adv-x="1302" 
d="M976 1400h344l-23 -168h-228l-623 -1232h-206l-159 708h179l112 -500z" />
    <glyph glyph-name="infinity" unicode="&#x221e;" horiz-adv-x="1485" 
d="M342 290q-96 10 -161.5 57t-94.5 119t-17 158q13 91 64.5 165t130.5 120t172 49q75 0 127 -22.5t96 -68t91 -115.5q66 69 123 114.5t114 68.5t121 23q106 -3 174 -49.5t96.5 -120.5t15.5 -164q-12 -90 -63 -164.5t-129 -119.5t-172 -50q-73 0 -125 21t-96 66t-95 117
q-69 -71 -126 -117t-115.5 -68t-130.5 -19zM365 445q53 0 94 21.5t83 61.5t95 96q-40 59 -71 99t-65 60t-86 19q-75 -6 -128.5 -58.5t-63.5 -119.5q-9 -74 32 -123.5t110 -55.5zM1050 445q75 7 128.5 58.5t62.5 120.5q10 71 -29 122t-119 57q-48 0 -87.5 -21t-81 -61
t-96.5 -97q33 -48 58.5 -82t49 -55.5t51 -31.5t63.5 -10z" />
    <glyph glyph-name="integral" unicode="&#x222b;" horiz-adv-x="931" 
d="M189 -26q-62 1 -107 30.5t-65 81t-6 115.5l114 -9q-4 -31 5.5 -53t41.5 -26q30 -1 54.5 17t32.5 48l251 1080q14 50 52 88.5t87.5 60t98.5 19.5q60 -2 104 -34t62.5 -83.5t5.5 -110.5l-105 10q3 40 -16.5 59.5t-49.5 17.5q-28 1 -50.5 -19t-29.5 -48l-250 -1075
q-29 -88 -91.5 -128t-138.5 -41z" />
    <glyph glyph-name="approxequal" unicode="&#x2248;" horiz-adv-x="1246" 
d="M834 710q-63 0 -133 31.5t-139.5 72.5t-133 72t-114.5 31q-41 1 -72.5 -21.5t-49 -58.5t-15.5 -76l-165 -4q-5 81 37.5 154t115.5 120t159 47q62 0 126 -32t128 -74t125 -73.5t116 -31.5q41 0 73.5 21.5t50.5 57.5t16 76l164 6q6 -83 -31.5 -155.5t-105.5 -117.5
t-152 -45zM834 162q-63 0 -133 31.5t-139.5 72.5t-133 72t-114.5 31q-41 1 -72.5 -21.5t-49 -58.5t-15.5 -76l-165 -4q-5 81 37.5 154t115.5 120t159 47q62 0 126 -32t128 -74t125 -73.5t116 -31.5q41 0 73.5 21.5t50.5 57.5t16 76l164 6q6 -83 -31.5 -155.5t-105.5 -117.5
t-152 -45z" />
    <glyph glyph-name="notequal" unicode="&#x2260;" horiz-adv-x="1160" 
d="M905 1182l-127 -293h328l-23 -167h-378l-105 -244h449l-23 -167h-498l-128 -293h-175l128 293h-327l23 167h376l106 244h-448l23 167h498l126 293h175z" />
    <glyph glyph-name="lessequal" unicode="&#x2264;" horiz-adv-x="1160" 
d="M1030 339l-961 284l39 277l1040 286l-24 -175l-909 -248l839 -249zM-18 0l23 168h1000l-23 -168h-1000z" />
    <glyph glyph-name="greaterequal" unicode="&#x2265;" horiz-adv-x="1160" 
d="M31 350l24 175l909 243l-840 243l24 175l961 -280l-39 -278zM-18 0l23 168h1000l-23 -168h-1000z" />
    <glyph glyph-name="lozenge" unicode="&#x25ca;" horiz-adv-x="923" 
d="M230 0l-170 702l364 698h271l168 -698l-366 -702h-267zM381 134l306 568l-146 568l-304 -568z" />
    <glyph glyph-name="uniFFFD" unicode="&#xfffd;" horiz-adv-x="1630" 
d="M714 -26q-54 0 -103 20t-86 62l-355 414q-36 42 -48.5 94t-5.5 106q8 54 36 106t74 92l472 414q48 42 102.5 62t108.5 20t102.5 -20t84.5 -62l356 -414q36 -42 49 -93t5 -105q-7 -54 -34.5 -106t-75.5 -94l-473 -414q-46 -40 -100.5 -61t-108.5 -21zM766 296
q26 0 46 18.5t24 43.5q3 26 -12 43.5t-41 17.5t-46.5 -17.5t-23.5 -43.5q-4 -25 11.5 -43.5t41.5 -18.5zM732 516h122v2q7 47 54 71q58 30 97.5 84t48.5 119q9 63 -15 115t-71.5 83t-110.5 31t-119.5 -31t-95 -83t-47.5 -115h123q6 45 42 75.5t80 30.5q43 0 70 -30.5
t21 -75.5q-4 -30 -22 -56t-44 -39q-54 -25 -89.5 -73.5t-43.5 -105.5v-2z" />
    </font>
</defs>
</svg>
